osu file format v9

[General]
AudioFilename: Donkey kong country ice cave chant.mp3
AudioLeadIn: 0
PreviewTime: 25323
Countdown: 0
SampleSet: Soft
StackLeniency: 0.7
Mode: 0
LetterboxInBreaks: 1

[Editor]
Bookmarks: 9547,15736,24177,29242,32899,42184,47249,51469,55690,66944,71727,75666,80168,85232,93954,98175,100988
DistanceSpacing: 1.2
BeatDivisor: 4
GridSize: 4

[Metadata]
Title:Ice Cave Chant
Artist:Eveline Fischer
Creator:bomber34
Version:Donkey Kong
Source:Donkey Kong Country
Tags:Snes 16-bit Rare Nintendo david wise

[Difficulty]
HPDrainRate:6
CircleSize:4
OverallDifficulty:4
ApproachRate:6
SliderMultiplier:1.49999990463257
SliderTickRate:2

[Events]
//Background and Video events
0,0,"Donkey Kong Slipslide ride.png"
//Break Periods
2,63205,66035
//Storyboard Layer 0 (Background)
//Storyboard Layer 1 (Fail)
//Storyboard Layer 2 (Pass)
//Storyboard Layer 3 (Foreground)
//Storyboard Sound Samples
//Background Colour Transformations
3,100,163,162,255

[TimingPoints]
9547,562.719812426729,4,2,0,50,1,0
56576,-100,4,2,0,30,0,0
64139,-100,4,2,0,50,0,0
99582,-100,4,2,0,30,0,0

[Colours]
Combo1 : 70,70,251
Combo2 : 164,0,164

[HitObjects]
96,72,9547,1,2
176,160,10110,1,0
256,72,10673,1,2
336,160,11235,1,0
424,72,11798,5,2
336,160,12361,1,0
424,248,12924,1,2
336,160,13486,1,0
256,248,14048,5,2
168,168,14612,1,0
120,312,15174,1,2
200,348,15455,1,0
280,308,15736,1,2
392,296,16018,6,0,B|448:263,1,37.4999976158143
392,192,16580,2,0,B|448:159,1,37.4999976158143
392,88,17143,2,0,B|448:55,1,37.4999976158143
288,76,17706,5,2
200,76,17987,1,2
120,88,18269,6,0,B|64:121,1,37.4999976158143
120,192,18831,2,0,B|64:225,1,37.4999976158143
120,296,19394,2,0,B|64:329,1,37.4999976158143
120,348,19675,5,2
192,292,19957,1,0
120,236,20238,1,2
72,192,20520,6,0,B|128:192,1,37.4999976158143
256,312,21082,2,0,B|256:248,1,37.4999976158143
424,192,21645,2,0,B|360:192,1,37.4999976158143
296,96,22208,5,2
392,184,22770,1,2
296,288,23333,1,2
192,184,23896,1,2
304,192,24459,5,2
320,168,24599,1,0
344,152,24740,1,2
376,152,24881,1,0
400,168,25021,1,2
416,192,25162,1,2
424,224,25303,1,2
416,256,25443,1,2
328,268,25725,5,4
232,272,26006,1,2
216,180,26287,1,2
232,136,26428,1,2
312,88,26709,1,0
408,128,26991,5,2
432,144,27131,1,0
448,176,27272,1,2
448,208,27413,1,0
440,232,27554,1,2
416,256,27694,1,2
372,192,27976,1,4
240,224,28398,5,0
212,140,28679,1,0
300,160,28960,1,2
328,72,29242,5,2
256,40,29523,1,0
184,40,29804,1,2
152,64,29945,1,2
112,128,30226,1,4
256,164,30790,5,2
256,164,30930,1,2
368,184,31211,1,2
428,280,31493,1,2
328,328,31774,1,0
228,272,32055,1,0
228,272,32196,1,2
120,304,32477,1,4
68,144,32899,5,2
152,172,33181,1,2
152,172,33321,1,2
152,172,33462,1,0
212,220,33743,2,0,B|260:268|372:268|444:208,1,224.999985694886
396,76,35150,5,2
352,156,35432,1,2
352,156,35572,1,2
352,156,35713,1,0
280,104,35994,2,0,B|168:48|32:112,1,224.999985694886
156,304,37401,5,2
256,352,37682,1,0
360,308,37964,1,2
256,260,38245,1,4
440,104,39653,5,2
440,176,39934,1,0
440,208,40075,1,0
440,240,40215,2,0,B|440:320,1,74.9999952316285,0|4
264,232,40777,5,0
264,232,40918,1,2
144,232,41340,1,0
144,232,41481,2,0,B|144:160,3,37.4999976158143,0|2|2|0
262,54,42467,5,2
288,32,42606,1,2
320,40,42747,1,2
320,104,43028,1,0
360,160,43310,1,0
360,160,43450,1,0
400,216,43732,1,4
360,272,44013,1,0
256,312,44295,5,2
256,312,44436,1,2
192,252,44716,1,2
264,200,44998,1,0
196,144,45279,1,2
268,92,45561,1,0
268,92,45701,1,0
340,144,45983,1,4
72,320,47249,5,2
144,320,47530,1,2
192,264,47811,1,2
192,264,47952,1,2
240,320,48233,1,4
416,312,48796,5,0
416,312,48937,1,0
328,244,49218,1,0
428,196,49500,1,2
328,144,49781,1,2
424,88,50062,1,2
424,88,50203,1,0
324,40,50484,1,4
160,64,51469,5,0
160,136,51750,1,2
160,328,52595,1,4
400,328,53720,5,0
400,256,54001,1,2
400,64,54845,1,4
200,128,55690,5,0
112,184,55971,1,2
208,224,56252,1,4
120,288,56535,5,0
144,304,56675,1,0
168,312,56816,1,2
200,320,56956,1,0
232,320,57097,1,0
264,312,57238,1,0
296,304,57378,1,2
320,288,57518,1,0
344,264,57659,1,0
360,240,57800,1,0
368,216,57941,1,0
368,184,58082,1,2
360,152,58222,1,2
256,192,58503,12,2,63005
328,56,67085,6,0,B|296:32,2,37.4999976158143,2|0|2
272,80,67507,2,0,B|280:200|168:200|112:200,1,224.999985694886,2|2
256,56,69195,5,0
188,88,69476,1,0
148,24,69758,2,0,B|104:56|76:112|144:196|248:148,1,224.999985694886,2|2
408,192,71868,5,2
408,192,72008,1,2
256,192,72852,1,4
104,88,73697,5,2
176,56,73978,1,2
248,88,74259,1,2
344,288,75103,1,4
192,288,75666,5,2
240,192,75948,1,2
240,136,76088,1,0
104,112,76510,5,4
376,112,77354,1,4
240,176,77917,5,2
288,232,78198,1,0
288,272,78339,1,0
96,312,78761,5,4
432,312,79605,1,4
424,120,80168,5,2
336,116,80449,1,2
304,84,80590,1,0
272,116,80730,1,0
180,120,81012,1,4
136,208,81293,6,0,B|224:248|288:160|328:160|424:216,1,299.999980926514
424,288,82700,5,2
424,288,82841,1,2
424,288,82982,2,0,B|336:288,1,74.9999952316285
272,288,83544,1,2
272,288,83685,1,0
168,328,84107,5,0
168,328,84247,1,0
48,288,84670,5,2
48,152,85232,5,2
68,120,85373,1,2
88,152,85513,1,2
312,152,86359,1,4
312,152,86499,2,0,B|348:120|380:152,2,74.9999952316285
312,152,87202,1,2
192,152,87483,5,2
192,64,87765,1,4
456,112,88609,1,4
392,304,89453,5,2
324,336,89734,1,0
256,304,90015,1,2
324,88,90860,1,4
56,72,91985,5,0
56,144,92266,1,2
216,304,93110,1,4
256,192,93954,5,2
320,240,94236,1,2
384,192,94517,2,0,B|480:188|464:124|476:68|376:64,1,224.999985694886,2|2
104,64,96487,5,2
176,64,96768,2,0,B|256:48|360:96|360:200,1,224.999985694886,2|0
400,264,98456,5,4
304,208,98738,1,4
208,264,99019,1,4
304,324,99300,5,0
332,312,99441,1,0
352,288,99582,1,2
364,260,99722,1,0
364,228,99863,1,0
352,200,100004,1,0
332,176,100144,1,2
304,160,100285,1,0
276,156,100426,1,0
248,164,100566,1,0
224,184,100707,1,2
212,212,100848,1,2
208,240,100988,1,4
256,192,101129,12,2,105772
