osu file format v9

[General]
AudioFilename: Donkey kong country ice cave chant.mp3
AudioLeadIn: 0
PreviewTime: 25323
Countdown: 0
SampleSet: Soft
StackLeniency: 0.7
Mode: 0
LetterboxInBreaks: 1

[Editor]
Bookmarks: 9547,16018,24740,29242,33761,37980,42747,47249,52595,67507,75666,80168,85514,98456
DistanceSpacing: 1.5
BeatDivisor: 4
GridSize: 4

[Metadata]
Title:Ice Cave Chant
Artist:Eveline Fischer
Creator:bomber34
Version:Diddy Kong
Source:Donkey Kong Country
Tags:Snes 16-bit Rare Nintendo david wise

[Difficulty]
HPDrainRate:5
CircleSize:4
OverallDifficulty:4
ApproachRate:4
SliderMultiplier:1.00000000596046
SliderTickRate:2

[Events]
//Background and Video events
0,0,"Donkey Kong Slipslide ride.png"
//Break Periods
2,63205,66187
//Storyboard Layer 0 (Background)
//Storyboard Layer 1 (Fail)
//Storyboard Layer 2 (Pass)
//Storyboard Layer 3 (Foreground)
//Storyboard Sound Samples
//Background Colour Transformations
3,100,163,162,255

[TimingPoints]
9547,562.719812426729,4,2,0,50,1,0
56716,-100,4,2,0,30,0,0
64130,-100,4,2,0,50,0,0
99160,-100,4,2,0,30,0,0

[Colours]
Combo1 : 70,70,251
Combo2 : 164,0,164

[HitObjects]
56,64,9547,21,2
156,64,10110,1,0
256,64,10672,1,2
356,64,11235,1,2
356,164,11798,5,0
356,264,12360,1,0
256,264,12924,1,2
156,264,13486,1,2
56,264,14049,5,0
56,164,14611,1,0
56,64,15174,1,2
176,84,16018,6,0,B|88:132|88:236|188:296,1,250.000001490115,2|2
324,284,18269,2,0,B|412:244|412:116|321:81,1,250.000001490115,2|2
148,68,20520,6,0,B|321:165|57:213|207:307,1,300.000001788138,2|0
356,300,22770,2,0,B|182:202|446:154|296:60,1,300.000001788138,2|0
256,136,24740,5,6
208,184,25020,1,2
256,232,25303,1,2
304,184,25583,1,2
256,136,25864,1,0
376,112,26429,5,2
404,152,26709,1,2
404,200,26990,1,2
380,244,27272,1,2
340,276,27554,2,0,B|228:276,1,100.000000596046,2|0
136,144,29242,5,0
184,184,29523,1,0
232,144,29804,2,0,B|336:144,1,100.000000596046,2|0
360,48,30930,5,0
376,104,31211,1,0
328,136,31493,2,0,B|280:160|328:184|304:232,2,100.000000596046,2|0|0
256,112,32899,5,0
256,112,33181,1,0
256,112,33462,1,0
256,112,33743,2,0,B|160:112|160:216,1,150.000000894069,2|2
160,312,35150,5,0
160,312,35432,1,0
160,312,35713,1,0
160,312,35994,2,0,B|256:312|256:208,1,150.000000894069,2|2
384,192,37401,5,0
321,152,37682,1,0
257,192,37963,1,2
193,152,38245,1,4
88,192,39652,5,0
136,248,39933,1,0
184,192,40214,1,0
232,248,40496,1,4
252,320,40777,2,0,B|284:320|380:240|276:168|252:168,1,200.000001192092
272,72,42747,5,4
272,144,43028,1,0
208,112,43310,1,0
208,112,43450,1,0
136,112,43732,1,0
264,248,44435,6,0,B|264:136,1,100.000000596046,2|6
208,120,45279,1,0
264,96,45561,1,0
264,96,45701,1,0
320,120,45983,1,0
264,256,46686,1,0
160,192,47249,5,4
196,240,47530,1,2
156,284,47811,1,0
156,284,47952,1,2
120,236,48233,1,2
116,84,48937,5,0
208,84,49500,1,2
240,52,49781,1,0
284,44,50062,2,0,B|388:44|396:156|332:196,1,200.000001192092,2|2
224,224,51469,5,2
160,264,51750,2,0,B|184:288|220:304|256:300|288:268|296:240,1,150.000000894069,2|2
412,152,53720,5,2
336,164,54001,2,0,B|336:130|350:93|378:70|423:70|449:84,1,150.000000894069,2|2
256,88,55690,5,4
256,160,55971,1,2
256,232,56252,1,4
328,224,56534,2,0,B|336:336|168:336|184:216,1,250.000001490115
256,192,58503,12,2,63005
200,192,67507,6,0,B|264:192,3,50.000000298023,2|2|2|2
384,104,69195,5,2
432,144,69476,1,2
384,184,69758,1,4
204,192,70602,2,0,B|136:148|144:96|200:68|264:96,1,200.000001192092,2|0
256,92,72008,5,2
268,272,72852,1,4
232,96,73697,5,0
176,144,73978,1,2
124,92,74259,2,0,B|88:124|96:200|168:216,1,150.000000894069,2|6
384,232,75666,5,0
384,232,75947,1,2
384,232,76229,1,0
384,232,76510,2,0,B|384:80,1,150.000000894069,2|6
264,80,77917,5,0
264,144,78198,1,2
264,208,78480,2,0,B|168:208,4,50.000000298023,0|2|2|2|2
320,112,80168,5,0
256,76,80449,1,2
256,152,80731,1,2
192,112,81012,1,4
192,300,82419,5,0
256,264,82700,1,2
256,340,82981,1,2
320,300,83263,1,4
200,200,85514,6,0,B|260:256|280:144|352:200,1,150.000000894069,2|6
260,96,87483,2,0,B|260:160,1,50.000000298023,2|2
260,236,88609,1,4
96,192,89453,5,0
144,248,89734,1,0
196,192,90015,2,0,B|232:240|224:280|196:312|152:324,1,150.000000894069,2|6
88,144,91985,6,0,B|160:104,1,50.000000298023,2|2
296,200,93110,1,4
384,72,93954,5,2
336,120,94236,1,2
296,176,94517,2,0,B|264:216|328:264|384:248|396:204,1,150.000000894069,0|6
400,304,96487,5,2
400,232,96768,2,0,B|408:168|328:120|264:136,1,150.000000894069,0|4
200,248,98456,5,2
248,248,98737,1,0
296,248,99019,2,0,B|416:192|248:128|392:64,1,200.000001192092,4|0
256,192,101129,12,2,105772
