osu file format v9

[General]
AudioFilename: Donkey kong country ice cave chant.mp3
AudioLeadIn: 0
PreviewTime: 25323
Countdown: 0
SampleSet: Soft
StackLeniency: 0.7
Mode: 0
LetterboxInBreaks: 1

[Editor]
Bookmarks: 9547,15736,24740,33743,42747,51469,67507,76229,85514,93954,98456
DistanceSpacing: 0.9
BeatDivisor: 2
GridSize: 4

[Metadata]
Title:Ice Cave Chant
Artist:Eveline Fischer
Creator:bomber34
Version:Candy Kong
Source:Donkey Kong Country
Tags:Snes 16-bit Rare Nintendo david wise

[Difficulty]
HPDrainRate:3
CircleSize:3
OverallDifficulty:4
ApproachRate:3
SliderMultiplier:1.00000000596046
SliderTickRate:2

[Events]
//Background and Video events
0,0,"Donkey Kong Slipslide ride.png"
//Break Periods
2,63204,66067
//Storyboard Layer 0 (Background)
//Storyboard Layer 1 (Fail)
//Storyboard Layer 2 (Pass)
//Storyboard Layer 3 (Foreground)
//Storyboard Sound Samples
//Background Colour Transformations
3,100,163,162,255

[TimingPoints]
9547,562.719812426729,4,2,0,50,1,0
56815,-100,4,2,0,30,0,0
64139,-100,4,2,0,50,0,0
99582,-100,4,2,0,30,0,0

[Colours]
Combo1 : 70,70,251
Combo2 : 164,0,164

[HitObjects]
256,56,9547,1,2
432,260,11235,1,2
144,44,13486,5,2
64,300,15174,1,2
152,312,15736,6,0,B|288:352|400:296|440:152,2,350.000002086161
140,204,20238,2,0,B|113:45|252:-35|372:164,2,350.000002086161,2|2|0
224,236,24740,5,4
332,92,25865,1,2
156,64,26991,1,4
96,232,28116,1,2
256,316,29242,6,0,B|456:316,1,200.000001192092,0|2
424,184,31493,2,0,B|216:184,1,200.000001192092,0|2
184,280,33743,6,0,B|256:336|360:272,1,150.000000894069
280,176,35994,2,0,B|256:72|128:120,1,150.000000894069
124,188,37401,5,2
108,228,37682,1,2
112,272,37964,2,0,B|184:316,1,50.000000298023,2|4
380,296,39652,5,2
392,252,39933,1,2
392,208,40215,2,0,B|320:152,1,50.000000298023,2|4
80,168,42747,6,0,B|88:280|224:272,1,200.000001192092,4|2
300,316,44435,1,2
368,260,44998,2,0,B|488:196|416:76,1,200.000001192092,4|2
336,112,47249,6,0,B|136:112,1,200.000001192092,4|0
92,192,48937,1,0
144,268,49500,2,4,B|248:333|351:258,1,200.000001192092,4|0
456,212,51469,5,2
456,164,51750,2,0,B|456:84,1,50.000000298023
356,108,52595,1,2
248,252,53720,6,0,B|248:302,1,50.000000298023,2|2
116,272,54845,1,2
120,136,55690,5,0
120,136,55971,1,0
120,136,56252,1,2
120,136,56534,2,0,B|260:224|424:136,1,300.000001788138
256,192,58503,12,2,63004
368,136,67507,5,6
244,84,68351,1,2
124,148,69195,1,0
124,188,69476,1,0
124,228,69758,1,4
256,264,70602,1,4
448,148,72008,5,2
444,284,72852,1,2
308,288,73696,5,2
264,304,73978,1,2
220,292,74259,1,4
264,164,75103,1,4
128,280,76229,6,0,B|224:280,1,50.000000298023
312,280,77354,1,0
156,188,78480,5,0
200,188,78761,2,0,B|240:252|208:340,1,150.000000894069
144,272,80168,5,2
116,236,80449,1,2
116,192,80730,1,2
136,152,81012,1,4
360,156,82419,5,2
392,188,82700,1,2
392,232,82982,1,2
364,268,83263,1,4
328,104,85514,6,0,B|224:104|152:160,1,150.000000894069
72,280,87483,1,2
104,312,87765,2,0,B|168:376|256:312,1,150.000000894069
272,192,89453,5,2
312,172,89734,1,2
352,192,90016,1,4
308,320,90860,1,2
252,148,91985,5,0
252,148,92266,1,2
124,108,93110,1,2
104,240,93954,5,0
140,212,94236,1,0
176,240,94517,2,0,B|248:264|248:264|336:208,1,150.000000894069
148,152,96487,1,0
148,108,96768,2,0,B|188:52|236:52|276:132,1,150.000000894069
384,180,98456,5,2
384,180,98737,1,2
384,180,99019,1,4
384,180,99300,2,0,B|241:258|97:170,1,300.000001788138
256,192,101270,12,2,105770
