osu file format v5

[General]
AudioFilename: Evanescence-_Bring_Me_To_Life.mp3
AudioLeadIn: 0
PreviewTime: -1
Countdown: 1
SampleSet: Normal

[Metadata]
Title:_Bring_Me_To_Life
Artist:Evanessence
Creator:Alieax
Version:Normal

[Difficulty]
HPDrainRate:5
CircleSize:5
OverallDifficulty:5
SliderMultiplier:1.4
SliderTickRate:1

[Events]
//Background and Video events
0,0,"10x4qwg.jpg"
//Break Periods
//Storyboard Layer 0 (Background)
//Storyboard Layer 1 (Failing)
//Storyboard Layer 2 (Passing)
//Storyboard Layer 3 (Foreground)
//Storyboard Sound Samples
//Background Colour Transformations
3,100,0,64,64

[TimingPoints]
9650,571.428571428571,4,1,1,100

[HitObjects]
128,128,11078,5,0
128,192,12364,1,0
192,192,13649,1,0
288,192,14364,1,0
256,128,15649,5,0
256,128,15935,1,0
320,128,16507,5,0
320,192,17792,1,0
256,192,18364,1,0
192,192,19078,1,0
224,128,20649,5,0
256,160,21649,1,0
352,128,22507,5,0
352,192,23507,1,0
288,192,24364,1,0
288,256,25649,5,0
288,256,25935,1,0
224,256,26649,1,0
224,160,27935,5,0
288,160,29078,1,0
384,160,30364,5,0
384,160,30649,1,0
384,160,30935,1,0
320,160,31649,1,0
288,160,32364,1,0
256,192,32935,1,0
128,160,34364,5,0
192,160,35221,5,0
256,160,37221,5,0
256,224,37792,1,0
320,224,38649,5,0
320,224,38935,1,0
320,224,39221,1,0
256,128,40792,5,0
256,192,41792,1,0
192,192,43078,1,0
192,224,43649,1,0
192,256,44649,1,0
384,224,45792,1,0
320,192,46935,1,0
256,192,48221,1,0
192,192,48649,1,0
128,192,49221,1,0
352,128,50792,5,0
288,192,52078,1,0
416,192,54649,1,0
64,96,55935,5,0
64,96,56364,1,0
64,96,56649,1,0
192,96,58364,5,0
192,160,58792,1,0
192,192,59221,1,0
320,32,61078,2,0,B|320:192,1,140
192,160,62221,5,0
192,224,62792,1,0
256,224,63507,1,0
320,224,64221,1,0
384,224,64792,1,0
384,288,65364,1,0
320,288,66078,1,0
256,288,66649,5,0
192,288,67221,1,0
192,224,67792,1,0
288,224,68649,1,0
288,224,68935,1,0
288,224,69221,1,0
256,160,71078,5,0
192,160,71792,1,0
192,224,72364,5,0
256,224,73078,1,0
320,224,73649,1,0
384,224,74364,1,0
384,192,74935,1,0
320,192,75507,1,0
288,192,76221,1,0
128,64,76792,2,0,B|128:192,2,105
192,128,78221,1,0
256,160,78649,1,0
352,224,80078,5,0
352,160,80792,1,0
288,160,82221,1,0
288,224,82792,1,0
224,224,83507,1,0
128,96,84935,5,0
128,96,85364,1,0
192,96,86078,1,0
256,96,86649,1,0
320,128,87935,5,0
320,128,88507,1,0
320,128,88792,1,0
320,192,90078,5,0
320,256,90935,1,0
384,224,92221,1,6
352,224,92792,1,6
320,224,93507,1,6
384,224,94507,1,0
416,160,95078,1,2
352,160,96364,5,2
288,160,98649,5,2
192,160,99507,5,2
192,256,100221,5,2
256,256,100792,5,2
320,192,101507,5,2
320,192,101792,1,2
320,192,102078,1,2
384,224,102649,5,0
352,256,103364,1,0
320,288,104078,1,0
288,320,104649,1,0
224,352,105221,1,0
192,320,105792,1,0
192,288,106507,1,0
224,256,107078,1,0
256,224,107792,1,0
256,224,108364,1,0
288,192,108935,1,0
320,192,109649,1,0
320,192,110364,1,0
384,192,110935,5,0
352,128,111649,1,0
256,96,112364,2,0,B|256:320,1,210
96,128,114078,1,0
128,128,114649,1,0
256,128,116507,5,0
256,160,117221,5,0
352,128,117792,5,0
352,160,118507,1,0
352,192,119221,1,0
352,224,119792,5,0
352,256,120364,1,0
352,288,120935,1,0
352,288,121078,1,0
320,288,121649,1,0
256,256,122935,5,0
192,256,124221,1,0
192,320,125364,1,0
256,320,126792,1,0
96,64,127792,6,0,B|96:160,1,70
128,64,128364,2,0,B|128:160,1,70
128,160,130221,1,0
160,160,130649,1,0
192,160,130935,1,0
224,160,131364,1,0
320,96,133078,5,0
320,192,134364,1,0
224,192,135507,1,0
224,288,136792,1,0
320,288,138078,1,0
64,64,139364,5,0
96,128,139935,1,0
128,64,140507,1,0
160,128,141221,1,0
224,256,141935,1,0
160,256,143078,1,0
96,256,144364,1,0
96,320,145649,1,0
160,320,146935,5,0
224,320,148221,1,0
288,320,149364,1,0
320,288,150792,1,4
288,288,151364,1,4
256,288,151935,1,4
224,288,153078,1,0
160,288,154507,1,0
192,224,155649,5,0
256,224,156935,1,0
320,224,158221,1,0
448,96,158792,2,0,B|64:320|32:64|384:32,1,595
96,128,162078,1,0
96,160,162649,1,0
96,192,163364,1,0
96,224,164078,1,0
256,192,164935,5,0
288,192,165221,1,0
352,192,165935,1,0
416,192,166649,1,0
192,160,167649,5,0
192,224,168364,1,0
192,288,168935,1,0
224,288,169364,1,0
288,128,170221,5,0
288,192,170792,1,0
288,224,171507,1,0
288,256,171792,1,0
288,288,172078,1,0
192,256,172792,5,0
256,256,174078,1,0
224,192,175364,1,0
224,288,176649,1,0
160,288,177078,1,0
96,288,177507,1,0
288,32,178507,2,0,B|96:288,1,315
416,256,180935,2,0,B|64:256,1,315
32,128,183507,1,0
96,128,184078,1,0
160,128,184792,1,0
224,128,185935,5,0
224,192,186507,1,0
224,256,187221,1,0
352,96,188507,5,0
352,96,188792,1,0
352,96,189078,1,0
320,96,189792,1,0
288,96,190507,1,0
256,96,191078,1,0
224,96,191649,1,0
224,192,192364,5,0
288,192,193078,1,0
352,192,193649,1,0
352,256,194364,1,0
256,256,194935,5,0
256,256,195221,1,0
256,256,195507,1,0
256,224,196221,5,0
224,224,196792,1,0
192,224,197507,1,0
160,224,198078,1,0
128,192,198792,1,0
160,160,199364,1,0
192,160,199935,1,0
224,160,200507,1,0
256,160,201221,1,0
288,160,201792,1,0
384,128,202649,2,0,B|96:288,1,315
128,192,205078,1,0
224,96,206364,5,0
224,160,207507,1,0
352,160,208792,5,0
288,192,209364,1,0
128,128,211078,5,0
128,160,211792,1,0
192,128,212507,1,0
256,128,213792,1,0
320,128,215078,1,0
288,192,216364,1,0
256,192,217649,12,0,222935
160,128,224364,5,0
160,192,225792,1,0
192,256,227078,1,0
224,256,227649,1,0
256,256,228364,1,0
320,256,228649,1,0
320,192,229649,1,0
256,192,230507,1,0
256,256,231649,1,0
224,256,232221,1,0
224,256,232507,1,0
224,256,232792,1,0
224,224,233507,1,0
192,224,233792,1,0
192,256,234649,1,0
192,288,235507,1,0
224,288,236507,1,0
