osu file format v5

[General]
AudioFilename: Tourniquet-Evanescence.mp3
AudioLeadIn: 0
PreviewTime: -1
Countdown: 1
SampleSet: Normal
StackLeniency: 0.7
Mode: 0

[Metadata]
Title:Tourniquet
Artist:Evanescence
Creator:merecy
Version:Normal
Source:
Tags:

[Difficulty]
HPDrainRate:4
CircleSize:5
OverallDifficulty:3
SliderMultiplier:1.4
SliderTickRate:3

[Events]
//Background and Video events
0,0,"Evanescence.jpg"
//Break Periods
//Storyboard Layer 0 (Background)
//Storyboard Layer 1 (Failing)
//Storyboard Layer 2 (Passing)
//Storyboard Layer 3 (Foreground)
//Storyboard Sound Samples
//Background Colour Transformations
3,100,163,162,255

[TimingPoints]
8,1000,4,1,0,100

[HitObjects]
64,128,11008,2,0,B|320:256|448:64,1,420
256,64,14758,6,0,B|256:320,1,245
128,128,18258,2,0,B|192:256,2,140
192,64,23758,5,0
192,192,24258,1,0
192,320,25008,1,0
64,128,26008,1,0
128,128,26258,1,0
192,128,26508,1,0
256,128,27008,1,0
320,128,27258,1,0
448,128,28508,5,0
448,192,28758,1,0
448,256,29258,1,0
448,256,29508,1,0
448,320,29758,1,0
320,320,30008,1,0
256,320,30508,1,0
256,320,30758,1,0
128,320,31008,1,0
64,320,31258,1,0
64,192,32008,1,0
128,64,32508,1,0
384,64,33758,5,0
384,192,34258,1,0
384,256,35008,1,0
320,320,35508,1,0
256,320,36008,1,0
192,320,36758,1,0
128,320,37258,1,0
64,320,37758,1,0
0,320,38508,1,0
64,64,39758,1,0
192,64,40258,1,0
320,64,40758,1,0
448,128,41758,1,0
448,256,42508,1,0
448,256,43008,1,0
320,256,44758,1,0
320,256,45508,1,0
320,256,46008,1,0
192,256,46758,1,0
64,192,47758,1,0
64,192,48258,1,0
128,192,49008,1,0
256,192,49758,1,0
256,128,50508,1,0
320,128,51258,1,0
320,64,51758,1,0
384,64,52508,1,0
384,128,53008,1,0
384,192,53758,1,0
256,256,54258,1,0
320,320,55008,1,0
384,192,55508,1,0
320,128,56008,1,0
256,256,56758,1,0
384,256,57258,1,0
384,192,57758,1,0
384,128,59008,5,0
384,192,59508,1,0
384,256,60008,1,0
192,192,61508,1,0
192,128,62258,1,0
192,64,62758,1,0
128,128,64258,5,0
128,256,65258,1,0
448,128,66508,1,0
448,192,67008,1,0
448,256,67508,1,0
384,64,68508,5,0
256,64,69258,1,0
128,64,69758,1,0
128,192,70758,1,0
128,256,71258,1,0
256,320,71758,1,0
448,64,73008,5,0
320,64,73758,1,0
192,64,74258,1,0
128,64,74758,1,0
128,192,75758,1,0
128,192,76008,1,0
448,192,77758,1,0
448,128,78508,1,0
448,64,79508,1,0
320,64,80258,1,0
256,256,81508,5,0
320,256,82008,1,0
384,128,82508,1,0
448,256,83008,1,0
384,320,83758,1,0
192,320,84258,1,0
128,256,85508,1,0
128,128,87258,1,0
128,64,87758,1,0
256,64,88758,1,0
320,64,89008,1,0
384,128,89508,1,0
448,128,91258,5,0
448,192,91758,1,0
448,256,92508,1,0
448,320,93008,1,0
384,320,93758,1,0
256,320,94258,1,0
192,320,95008,1,0
128,320,95508,1,0
384,128,96758,5,0
384,128,97258,1,0
256,128,98258,1,0
256,128,98508,1,0
256,128,99008,1,0
192,128,100258,1,0
128,128,100758,1,0
448,128,102008,5,0
448,256,102508,1,0
384,320,103008,1,0
384,320,104258,1,0
256,320,104758,1,0
448,128,106758,1,0
384,128,107258,1,0
320,128,108508,5,0
320,128,108758,1,0
192,128,109258,1,0
64,256,110008,1,0
448,64,111758,5,0
448,128,112258,1,0
448,256,113508,1,0
384,128,115508,1,4
384,128,116758,5,4
192,128,118258,1,4
192,192,118508,1,4
192,192,118758,1,4
64,128,121508,5,4
384,128,123508,5,4
384,192,124008,1,4
256,192,125008,1,0
256,192,125508,1,0
384,256,126008,1,0
448,128,127258,1,0
384,128,127508,1,0
128,192,128008,1,0
320,256,129258,1,0
320,320,130008,1,0
384,256,130758,1,0
320,128,131258,1,0
192,192,132258,1,0
192,192,132508,1,0
192,192,132758,1,0
192,192,133008,1,0
320,128,134258,1,0
384,128,134758,1,0
320,256,135758,1,0
320,256,136008,1,0
192,256,136258,1,0
64,256,137758,1,0
64,128,138258,1,0
192,128,139008,1,0
320,128,139508,1,0
448,128,140258,1,0
448,192,140758,1,0
384,320,141758,1,0
128,256,143008,1,0
256,256,143508,1,0
320,256,144258,1,0
448,256,145258,1,0
448,256,145508,1,0
384,128,147008,1,0
320,128,147758,1,0
192,192,148258,1,0
128,128,149008,1,0
448,64,149758,5,0
384,192,150508,1,0
256,192,151008,1,0
192,256,151758,1,0
384,64,153008,5,0
256,192,156508,12,0,159508
256,192,160508,12,0,162258
256,192,163008,12,0,164758
256,192,165758,12,0,167008
256,192,168508,12,0,170008
256,256,173258,5,0
320,192,173758,1,0
192,128,174258,1,0
320,64,174758,1,0
512,64,175258,1,0
448,192,176258,5,0
448,192,176758,1,0
384,256,177258,1,0
320,320,177758,1,0
192,320,178258,1,0
0,256,179508,1,0
64,192,180008,1,0
64,64,181258,1,0
192,64,181758,1,0
256,64,182758,1,0
256,64,183008,1,0
320,64,183508,1,0
448,64,184758,1,0
448,128,185258,1,0
448,256,186008,1,0
320,256,186508,1,0
192,256,187258,1,0
64,256,187758,1,0
64,128,188758,1,0
128,128,189508,1,0
128,64,190508,1,0
128,64,191258,1,0
192,64,192008,1,0
256,64,192758,1,0
256,64,193258,1,0
384,64,195258,1,0
256,128,195758,1,0
384,192,196508,1,0
256,320,197508,1,0
320,192,198258,1,0
192,192,198758,1,0
448,64,200008,5,0
384,192,200508,1,0
384,320,201008,1,0
448,128,202258,5,0
448,128,203008,1,0
384,128,204008,1,0
256,128,205258,1,0
256,128,205508,1,0
192,128,206758,1,0
192,128,207008,1,0
192,128,207508,1,0
192,128,207758,1,0
192,128,208008,1,0
192,128,208258,1,0
320,128,210508,5,0
320,128,211258,1,0
256,128,211758,1,0
256,128,212258,1,0
192,128,213008,1,0
192,128,213508,1,0
64,128,214258,1,0
64,128,214508,1,0
64,256,215258,1,0
64,256,215508,1,0
192,128,216258,1,0
192,128,216508,1,0
192,128,216758,1,0
448,128,218258,1,0
64,128,222008,6,0,B|192:256|384:128,1,315
384,128,227508,6,4,B|0:256,1,385
64,64,241508,2,4,B|384:256|448:64|320:0|64:0|256:320,3,700
384,192,259508,2,4,B|0:192,1,350
256,192,266508,1,4
320,192,270008,1,4
256,192,272258,1,4
