osu file format v12

[General]
AudioFilename: 06 - Tourniquet.mp3
AudioLeadIn: 0
PreviewTime: 77738
Countdown: 1
SampleSet: Soft
StackLeniency: 0.7
Mode: 0
LetterboxInBreaks: 1
WidescreenStoryboard: 0

[Editor]
DistanceSpacing: 0.9
BeatDivisor: 4
GridSize: 4

[Metadata]
Title:Tourniquet
TitleUnicode:Tourniquet
Artist:Evanescence
ArtistUnicode:Evanescence
Creator:Misja
Version:Hard
Source:
Tags:Mancuso_JM_ Fallen mancusojuanmattos
BeatmapID:118156
BeatmapSetID:36579

[Difficulty]
HPDrainRate:6
CircleSize:4
OverallDifficulty:6
ApproachRate:7
SliderMultiplier:1.72
SliderTickRate:2

[Events]
//Background and Video events
0,0,"evanescence21.jpg",0,0
//Break Periods
2,96188,102138
2,152293,160739
//Storyboard Layer 0 (Background)
//Storyboard Layer 1 (Fail)
//Storyboard Layer 2 (Pass)
//Storyboard Layer 3 (Foreground)
//Storyboard Sound Samples
//Background Colour Transformations
3,100,163,162,255

[TimingPoints]
20790,587.486536766866,4,2,1,30,1,0
48401,-100,4,1,1,70,0,0
67054,-100,4,1,2,70,0,0
67348,-100,4,1,1,70,0,0
77776,-83.3333333333333,4,1,1,70,0,1
84679,-83.3333333333333,4,1,2,70,0,1
84972,-83.3333333333333,4,1,1,70,0,1
95988,-100,4,1,1,70,0,0
116403,-100,4,1,2,70,0,0
116697,-100,4,1,1,70,0,0
121103,-100,4,1,2,70,0,0
121397,-100,4,1,1,70,0,0
123453,-100,4,1,2,70,0,0
123747,-100,4,1,1,70,0,0
134174,-83.3333333333333,4,1,1,70,0,1
135203,-83.3333333333333,4,1,2,70,0,1
135496,-83.3333333333333,4,1,1,70,0,1
152386,-83.3333333333333,4,1,1,70,0,0
171774,-66.6666666666667,4,1,1,70,0,1
184551,-66.6666666666667,4,1,2,70,0,1
184845,-66.6666666666667,4,1,1,70,0,1
190573,-83.3333333333333,4,1,1,70,0,1
192776,-83.3333333333333,4,1,2,70,0,1
193070,-83.3333333333333,4,1,1,70,0,1
193951,-83.3333333333333,4,1,2,70,0,1
194245,-83.3333333333333,4,1,1,70,0,1
208785,-83.3333333333333,4,1,1,70,0,0

[Colours]
Combo1 : 125,190,255
Combo2 : 123,169,214
Combo3 : 184,235,239
Combo4 : 179,189,198
SliderBorder : 0,0,0
SliderTrackOverride : 240,245,255

[HitObjects]
112,192,40177,2,0,B|116:148|172:112|228:148|232:188,2,172,2|2|0,0:0|0:0|0:0,0:0:0:0:
172,244,41645,1,0,0:0:0:0:
172,320,41939,2,0,B|272:320,1,86
336,320,42527,2,0,B|380:316|412:264|380:212|336:208|336:208|288:204|252:148|288:96|336:88,1,344,2|0,0:0|0:0,0:0:0:0:
104,84,44583,5,0,0:0:0:0:
104,84,44876,2,0,B|168:84|188:124|156:156|124:124|136:84|212:84,2,172,0|2|0,0:0|0:0|0:0,0:0:0:0:
128,272,46639,2,0,B|132:316|184:348|236:316|240:272|240:272|244:224|300:188|352:224|360:272,1,344,2|0,0:0|0:0,0:0:0:0:
420,132,48401,5,0,0:0:0:0:
420,132,48989,1,0,0:0:0:0:
264,132,49576,2,0,B|260:88|260:88|244:44,1,86,8|0,0:0|0:0,0:0:0:0:
176,60,50164,1,0,0:0:0:0:
176,60,50458,2,0,B|184:104|184:104|196:148,1,86,0|8,0:0|0:0,0:0:0:0:
232,204,51045,2,0,B|244:244,2,43
160,236,51633,5,0,0:0:0:0:
144,160,51926,2,0,B|96:176|88:228,1,86,8|0,0:0|0:0,0:0:0:0:
116,296,52514,2,0,B|152:328|208:316|248:272|232:216,1,172,0|8,0:0|0:0,0:0:0:0:
220,156,53395,1,0,0:0:0:0:
252,132,53542,1,0,0:0:0:0:
284,112,53689,1,0,0:0:0:0:
360,104,53982,5,0,0:0:0:0:
408,168,54276,2,0,B|408:216|424:200|424:256,1,86,8|0,0:0|0:0,0:0:0:0:
488,300,54864,2,0,B|484:344|428:380|372:344|368:304,1,172,0|8,0:0|0:0,0:0:0:0:
292,316,55745,1,0,0:0:0:0:
256,332,55892,1,0,0:0:0:0:
220,316,56039,1,0,0:0:0:0:
104,84,56626,6,0,B|168:84|188:124|156:156|124:124|136:84|212:84,1,172,8|0,0:0|0:0,0:0:0:0:
260,160,57507,1,0,0:0:0:0:
204,240,57801,2,0,B|140:240|120:200|152:168|184:200|172:240|96:240,1,172,8|0,0:0|0:0,0:0:0:0:
120,316,58682,6,0,B|164:320|152:336|212:340,1,86,0|8,0:0|0:0,0:0:0:0:
276,320,59270,2,0,P|360:232|428:320,1,258
352,320,60445,2,0,B|352:60,1,258,0|8,0:0|0:0,0:0:0:0:
276,64,61620,2,0,B|128:44|200:124|16:60,1,258,0|8,0:0|0:0,0:0:0:0:
24,140,62795,1,0,0:0:0:0:
252,352,63676,5,8,0:0:0:0:
304,296,63970,2,0,B|260:272|260:224|260:224|348:224,1,172,0|0,0:0|0:0,0:0:0:0:
343,224,64851,2,0,B|436:224|436:224|436:184|408:148,1,172,8|0,0:0|0:0,0:0:0:0:
396,76,65732,1,0,0:0:0:0:
452,132,66026,1,8,0:0:0:0:
504,76,66320,2,0,B|500:32|448:0|396:32|392:76|392:76|388:124|332:160|280:124|272:76,1,344
248,48,67642,1,0,0:0:0:0:
208,48,67788,1,0,0:0:0:0:
144,188,68376,6,0,B|116:216|116:216|80:248,1,86,8|0,0:0|0:0,0:0:0:0:
248,308,68963,2,0,P|184:360|124:308,1,172,0|8,0:0|0:0,0:0:0:0:
332,300,69845,1,0,0:0:0:0:
360,276,69991,1,0,0:0:0:0:
332,248,70138,1,0,0:0:0:0:
368,228,70285,1,0,0:0:0:0:
344,200,70432,1,0,0:0:0:0:
328,124,70726,5,8,0:0:0:0:
84,100,71020,2,0,B|256:100,1,172
124,168,71901,2,0,B|220:168,2,86,8|0|0,0:0|0:0|0:0,0:0:0:0:
276,168,73076,6,0,B|340:168|360:128|328:96|296:128|308:168|384:168,1,172,8|0,0:0|0:0,0:0:0:0:
380,244,73957,1,0,0:0:0:0:
380,244,74251,1,8,0:0:0:0:
224,240,74838,1,0,0:0:0:0:
256,192,75132,12,0,77188,0:0:0:0:
136,160,77776,6,0,B|140:108|204:60|272:104|276:164,2,206.40000492096,8|0|8,0:0|0:0|0:0,0:0:0:0:
204,208,79244,1,0,0:0:0:0:
212,292,79538,2,0,B|160:292|176:272|104:272,1,103.20000246048
68,344,80126,2,0,B|16:340|-32:276|12:208|72:204,1,206.40000492096,8|0,0:0|0:0,0:0:0:0:
72,120,81007,5,0,0:0:0:0:
92,84,81154,1,0,0:0:0:0:
112,48,81301,1,8,0:0:0:0:
188,76,81594,1,0,0:0:0:0:
272,100,81888,2,0,B|304:140|304:140|352:96|400:140|400:140|424:100,2,206.40000492096,0|8|0,0:0|0:0|0:0,0:0:0:0:
288,212,83651,6,0,B|288:248|312:268|332:248|312:228|288:244|284:320,1,103.20000246048,8|0,0:0|0:0,0:0:0:0:
232,348,84238,2,0,B|72:224|148:240|24:112,1,309.600007381439
29,117,85413,1,0,0:0:0:0:
140,60,85854,1,0,0:0:0:0:
140,60,86001,1,8,0:0:0:0:
224,56,86294,1,0,0:0:0:0:
216,96,86441,1,0,0:0:0:0:
196,132,86588,1,0,0:0:0:0:
168,160,86735,1,0,0:0:0:0:
132,176,86882,1,0,0:0:0:0:
168,248,87175,6,0,B|112:232|64:260|56:320|80:372|108:372,1,206.399993701172,8|0,0:0|0:0,0:0:0:0:
192,336,88057,1,0,0:0:0:0:
248,264,88350,1,8,0:0:0:0:
336,240,88644,2,0,B|348:188|348:188|400:164,1,103.20000246048,0|0,0:0|0:0,0:0:0:0:
374,90,89232,2,0,B|324:84|324:84|272:76,1,103.20000246048,0|8,0:0|0:0,0:0:0:0:
180,72,89819,1,0,0:0:0:0:
188,112,89966,1,0,0:0:0:0:
152,128,90113,1,0,0:0:0:0:
200,264,90407,5,0,0:0:0:0:
224,300,90554,1,0,0:0:0:0:
256,324,90700,1,8,0:0:0:0:
116,200,91288,1,0,0:0:0:0:
212,40,91875,2,0,B|200:104|256:120|256:120|316:104|300:40,1,206.40000492096,8|0,0:0|0:0,0:0:0:0:
208,200,93050,1,8,0:0:0:0:
300,200,93344,1,0,0:0:0:0:
256,192,93638,12,0,95988,0:0:0:0:
256,192,103038,12,0,104800,0:0:0:0:
333,125,105388,6,0,B|292:148|252:124,1,86
184,92,105975,2,0,B|140:68|96:96,1,86,8|0,0:0|0:0,0:0:0:0:
144,156,106563,1,0,0:0:0:0:
96,216,106856,1,0,0:0:0:0:
160,256,107150,1,8,0:0:0:0:
96,296,107444,1,0,0:0:0:0:
160,340,107738,2,0,B|200:348|200:348|240:380|280:348|280:348|324:340,1,172,0|8,0:0|0:0,0:0:0:0:
400,336,108619,2,0,B|396:288|396:288|400:244|400:244|396:200|396:200|400:160,1,172
472,192,109500,1,8,0:0:0:0:
460,116,109794,2,0,B|428:88|376:76|332:104|324:156|328:168,1,172
252,152,110675,6,0,B|212:128|216:88|228:76,1,86,8|0,0:0|0:0,0:0:0:0:
148,80,111262,2,0,B|152:132|120:164|92:156,1,86
172,208,111850,2,0,B|156:260|204:288|204:288|204:328|256:360|304:328|304:288|304:288|360:260|340:208,1,344,8|8,0:0|0:0,0:0:0:0:
292,148,113319,2,0,B|300:96|260:72,1,86
188,52,113906,1,0,0:0:0:0:
84,148,114200,2,0,B|76:96|116:72,1,86,8|0,0:0|0:0,0:0:0:0:
188,52,114787,1,0,0:0:0:0:
344,40,115375,5,8,0:0:0:0:
344,40,115669,2,0,B|352:96|404:104|452:96|460:40,2,172
304,188,117431,1,0,0:0:0:0:
380,188,117725,2,0,B|376:228|400:224|392:276,1,86,8|0,0:0|0:0,0:0:0:0:
228,188,118312,2,0,B|232:228|208:224|216:276,1,86
272,324,118900,2,0,P|308:344|344:324,2,86,8|0|0,0:0|0:0|0:0,0:0:0:0:
304,180,120075,1,8,0:0:0:0:
332,108,120368,6,0,B|296:88|296:88|296:44,1,86,0|0,0:0|0:0,0:0:0:0:
220,40,120956,2,0,B|220:128|220:128|164:192,1,172
112,248,121837,1,0,0:0:0:0:
48,108,122425,1,8,0:0:0:0:
64,184,122718,2,0,B|108:160|164:168|184:208|196:260|196:260|232:288|248:356|248:356|260:288|312:260|312:260|328:208|360:168|424:152|464:188,1,602,0|8,0:0|0:0,0:0:0:0:
412,248,125068,6,0,B|340:200|340:200|308:116,1,172
280,48,125950,1,8,0:0:0:0:
240,116,126243,2,0,B|220:200|220:200|144:240,1,172
72,272,127125,1,8,0:0:0:0:
40,200,127418,2,0,B|68:116|24:116|52:24,1,172
256,32,128300,2,0,B|292:60|292:60|308:100,1,86,8|0,0:0|0:0,0:0:0:0:
184,84,128887,2,0,B|148:56|148:56|132:16,1,86,0|0,0:0|0:0,0:0:0:0:
144,160,129475,6,0,B|180:192|184:240|184:240|188:288|232:304|280:296|296:260|296:232,1,258,8|0,0:0|0:0,0:0:0:0:
273,81,130649,2,0,B|296:112|296:112|296:160,1,86,8|0,0:0|0:0,0:0:0:0:
188,92,131237,1,0,0:0:0:0:
256,192,131531,12,0,133587,0:0:0:0:
180,60,134174,6,0,B|176:164|280:124|280:248,1,206.399993701172,8|0,0:0|0:0,0:0:0:0:
281,59,135056,2,0,B|284:168|180:128|183:227,1,206.40000492096
376,56,135937,2,0,B|372:120|336:160,1,103.20000246048
342,152,136524,2,0,B|304:192|304:192|304:240,1,103.20000246048,8|0,0:0|0:0,0:0:0:0:
328,280,136965,1,0,0:0:0:0:
312,324,137112,1,0,0:0:0:0:
228,304,137406,6,0,B|176:308|176:308|124:284,1,103.20000246048,0|8,0:0|0:0,0:0:0:0:
48,244,137993,1,0,0:0:0:0:
128,196,138287,2,8,B|80:164|80:108|124:80|124:80|124:44|176:12,1,206.40000492096,0|8,0:0|0:0,0:0:0:0:
216,172,139168,1,0,0:0:0:0:
271,25,139462,2,0,B|304:44|304:80|304:80|348:108|348:164|300:196,1,206.40000492096,0|8,0:0|0:0,0:0:0:0:
216,172,140343,1,0,0:0:0:0:
216,264,140637,6,0,B|176:296|176:296|160:352,1,103.20000246048
252,364,141224,2,0,B|360:364,1,103.20000246048,8|0,0:0|0:0,0:0:0:0:
448,352,141812,6,0,B|433:302|433:302|393:270,1,103.199996850586
348,264,142252,2,0,L|284:256,1,51.599998425293,0|8,0:0|0:0,0:0:0:0:
280,216,142546,2,0,L|228:180,1,51.599998425293
196,204,142840,2,0,L|140:208,1,51.599998425293
152,44,143574,6,0,B|200:96|260:100|300:48|284:-8,1,206.40000492096,8|0,0:0|0:0,0:0:0:0:
368,32,144455,1,0,0:0:0:0:
368,32,144749,1,8,0:0:0:0:
368,124,145043,2,0,B|388:168|388:172|388:172|440:192,1,103.20000246048
332,228,145630,2,0,B|312:184|312:180|312:180|260:160,1,103.20000246048,0|8,0:0|0:0,0:0:0:0:
232,120,146071,1,0,0:0:0:0:
184,96,146218,1,0,0:0:0:0:
148,192,146512,1,0,0:0:0:0:
44,196,146805,6,0,B|64:148|64:148|56:96,1,103.20000246048,0|8,0:0|0:0,0:0:0:0:
132,28,147393,1,0,0:0:0:0:
240,196,147687,2,0,B|220:148|220:148|228:96,1,103.20000246048,0|0,0:0|0:0,0:0:0:0:
132,28,148274,2,0,B|132:244,1,206.40000492096,8|0,0:0|0:0,0:0:0:0:
408,170,149449,2,0,P|372:207|340:248,1,103.199996850586,8|0,0:0|0:0,0:0:0:0:
256,192,150037,12,0,152093,0:0:0:0:
144,44,161639,5,0,0:0:0:0:
144,136,161933,2,0,L|168:188,1,51.599998425293
252,148,162374,1,8,0:0:0:0:
264,132,162521,1,0,0:0:0:0:
352,104,162814,2,0,P|344:168|376:212,1,103.199996850586
380,212,163255,1,0,0:0:0:0:
440,284,163549,1,8,0:0:0:0:
424,300,163696,1,0,0:0:0:0:
408,316,163842,1,0,0:0:0:0:
392,332,163989,6,0,P|344:340|280:360,1,103.199996850586
272,360,164430,1,0,0:0:0:0:
188,320,164724,1,8,0:0:0:0:
104,280,165017,1,0,0:0:0:0:
92,264,165164,1,0,0:0:0:0:
136,184,165458,1,0,0:0:0:0:
144,164,165605,1,0,0:0:0:0:
152,144,165752,1,0,0:0:0:0:
160,124,165899,1,8,0:0:0:0:
168,104,166046,1,0,0:0:0:0:
176,84,166192,6,0,L|232:76,1,51.599998425293
276,156,166633,2,0,L|224:152,1,51.599998425293
232,244,167074,2,0,L|352:272,1,103.199996850586,8|0,0:0|0:0,0:0:0:0:
352,272,167514,2,0,P|404:260|460:276,1,103.199996850586
408,352,168102,1,0,0:0:0:0:
388,352,168249,1,8,0:0:0:0:
368,352,168395,1,0,0:0:0:0:
348,352,168542,1,0,0:0:0:0:
328,352,168689,1,0,0:0:0:0:
256,192,168983,12,0,171186,0:0:0:0:
164,160,171774,6,0,B|168:96|252:36|336:96|340:160,1,257.999992311001,8|0,0:0|0:0,0:0:0:0:
428,216,172655,1,0,0:0:0:0:
396,256,172802,1,0,0:0:0:0:
368,292,172949,1,8,0:0:0:0:
260,332,173242,1,0,0:0:0:0:
152,292,173536,2,0,L|104:164,1,129.00000492096
224,176,174123,2,0,B|224:44,1,128.999996155501,8|0,0:0|0:0,0:0:0:0:
168,28,174564,1,0,0:0:0:0:
112,24,174711,1,0,0:0:0:0:
76,144,175005,6,0,B|8:120|-32:168|-28:200,1,128.999996155501,0|8,0:0|0:0,0:0:0:0:
76,252,175592,2,0,B|212:252,1,128.999996155501
205,252,176180,1,0,0:0:0:0:
320,236,176473,2,0,L|424:160,1,129.00000492096,8|0,0:0|0:0,0:0:0:0:
396,272,177061,2,0,L|292:348,1,129.00000492096
176,348,177648,1,8,0:0:0:0:
60,348,177942,1,0,0:0:0:0:
256,192,178236,12,0,179411,0:0:0:0:
308,200,179851,5,0,0:0:0:0:
288,196,179998,1,8,0:0:0:0:
268,192,180145,1,0,0:0:0:0:
248,188,180292,1,0,0:0:0:0:
228,184,180439,1,0,0:0:0:0:
208,180,180586,1,0,0:0:0:0:
368,260,181173,6,0,B|360:324|304:336|264:324,2,128.999996155501,8|0|0,0:0|0:0|0:0,0:0:0:0:
448,176,182055,2,0,B|440:204|440:204|464:208|464:208|448:224|448:224|464:232|464:232|468:268,2,128.999996155501,0|8|0,0:0|0:0|0:0,0:0:0:0:
364,92,182936,2,0,B|328:116|256:116|232:72,1,128.999996155501,0|0,0:0|0:0,0:0:0:0:
280,196,183523,2,0,B|348:180|348:180|376:236,1,128.999996155501,8|0,0:0|0:0,0:0:0:0:
408,280,183964,1,0,0:0:0:0:
396,336,184111,1,0,0:0:0:0:
284,308,184405,2,0,B|220:276|220:276|192:304|140:300|108:260|108:260|24:288,1,257.999992311001
172,220,185286,6,0,B|116:180|116:180|48:204,2,128.999996155501,0|0|8,0:0|0:0|0:0,0:0:0:0:
132,112,186167,2,0,B|180:96|180:96|192:56|232:56|260:76,1,128.999996155501
288,40,186608,1,0,0:0:0:0:
340,28,186754,1,0,0:0:0:0:
292,192,187048,5,8,0:0:0:0:
296,308,187342,2,0,B|252:260|252:260|192:280,1,128.999996155501
148,312,187783,1,0,0:0:0:0:
104,340,187929,1,0,0:0:0:0:
64,232,188223,2,0,B|72:168|72:168|24:124|40:64|52:60,1,128.999996155501,8|0,0:0|0:0,0:0:0:0:
56,64,188664,1,0,0:0:0:0:
72,16,188811,1,0,0:0:0:0:
160,80,189104,1,0,0:0:0:0:
152,132,189251,1,0,0:0:0:0:
140,180,189398,1,8,0:0:0:0:
244,180,189692,1,0,0:0:0:0:
252,128,189839,1,0,0:0:0:0:
260,76,189986,1,0,0:0:0:0:
412,212,190573,6,0,B|464:208|512:144|468:76|408:72,2,206.40000492096,8|0|8,0:0|0:0|0:0,0:0:0:0:
356,152,192042,2,0,B|352:88|292:48|220:88|216:152|216:152|212:208|156:232|100:212|84:152,2,412.800009841919
372,196,194539,1,0,0:0:0:0:
388,240,194686,1,0,0:0:0:0:
336,316,194979,1,0,0:0:0:0:
244,316,195273,6,0,B|240:368|176:416|108:372|104:312,2,206.40000492096,8|0|8,0:0|0:0|0:0,0:0:0:0:
76,240,197035,1,0,0:0:0:0:
76,240,197182,1,0,0:0:0:0:
76,240,197329,1,0,0:0:0:0:
168,236,197623,2,0,B|168:200|144:180|124:200|144:220|168:204|172:128,1,103.20000246048,8|0,0:0|0:0,0:0:0:0:
260,160,198210,2,0,B|260:196|284:216|304:196|284:176|260:192|256:268,2,103.20000246048,0|0|8,0:0|0:0|0:0,0:0:0:0:
348,184,199092,1,0,0:0:0:0:
384,96,199385,6,0,B|388:40|332:12,1,103.199996850586
288,12,199826,1,0,0:0:0:0:
240,16,199973,2,0,B|192:40|188:100,1,103.20000246048,8|0,0:0|0:0,0:0:0:0:
184,192,200560,1,0,0:0:0:0:
368,192,201148,1,8,0:0:0:0:
284,360,201735,1,0,0:0:0:0:
100,336,202323,2,0,L|40:248,1,103.199996850586,8|0,0:0|0:0,0:0:0:0:
60,160,202910,1,0,0:0:0:0:
208,48,203498,2,0,L|220:160,1,103.199996850586,8|0,0:0|0:0,0:0:0:0:
136,188,204085,5,0,0:0:0:0:
136,188,204673,1,8,0:0:0:0:
28,36,205260,1,0,0:0:0:0:
120,44,205554,1,0,0:0:0:0:
120,44,205848,2,0,B|228:44|176:80|336:76,1,206.40000492096,8|0,0:0|0:0,0:0:0:0:
324,160,206729,5,0,0:0:0:0:
288,300,207023,1,8,0:0:0:0:
400,208,207316,1,0,0:0:0:0:
256,216,207610,1,0,0:0:0:0:
372,304,207904,1,0,0:0:0:0:
372,304,208198,2,0,L|424:328,2,51.599998425293,8|0|0,0:0|0:0|0:0,0:0:0:0:
256,192,208785,12,4,211723,0:0:0:0:
