osu file format v14

[General]
AudioFilename: Evanescence - Together Again.mp3
AudioLeadIn: 0
PreviewTime: 59599
Countdown: 0
SampleSet: Soft
StackLeniency: 0.7
Mode: 0
LetterboxInBreaks: 0
WidescreenStoryboard: 1

[Editor]
DistanceSpacing: 1.3
BeatDivisor: 8
GridSize: 4
TimelineZoom: 1

[Metadata]
Title:Together Again
TitleUnicode:Together Again
Artist:Evanescence
ArtistUnicode:Evanescence
Creator:Vass_Bass
Version:Again
Source:
Tags:
BeatmapID:792337
BeatmapSetID:360484

[Difficulty]
HPDrainRate:6
CircleSize:4
OverallDifficulty:7
ApproachRate:7
SliderMultiplier:3.2
SliderTickRate:1

[Events]
//Background and Video events
0,0,"Black-Roses-Wallpapers-Pictures.jpg",0,0
//Break Periods
//Storyboard Layer 0 (Background)
//Storyboard Layer 1 (Fail)
//Storyboard Layer 2 (Pass)
//Storyboard Layer 3 (Foreground)
//Storyboard Sound Samples

[TimingPoints]
8850,1153.40253748558,4,2,1,50,1,0
11733,-100,4,2,1,40,0,0
12166,-100,4,2,1,30,0,0
13319,-100,4,2,1,50,0,0
20960,-100,4,2,1,40,0,0
21537,-100,4,2,1,30,0,0
22546,-100,4,2,1,50,0,0
27304,-100,4,2,2,30,0,0
35234,-100,4,2,2,20,0,0
36387,-100,4,2,2,30,0,0
44172,-100,4,2,2,20,0,0
45758,-100,4,2,2,55,0,0
48528,-100,4,2,2,40,0,0
50372,-100,4,2,2,55,0,0
57869,-100,4,2,2,40,0,0
59599,-100,4,2,2,55,0,0
64069,-100,4,2,1,65,0,0
64357,-100,4,2,1,55,0,0
67385,-100,4,2,1,40,0,0
67817,-100,4,2,2,40,0,0
68106,-100,4,2,1,40,0,0
68826,-100,4,2,1,55,0,0
70701,-100,4,2,0,40,0,0
73441,-100,4,2,1,65,0,0
73584,-100,4,2,1,55,0,0
76756,-100,4,2,1,40,0,0
77044,-100,4,2,2,40,0,0
77333,-100,4,2,1,40,0,0
78054,-100,4,2,1,55,0,0
79928,-100,4,2,0,40,0,0
82668,-100,4,2,2,50,0,0
82957,-100,4,2,1,55,0,0
85983,-100,4,2,1,40,0,0
87281,-100,4,2,1,55,0,0
89155,-100,4,2,0,40,0,0
91895,-100,4,2,1,65,0,0
92184,-100,4,2,1,50,0,0
94057,-100,4,2,2,50,0,0
94345,-100,4,2,1,50,0,0
101123,-133.333333333333,4,2,2,50,0,0
119577,-100,4,2,2,50,0,0
138032,-100,4,2,1,45,0,0
140914,-100,4,2,1,35,0,0
141491,-100,4,2,1,25,0,0
142644,-100,4,2,1,45,0,0
147258,-100,4,2,2,45,0,0
147546,-100,4,2,1,45,0,0
150141,-100,4,2,1,35,0,0
150718,-100,4,2,1,25,0,0
151871,-100,4,2,1,45,0,0
156486,-100,4,2,2,50,0,0
165713,-100,4,2,2,50,0,0
166002,-100,4,2,1,50,0,0
169893,-100,4,2,0,25,0,0
170182,-100,4,2,1,50,0,0
174507,-100,4,2,0,25,0,0
174940,-100,4,2,1,50,0,0
175229,-133.333333333333,4,2,1,25,0,0
181427,-133.333333333333,4,2,0,15,0,0
184168,-100,4,2,2,50,0,0
184456,-133.333333333333,4,2,1,25,0,0
190655,-133.333333333333,4,2,0,15,0,0
193395,-133.333333333333,4,2,2,5,0,0

[Colours]
Combo1 : 192,192,192
Combo2 : 187,83,109

[HitObjects]
464,160,8850,5,4,0:0:0:0:
360,176,9138,1,0,0:0:0:0:
312,268,9426,1,2,0:0:0:0:
352,364,9715,1,0,1:0:0:0:
360,176,10003,2,0,P|376:88|376:8,1,160,8|2,0:0|0:0,0:0:0:0:
212,108,10868,1,0,1:0:0:0:
212,108,11156,6,0,B|152:100|152:100|120:80,1,80,0|0,1:0|0:0,0:0:0:0:
12,200,11733,2,0,B|72:207|72:207|104:227,1,80,0|0,1:0|0:0,0:0:0:0:
216,352,12310,1,8,0:0:0:0:
220,356,12886,1,0,0:0:0:0:
324,344,13175,1,0,0:0:0:0:
428,336,13463,6,0,L|432:252,1,80,0|0,1:0|0:0,0:0:0:0:
444,152,14040,1,2,0:0:0:0:
400,56,14328,1,0,1:0:0:0:
184,188,14617,2,0,P|280:184|336:136,1,160,8|2,0:0|0:0,0:0:0:0:
232,88,15482,1,0,1:0:0:0:
56,180,15770,2,0,L|84:360,2,160,0|0|8,1:0|1:0|0:0,0:0:0:0:
56,180,17500,1,0,0:0:0:0:
148,132,17788,1,0,0:0:0:0:
212,216,18077,5,0,1:0:0:0:
272,300,18365,1,0,0:0:0:0:
364,248,18653,1,2,0:0:0:0:
456,196,18942,1,0,1:0:0:0:
456,196,19230,2,0,B|484:120|484:120|464:40,1,160,8|2,0:0|0:0,0:0:0:0:
264,40,20095,1,0,1:0:0:0:
264,40,20384,2,0,L|288:128,1,80,0|0,1:0|0:0,0:0:0:0:
204,248,20960,2,0,L|182:170,1,80,0|0,1:0|0:0,0:0:0:0:
8,40,21537,2,0,P|88:36|160:96,1,160,8|0,0:0|0:0,0:0:0:0:
204,248,22402,1,2,0:0:0:0:
308,228,22690,6,0,L|400:212,1,80,0|0,1:0|0:0,0:0:0:0:
204,248,23267,2,0,L|125:234,1,80,2|0,0:0|1:0,0:0:0:0:
276,8,23844,2,0,P|280:96|240:156,1,160,8|2,0:0|0:0,0:0:0:0:
180,60,24709,1,0,1:0:0:0:
388,96,24997,2,0,L|376:280,2,160,0|0|8,1:0|1:0|0:0,0:0:0:0:
180,60,26727,1,2,0:0:0:0:
108,256,27304,5,4,0:0:0:0:
108,256,28169,1,2,0:0:0:0:
176,332,28457,2,0,P|248:296|336:308,1,160,2|0,0:0|0:0,0:0:0:0:
448,228,29322,1,6,0:0:0:0:
448,228,29611,2,0,L|460:56,1,160,4|0,0:0|0:0,0:0:0:0:
280,40,30476,1,0,0:0:0:0:
196,96,30764,2,0,P|224:120|356:104,1,160,2|0,0:0|0:0,0:0:0:0:
280,40,31629,1,2,0:0:0:0:
252,232,31918,5,4,0:0:0:0:
252,232,32783,1,2,0:0:0:0:
164,288,33071,2,0,L|76:280,2,80,2|2|0,0:0|0:0|0:0,0:0:0:0:
252,232,33936,1,6,0:0:0:0:
372,340,34224,2,0,P|420:340|460:328,1,80,4|2,0:0|0:0,0:0:0:0:
480,232,34801,2,0,L|484:140,1,80,0|2,0:0|0:0,0:0:0:0:
492,48,35378,1,2,0:0:0:0:
268,76,35954,1,2,0:0:0:0:
64,96,36531,5,4,0:0:0:0:
64,96,37396,1,2,0:0:0:0:
4,184,37685,2,0,P|8:272|72:340,1,160,2|0,0:0|0:0,0:0:0:0:
148,296,38550,1,6,0:0:0:0:
240,344,38838,2,0,P|320:312|400:328,1,160,4|2,0:0|0:0,0:0:0:0:
480,184,39703,1,0,0:0:0:0:
480,184,39991,2,0,B|488:100,1,80,2|0,0:0|0:0,0:0:0:0:
368,152,40568,2,0,B|360:231,1,80,2|0,0:0|0:0,0:0:0:0:
240,344,41145,5,4,0:0:0:0:
240,344,42010,1,2,0:0:0:0:
164,276,42298,2,0,P|132:288|84:324,2,80,2|0|0,0:0|0:0|0:0,0:0:0:0:
240,344,43163,1,6,0:0:0:0:
272,196,43452,2,0,L|284:36,1,160,4|0,0:0|0:0,0:0:0:0:
283,36,44317,1,0,0:0:0:0:
432,136,44605,1,2,0:0:0:0:
272,196,45182,1,2,0:0:0:0:
64,196,45758,6,0,P|60:232|64:276,1,80,4|0,0:0|0:0,0:0:0:0:
200,376,46335,2,0,P|203:336|199:296,1,80,2|4,0:0|0:0,0:0:0:0:
64,196,46912,2,0,P|124:160|168:68,1,160,8|2,0:0|0:0,0:0:0:0:
165,82,47777,1,0,0:0:0:0:
268,76,48065,1,6,0:0:0:0:
372,64,48354,1,0,0:0:0:0:
476,56,48642,1,2,0:0:0:0:
476,56,49219,2,0,L|464:232,1,160,8|0,0:0|0:0,0:0:0:0:
360,224,50084,1,0,0:0:0:0:
256,232,50372,6,0,P|188:240|112:312,1,160,4|2,0:0|0:0,0:0:0:0:
224,340,51237,1,4,0:0:0:0:
144,156,51525,2,0,L|116:76,2,80,10|0|0,0:0|0:0|0:0,0:0:0:0:
256,232,52390,1,4,0:0:0:0:
396,224,52679,6,0,P|416:160|404:64,1,160,0|2,0:0|0:0,0:0:0:0:
232,32,53544,1,0,0:0:0:0:
232,32,53832,2,0,L|244:128,1,80,8|0,0:0|0:0,0:0:0:0:
216,304,54409,1,2,0:0:0:0:
180,208,54697,1,0,0:0:0:0:
284,228,54986,6,0,P|324:244|356:272,1,80,4|0,0:0|0:0,0:0:0:0:
144,352,55562,2,0,P|104:335|72:308,1,80,2|4,0:0|0:0,0:0:0:0:
104,80,56139,2,0,B|156:111|156:111|179:207,1,160,8|2,0:0|0:0,0:0:0:0:
260,344,57004,1,4,0:0:0:0:
404,272,57292,2,0,L|368:112,2,160,4|4|8,0:0|0:0|0:0,0:0:0:0:
404,272,58734,1,2,0:0:0:0:
260,344,59023,1,0,0:0:0:0:
164,232,59311,1,2,0:0:0:0:
308,160,59599,6,0,B|356:180|400:140|400:140|420:56|496:48,1,240,4|4,0:0|0:0,0:0:0:0:
500,152,60753,2,0,L|509:246,1,80,8|2,0:0|0:0,0:0:0:0:
396,344,61329,2,0,L|388:264,1,80,0|2,0:0|0:0,0:0:0:0:
308,160,61906,1,4,0:0:0:0:
88,116,62483,1,4,0:0:0:0:
44,336,63059,2,0,L|88:328,4,40,8|2|2|2|0,0:0|0:0|0:0|0:0|0:0,0:0:0:0:
44,336,63924,1,4,0:0:0:0:
192,348,64213,6,0,P|240:320|272:280,1,80,4|2,0:0|0:0,0:0:0:0:
256,302,64645,1,0,0:0:0:0:
256,302,64790,1,0,0:0:0:0:
364,240,65078,1,0,1:0:0:0:
472,312,65366,2,0,P|496:244|496:152,1,160,8|2,0:0|0:0,0:0:0:0:
440,36,66231,1,0,1:0:0:0:
440,36,66520,2,0,L|356:48,1,80,0|2,1:0|0:0,0:0:0:0:
340,52,66952,1,0,0:0:0:0:
320,56,67096,1,0,1:0:0:0:
116,128,67673,5,8,0:0:0:0:
248,112,67961,1,4,0:0:0:0:
344,220,68250,1,2,0:0:0:0:
212,236,68538,1,0,0:0:0:0:
64,260,68826,6,0,L|88:352,1,80,0|2,1:0|0:0,0:0:0:0:
84,337,69259,1,0,0:0:0:0:
84,337,69403,1,0,0:0:0:0:
240,312,69691,1,0,1:0:0:0:
396,356,69980,2,0,P|420:312|424:272,2,80,8|2|0,0:0|0:0|0:0,0:0:0:0:
240,312,70845,5,0,1:0:0:0:
336,216,71133,2,2,P|388:168|484:184,1,160,4|0,0:0|1:0,0:0:0:0:
424,282,71998,1,2,0:0:0:0:
240,312,72287,2,2,L|224:228,1,80,12|0,2:0|1:0,0:0:0:0:
88,216,72863,2,0,L|102:294,1,80,2|0,0:0|2:0,0:0:0:0:
188,128,73440,6,0,P|208:84|216:40,1,80,4|2,0:0|0:0,0:0:0:0:
214,53,73873,1,0,0:0:0:0:
214,53,74017,1,0,0:0:0:0:
28,140,74305,1,0,1:0:0:0:
28,140,74593,2,0,L|56:300,1,160,8|2,0:0|0:0,0:0:0:0:
204,300,75458,1,0,1:0:0:0:
204,300,75747,2,0,P|256:308|296:328,1,80,0|2,1:0|0:0,0:0:0:0:
488,224,76324,2,0,P|436:232|396:252,1,80,0|0,1:0|0:0,0:0:0:0:
280,318,76900,5,8,0:0:0:0:
260,208,77189,1,4,0:0:0:0:
156,172,77477,1,2,0:0:0:0:
136,62,77766,1,0,0:0:0:0:
136,62,78054,6,0,L|36:76,1,80,0|2,1:0|0:0,0:0:0:0:
56,73,78486,1,0,0:0:0:0:
56,73,78630,1,0,0:0:0:0:
8,216,78919,1,0,1:0:0:0:
8,216,79207,2,0,P|12:296|68:364,1,160,8|2,0:0|0:0,0:0:0:0:
240,304,80072,5,0,1:0:0:0:
240,304,80360,2,2,P|236:224|180:156,1,160,4|0,2:0|1:0,0:0:0:0:
88,116,81226,1,0,2:0:0:0:
88,116,81514,2,2,L|256:108,1,160,12|2,2:0|0:0,0:0:0:0:
432,136,82379,1,2,2:0:0:0:
380,56,82667,6,0,B|348:68|332:108|332:108|348:156|316:200,1,160,4|2,0:0|0:0,0:0:0:0:
252,316,83532,1,0,1:0:0:0:
224,204,83821,2,0,P|312:216|360:264,1,160,8|2,0:0|0:0,0:0:0:0:
252,316,84686,1,0,1:0:0:0:
40,256,84974,2,0,P|84:248|124:256,1,80,0|2,1:0|0:0,0:0:0:0:
36,332,85551,2,0,L|8:168,1,160,0|8,1:0|0:0,0:0:0:0:
20,64,86416,1,2,0:0:0:0:
132,72,86704,1,0,0:0:0:0:
244,80,86993,1,2,0:0:0:0:
356,88,87281,6,0,L|372:176,1,80,0|2,1:0|0:0,0:0:0:0:
370,166,87713,1,0,0:0:0:0:
370,166,87858,1,0,0:0:0:0:
264,344,88146,1,0,1:0:0:0:
264,344,88434,2,0,P|232:288|232:188,1,160,8|0,0:0|0:0,0:0:0:0:
380,172,89299,5,0,1:0:0:0:
380,172,89588,2,2,P|412:228|412:328,1,160,4|0,2:0|1:0,0:0:0:0:
264,344,90453,1,2,0:0:0:0:
264,344,90741,2,0,L|168:364,1,80,12|0,2:0|1:0,0:0:0:0:
188,248,91318,2,2,L|92:268,1,80,2|0,1:0|2:0,0:0:0:0:
24,168,91894,6,0,L|184:136,1,160,4|2,0:0|0:0,0:0:0:0:
276,56,92760,1,0,1:0:0:0:
392,104,93048,2,0,P|420:160|412:256,1,160,8|2,0:0|0:0,0:0:0:0:
332,332,93913,1,0,1:0:0:0:
220,320,94201,1,4,0:0:0:0:
260,216,94490,1,2,0:0:0:0:
148,204,94778,1,0,1:0:0:0:
148,204,95355,2,0,L|152:112,2,80,8|0|0,0:0|1:0|0:0,0:0:0:0:
52,328,96220,1,2,0:0:0:0:
216,336,96508,6,0,P|268:324|296:308,1,80,0|2,1:0|0:0,0:0:0:0:
291,311,96941,1,0,0:0:0:0:
291,311,97085,1,0,0:0:0:0:
452,256,97373,1,0,1:0:0:0:
344,48,97661,2,0,B|320:96|320:96|344:204,1,160,8|2,0:0|0:0,0:0:0:0:
220,332,98527,1,0,1:0:0:0:
220,332,98815,2,0,L|184:168,2,160,0|0|8,1:0|1:0|0:0,0:0:0:0:
220,332,100257,1,2,0:0:0:0:
312,268,100545,1,0,0:0:0:0:
424,276,100833,1,2,0:0:0:0:
496,360,101122,5,4,0:0:0:0:
468,92,102275,1,2,0:0:0:0:
468,92,102563,2,0,P|412:76|364:36,1,120.000004577637,0|4,0:0|0:0,0:0:0:0:
365,37,103429,1,4,0:0:0:0:
120,48,104294,2,0,L|144:176,1,120.000004577637,2|0,0:0|0:0,0:0:0:0:
176,244,105159,1,2,0:0:0:0:
96,268,105447,1,0,0:0:0:0:
264,216,105735,6,0,P|316:188|384:196,1,120.000004577637,4|2,0:0|0:0,0:0:0:0:
464,260,106600,2,0,P|488:204|484:140,1,120.000004577637,2|2,0:0|0:0,0:0:0:0:
436,44,107465,1,2,0:0:0:0:
336,76,107754,1,4,0:0:0:0:
240,108,108042,1,4,0:0:0:0:
240,108,108907,1,2,0:0:0:0:
196,212,109196,2,0,L|224:340,2,120.000004577637,0|2|4,0:0|0:0|0:0,0:0:0:0:
28,64,111502,5,2,0:0:0:0:
28,64,111790,2,0,B|24:100|40:124|40:124|32:156|56:180,1,120.000004577637,0|4,0:0|0:0,0:0:0:0:
53,177,112656,1,4,0:0:0:0:
248,344,113521,2,0,P|296:292|304:228,1,120.000004577637,2|0,0:0|0:0,0:0:0:0:
280,164,114386,1,2,0:0:0:0:
336,100,114674,1,0,0:0:0:0:
376,176,114963,6,0,P|312:160|216:20,1,240.000009155274,4|2,0:0|0:0,0:0:0:0:
136,176,116981,1,4,0:0:0:0:
136,176,117269,6,0,P|200:160|296:20,1,240.000009155274,4|8,0:0|0:0,0:0:0:0:
336,188,118999,1,2,0:0:0:0:
336,188,119576,6,0,L|348:256,2,60.0000022888184,4|0|2,0:0|0:0|0:0,0:0:0:0:
360,80,120441,1,0,1:0:0:0:
252,116,120730,2,0,P|184:112|112:48,1,160,8|2,0:0|0:0,0:0:0:0:
115,54,121595,1,0,1:0:0:0:
360,80,121883,2,0,P|428:84|500:148,1,160,0|0,1:0|1:0,0:0:0:0:
496,141,123036,1,8,0:0:0:0:
480,280,123325,1,2,0:0:0:0:
352,344,123613,1,0,0:0:0:0:
368,205,123902,1,0,0:0:0:0:
368,205,124190,6,0,B|308:184|308:184|208:228,1,160,4|2,0:0|0:0,0:0:0:0:
76,312,125055,1,0,1:0:0:0:
76,312,125343,2,0,P|48:260|36:216,1,80,8|2,0:0|0:0,0:0:0:0:
132,48,125920,2,0,P|160:100|172:144,1,80,0|0,0:0|1:0,0:0:0:0:
221,241,126497,2,0,P|285:201|369:205,2,160,0|0|8,1:0|1:0|0:0,0:0:0:0:
324,336,127938,1,2,0:0:0:0:
432,300,128227,1,0,0:0:0:0:
472,196,128515,1,2,0:0:0:0:
428,92,128803,6,0,P|408:56|400:16,2,80,4|0|2,0:0|0:0|0:0,0:0:0:0:
472,196,129668,1,0,1:0:0:0:
272,192,129957,2,0,P|240:128|220:40,1,160,8|2,0:0|0:0,0:0:0:0:
220,42,130822,1,0,1:0:0:0:
364,228,131110,2,0,P|312:280|228:280,1,160,0|0,1:0|1:0,0:0:0:0:
108,216,131975,1,2,0:0:0:0:
108,216,132264,2,0,L|96:116,1,80,8|2,0:0|0:0,0:0:0:0:
240,248,132840,2,0,L|228:148,1,80,0|2,0:0|0:0,0:0:0:0:
368,300,133417,6,0,L|348:132,1,160,0|2,1:0|0:0,0:0:0:0:
276,56,134282,1,0,1:0:0:0:
276,56,134570,2,0,P|228:32|196:28,2,80,8|0|2,0:0|0:0|0:0,0:0:0:0:
256,200,135435,1,0,1:0:0:0:
256,200,135724,2,0,P|168:188|112:140,2,160,0|0|8,1:0|1:0|0:0,0:0:0:0:
352,144,137166,1,2,0:0:0:0:
436,220,137454,1,0,0:0:0:0:
392,324,137742,1,2,0:0:0:0:
280,312,138031,6,0,B|248:292|248:244|248:244|204:214|216:152,1,160,4|2,0:0|0:0,0:0:0:0:
256,36,138896,1,0,1:0:0:0:
300,160,139184,2,0,P|212:156|156:108,1,160,8|2,0:0|0:0,0:0:0:0:
256,36,140049,1,0,0:0:0:0:
448,112,140337,2,0,L|432:280,2,160,0|0|0,1:0|1:0|0:0,0:0:0:0:
448,112,142067,1,2,0:0:0:0:
340,136,142356,1,0,0:0:0:0:
232,160,142644,6,0,P|156:144|92:76,1,160,0|2,1:0|0:0,0:0:0:0:
212,88,143509,1,0,1:0:0:0:
212,88,143798,2,0,P|144:156|44:160,1,160,8|2,0:0|0:0,0:0:0:0:
0,296,144663,1,0,1:0:0:0:
112,352,144951,2,0,L|196:340,1,80,0|0,1:0|0:0,0:0:0:0:
256,216,145528,2,0,L|176:227,1,80,0|0,1:0|0:0,0:0:0:0:
320,320,146104,2,0,L|404:308,1,80,8|2,0:0|0:0,0:0:0:0:
464,184,146681,2,0,L|384:195,1,80,0|2,0:0|0:0,0:0:0:0:
256,216,147258,6,0,P|224:164|220:68,1,160,4|2,0:0|0:0,0:0:0:0:
220,67,148123,1,0,1:0:0:0:
388,144,148411,2,0,L|376:248,2,80,8|0|2,0:0|0:0|0:0,0:0:0:0:
224,72,149276,1,0,1:0:0:0:
108,205,149565,2,0,P|196:237|272:201,2,160,0|0|8,1:0|1:0|0:0,0:0:0:0:
40,116,151006,1,2,0:0:0:0:
104,24,151295,1,0,0:0:0:0:
204,76,151583,1,2,0:0:0:0:
200,188,151871,6,0,L|192:292,1,80,0|2,1:0|0:0,0:0:0:0:
193,267,152304,1,0,0:0:0:0:
193,267,152448,1,0,0:0:0:0:
320,360,152736,1,0,1:0:0:0:
464,208,153025,2,0,P|376:204|312:256,1,160,8|2,0:0|0:0,0:0:0:0:
80,244,153890,1,0,1:0:0:0:
80,244,154178,2,0,P|168:248|231:196,2,160,0|0|8,1:0|1:0|0:0,0:0:0:0:
40,56,155620,1,0,0:0:0:0:
152,52,155908,1,2,0:0:0:0:
264,52,156197,5,2,0:0:0:0:
264,52,156341,1,0,0:0:0:0:
264,52,156485,2,0,L|452:32,1,160,4|2,0:0|0:0,0:0:0:0:
360,188,157350,1,0,1:0:0:0:
360,188,157638,2,0,L|200:204,1,160,8|2,0:0|0:0,0:0:0:0:
64,280,158503,1,0,1:0:0:0:
60,56,158792,2,0,P|80:104|84:136,1,80,0|2,1:0|0:0,0:0:0:0:
83,131,159224,1,0,0:0:0:0:
83,131,159369,1,0,0:0:0:0:
64,280,159657,5,4,0:0:0:0:
164,360,159945,1,8,0:0:0:0:
308,320,160234,1,0,1:0:0:0:
208,240,160522,1,2,0:0:0:0:
360,224,160810,1,0,0:0:0:0:
460,304,161099,6,0,L|476:144,1,160,0|2,1:0|0:0,0:0:0:0:
340,28,161964,1,0,1:0:0:0:
360,136,162252,2,0,P|436:104|464:32,1,160,8|2,0:0|0:0,0:0:0:0:
340,28,163117,1,0,1:0:0:0:
248,128,163405,2,0,P|256:184|276:208,1,80,0|0,1:0|0:0,0:0:0:0:
432,272,163982,2,0,P|392:256|344:268,1,80,0|0,1:0|0:0,0:0:0:0:
192,340,164559,2,0,P|240:328|268:296,2,80,8|0|2,0:0|0:0|0:0,0:0:0:0:
40,232,165424,1,0,0:0:0:0:
160,152,165712,5,4,0:0:0:0:
264,252,166001,1,2,0:0:0:0:
264,252,166145,1,0,0:0:0:0:
264,252,166289,1,0,0:0:0:0:
144,332,166577,1,0,1:0:0:0:
40,232,166866,2,0,P|16:160|8:60,1,160,8|2,0:0|0:0,0:0:0:0:
160,152,167731,1,0,1:0:0:0:
280,96,168019,2,0,P|308:40|312:8,1,80,0|2,1:0|0:0,0:0:0:0:
310,23,168452,1,0,0:0:0:0:
310,23,168596,2,0,L|480:16,1,160,0|8,1:0|0:0,0:0:0:0:
470,16,169461,1,0,1:0:0:0:
436,196,169749,1,2,0:0:0:0:
472,24,170038,1,4,2:0:0:0:
440,192,170326,6,0,L|280:198,1,160,4|2,0:0|0:0,0:0:0:0:
128,100,171191,1,0,1:0:0:0:
128,100,171479,2,0,P|128:176|176:248,1,160,8|2,0:0|0:0,0:0:0:0:
296,328,172344,1,0,1:0:0:0:
444,248,172633,2,0,L|448:152,1,80,0|2,1:0|0:0,0:0:0:0:
432,152,173065,1,0,0:0:0:0:
416,136,173209,2,0,P|384:104|372:72,1,80,0|2,1:0|0:0,0:0:0:0:
139,72,173786,2,0,P|124:108|96:136,1,80,8|0,0:0|1:0,0:0:0:0:
224,324,174363,2,0,P|239:287|267:260,1,80,2|4,0:0|0:0,0:0:0:0:
432,152,174939,5,4,0:0:0:0:
420,256,175228,1,2,0:0:0:0:
328,244,175516,1,0,0:0:0:0:
340,140,175805,1,4,0:0:0:0:
340,140,176093,2,0,B|352:8,1,120.000004577637,4|2,0:0|0:0,0:0:0:0:
172,104,176958,1,2,0:0:0:0:
172,104,177246,2,0,P|224:100|236:96,1,60.0000022888184,4|2,0:0|0:0,0:0:0:0:
76,152,177823,2,0,P|24:155|12:159,1,60.0000022888184,0|2,0:0|0:0,0:0:0:0:
16,332,178400,6,0,P|80:332|136:312,1,120.000004577637,4|2,0:0|0:0,0:0:0:0:
164,240,179265,2,0,P|168:300|192:356,1,120.000004577637,4|0,0:0|0:0,0:0:0:0:
332,300,180130,1,2,0:0:0:0:
436,320,180418,1,0,0:0:0:0:
496,228,180706,1,4,0:0:0:0:
392,208,180994,1,0,0:0:0:0:
208,76,181283,1,2,0:0:0:0:
208,76,181572,6,0,L|220:208,1,120.000004577637,4|0,0:0|0:0,0:0:0:0:
244,360,182437,1,2,0:0:0:0:
284,236,182725,2,0,P|220:232|168:256,1,120.000004577637,4|0,0:0|0:0,0:0:0:0:
392,328,183590,1,2,0:0:0:0:
440,208,183878,2,0,B|464:160|464:160|456:72,1,120.000004577637,4|0,0:0|0:0,0:0:0:0:
256,24,184743,5,2,0:0:0:0:
457,93,185032,1,0,0:0:0:0:
256,24,185320,2,0,L|264:152,1,120.000004577637,4|2,0:0|0:0,0:0:0:0:
80,144,186185,2,0,P|144:160|192:192,1,120.000004577637,4|0,0:0|0:0,0:0:0:0:
408,168,187050,2,0,P|372:172|344:184,1,60.0000022888184,2|0,0:0|0:0,0:0:0:0:
132,348,187627,6,0,B|172:360|172:360|268:324,1,120.000004577637,4|2,0:0|0:0,0:0:0:0:
400,287,188492,2,0,L|408:159,1,120.000004577637,4|0,0:0|0:0,0:0:0:0:
364,40,189357,1,2,0:0:0:0:
264,52,189645,1,0,0:0:0:0:
168,64,189934,1,4,0:0:0:0:
68,76,190222,1,0,0:0:0:0:
56,284,190510,1,2,0:0:0:0:
56,284,190799,6,0,P|88:240|104:160,1,120.000004577637,4|0,0:0|0:0,0:0:0:0:
264,52,191664,1,2,0:0:0:0:
264,52,191952,2,0,L|272:200,1,120.000004577637,4|0,0:0|0:0,0:0:0:0:
336,296,192817,1,2,0:0:0:0:
416,192,193106,5,0,0:0:0:0:
416,192,193394,2,0,B|352:128|256:160|256:224|176:256|80:192,1,360.000013732911
