osu file format v13

[General]
AudioFilename: Together Again.mp3
AudioLeadIn: 0
PreviewTime: 119585
Countdown: 0
SampleSet: Soft
StackLeniency: 0.7
Mode: 0
LetterboxInBreaks: 0
WidescreenStoryboard: 0

[Editor]
DistanceSpacing: 1.2
BeatDivisor: 4
GridSize: 32
TimelineZoom: 0.5999999

[Metadata]
Title:Together Again
TitleUnicode:Together Again
Artist:Evanescence
ArtistUnicode:Evanescence
Creator:Sieg
Version:Hard
Source:
Tags:collab -bakari- alexabm choir piano violin single chronicles of narnia
BeatmapID:541536
BeatmapSetID:233302

[Difficulty]
HPDrainRate:5
CircleSize:4
OverallDifficulty:6
ApproachRate:7.5
SliderMultiplier:3.2
SliderTickRate:1

[Events]
//Background and Video events
0,0,"HeartCore.jpg",0,0
//Break Periods
//Storyboard Layer 0 (Background)
//Storyboard Layer 1 (Fail)
//Storyboard Layer 2 (Pass)
//Storyboard Layer 3 (Foreground)
//Storyboard Sound Samples

[TimingPoints]
8859,1153.40253748558,4,2,1,60,1,0
9147,-100,4,2,1,50,0,0
45767,-100,4,2,1,60,0,0
59897,-100,4,2,1,40,0,0
62492,-100,4,2,1,60,0,0
64222,-100,4,2,1,90,0,0
64510,-100,4,2,1,60,0,0
101131,-100,4,2,1,70,0,0
119585,-100,4,2,1,60,0,0
151880,-100,4,2,1,70,0,0
165721,-100,4,2,1,60,0,0
174948,-100,4,2,1,50,0,0
176102,-100,4,2,1,45,0,0
177255,-100,4,2,1,40,0,0
190519,-100,4,2,1,30,0,0
193115,-100,4,2,1,15,0,0
195133,-100,4,2,1,30,0,0

[Colours]
Combo1 : 153,0,0
Combo2 : 219,233,244

[HitObjects]
457,272,8859,6,0,L|477:185,1,80,4|2,1:0|0:1,0:0:0:0:
391,96,9435,1,2,0:0:0:0:
303,156,9724,1,2,1:0:0:0:
221,53,10012,2,0,P|154:141|38:99,1,240,0|2,3:0|1:0,0:0:0:0:
123,47,11165,1,4,1:3:0:0:
221,53,11454,1,2,0:1:0:0:
297,114,11742,1,2,0:0:0:0:
70,128,12319,2,0,B|22:176|70:236|70:244|114:296|70:352,1,240,0|2,3:0|0:1,0:0:0:0:
160,294,13472,6,0,P|149:242|139:218,1,80,4|2,1:3|0:1,0:0:0:0:
209,139,14049,2,0,P|240:166|284:178,1,80,2|2,0:0|1:0,0:0:0:0:
432,185,14626,1,0,3:0:0:0:
379,83,14914,1,2,0:1:0:0:
252,253,15491,1,0,1:0:0:0:
198,355,15779,1,4,1:3:0:0:
459,304,16356,2,0,L|507:217,2,80,2|2|0,0:0|0:1|3:0,0:0:0:0:
252,253,17509,1,2,0:1:0:0:
173,82,18086,6,0,P|199:50|249:35,1,80,4|2,1:3|0:1,0:0:0:0:
369,44,18662,1,2,0:0:0:0:
309,135,18951,1,2,1:0:0:0:
442,128,19239,2,0,B|490:176|442:236|442:244|398:296|442:352,1,240,0|2,3:0|1:0,0:0:0:0:
339,311,20393,2,0,P|297:344|253:346,1,80,4|2,1:3|0:1,0:0:0:0:
186,262,20969,1,2,0:0:0:0:
186,262,21258,1,2,0:1:0:0:
268,172,21546,2,0,P|236:65|113:63,1,240,0|2,3:0|0:1,0:0:0:0:
173,143,22699,6,0,B|163:237|163:236,1,80,4|2,1:3|0:1,0:0:0:0:
53,328,23276,2,0,L|59:244,1,80,2|2,0:0|1:0,0:0:0:0:
27,139,23853,1,0,3:0:0:0:
109,60,24141,2,0,P|190:40|258:84,1,160,2|2,0:1|1:0,0:0:0:0:
309,227,25006,2,0,P|228:247|160:203,1,160,4|2,1:3|0:1,0:0:0:0:
388,53,26160,1,0,3:0:0:0:
388,53,26736,1,2,0:1:0:0:
352,240,27313,6,0,P|356:276|392:328,1,80,4|2,1:3|0:1,0:0:0:0:
472,240,27890,2,0,P|468:204|432:152,1,80,2|2,0:0|0:1,0:0:0:0:
287,173,28466,2,0,P|243:185|203:181,1,80,2|2,0:0|0:1,0:0:0:0:
16,24,29331,1,0,1:0:0:0:
76,100,29620,2,0,P|76:136|56:184,1,80,4|2,1:3|0:1,0:0:0:0:
112,260,30196,2,0,P|152:248|276:296,1,160,2|2,0:0|0:0,0:0:0:0:
324,356,31061,1,2,0:1:0:0:
448,260,31350,1,2,0:0:0:0:
352,272,31638,1,2,0:1:0:0:
452,164,31927,6,0,P|460:148|380:24,1,160,4|2,1:3|0:0,0:0:0:0:
316,56,32792,1,2,0:1:0:0:
316,56,33080,2,0,P|276:56|232:36,1,80,2|2,0:0|0:1,0:0:0:0:
504,20,33945,1,0,1:0:0:0:
456,104,34233,2,0,L|448:192,1,80,4|2,1:3|0:1,0:0:0:0:
346,247,34810,2,0,L|342:167,1,80,2|2,0:0|0:1,0:0:0:0:
288,88,35387,1,2,0:0:0:0:
288,88,35963,1,2,0:1:0:0:
104,148,36540,6,0,P|84:128|68:72,1,80,4|2,1:3|0:1,0:0:0:0:
207,158,37117,2,0,P|203:186|167:232,1,80,2|2,0:0|0:1,0:0:0:0:
127,349,37694,2,0,B|163:372|203:355|209:355|245:331|289:351,1,160,2|2,0:0|0:0,0:0:0:0:
440,376,38559,1,2,1:0:0:0:
404,288,38847,2,0,P|404:240|416:208,1,80,4|2,1:3|0:1,0:0:0:0:
404,116,39424,2,0,P|376:100|344:52,1,80,2|2,0:0|0:1,0:0:0:0:
236,144,40000,2,0,P|204:144|160:116,1,80,2|2,0:0|0:1,0:0:0:0:
145,257,40577,2,0,P|126:265|64:264,1,80,2|2,0:0|0:1,0:0:0:0:
224,300,41154,6,0,L|312:288,1,80,4|2,1:3|0:1,0:0:0:0:
388,336,41730,1,2,0:0:0:0:
372,216,42019,1,2,0:1:0:0:
352,68,42307,2,0,P|320:56|268:60,1,80,2|2,0:0|0:1,0:0:0:0:
184,190,42884,2,0,P|216:202|268:198,1,80,2|2,0:0|1:0,0:0:0:0:
208,94,43461,2,0,P|142:96|87:188,2,160,4|2|2,1:3|0:0|0:0,0:0:0:0:
412,244,45191,2,0,P|428:228|452:168,1,80,2|2,0:0|0:1,0:0:0:0:
410,63,45767,6,0,P|333:37|255:95,1,160,4|2,1:3|0:0,0:0:0:0:
202,173,46632,1,2,1:0:0:0:
109,96,46921,2,0,P|102:47|112:15,1,80,0|2,3:0|0:1,0:0:0:0:
121,178,47497,1,2,0:0:0:0:
121,178,47786,1,2,1:0:0:0:
189,125,48074,2,0,P|211:181|140:266,2,160,4|2|0,1:3|0:0|3:0,0:0:0:0:
100,46,49516,1,2,0:1:0:0:
259,57,49804,2,0,P|298:51|345:14,1,80,2|2,0:0|0:1,0:0:0:0:
392,132,50381,6,0,P|418:208|403:293,1,160,4|2,1:3|0:0,0:0:0:0:
318,373,51246,1,2,1:0:0:0:
201,343,51534,2,0,L|114:328,1,80,0|2,3:0|0:1,0:0:0:0:
36,229,52111,1,2,0:0:0:0:
134,141,52399,2,0,L|212:127,1,80,2|4,0:1|1:3,0:0:0:0:
357,184,52976,2,0,P|402:191|445:170,1,80,2|2,0:1|0:0,0:0:0:0:
337,106,53553,2,0,L|351:275,1,160,2|2,0:1|0:1,0:0:0:0:
272,357,54418,1,2,0:0:0:0:
165,299,54706,1,2,0:1:0:0:
61,324,54995,6,0,B|21:293|20:218|72:185|72:185|70:138|110:109,1,240,4|2,1:3|1:0,0:0:0:0:
221,116,56148,2,0,P|274:122|355:54,1,160,0|2,3:0|0:0,0:0:0:0:
424,155,57013,1,2,1:0:0:0:
435,274,57301,2,0,B|411:313|366:302|366:302|340:291|275:290|225:359|244:402|315:415|381:387|363:310|304:297|242:212|215:284|220:292|174:309|122:261,1,480,4|2,1:3|0:0,0:0:0:0:
44,196,59320,1,2,0:1:0:0:
28,80,59608,1,4,1:3:0:0:
256,192,59897,12,4,62492,0:2:0:0:
176,124,64222,6,0,B|144:71|64:104|76:135|36:177|127:190|74:276,1,240,4|2,1:0|1:0,0:0:0:0:
241,159,65375,2,0,B|301:168|300:255|267:255|243:308|197:228|137:310,1,240,0|2,3:0|1:0,0:0:0:0:
71,350,66529,1,4,1:3:0:0:
290,328,67105,1,2,0:1:0:0:
344,124,67682,2,0,P|361:221|518:231,1,240,0|2,3:0|0:1,0:0:0:0:
443,157,68835,6,0,P|435:71|374:22,1,160,4|2,1:3|0:1,0:0:0:0:
247,202,69989,2,0,L|236:304,1,80,0|2,3:0|0:1,0:0:0:0:
146,342,70566,1,2,0:0:0:0:
39,311,70854,2,0,L|25:216,1,80,2|4,1:0|1:3,0:0:0:0:
17,113,71431,1,2,0:1:0:0:
119,64,71719,1,2,0:0:0:0:
241,112,72007,2,0,L|256:34,2,80,2|0|2,0:0|3:0|0:1,0:0:0:0:
195,228,72872,1,2,0:0:0:0:
304,205,73161,1,2,0:1:0:0:
357,107,73449,6,0,P|463:107|505:238,1,240,4|2,1:3|1:0,0:0:0:0:
410,198,74602,2,0,B|384:232|412:271|412:280|433:318|404:351,1,160,0|2,3:0|0:1,0:0:0:0:
299,320,75467,1,2,1:0:0:0:
301,209,75756,2,0,B|266:208|225:222|199:258|190:300|190:300|97:249|39:316,1,320,4|0,1:3|3:0,0:0:0:0:
175,108,77486,1,2,0:1:0:0:
384,224,78063,6,0,P|416:192|424:72,1,160,4|2,1:3|0:1,0:0:0:0:
328,20,78928,1,2,1:0:0:0:
200,112,79216,2,0,P|172:120|116:100,1,80,0|2,3:0|0:1,0:0:0:0:
32,24,79793,1,2,0:0:0:0:
55,179,80081,1,2,1:0:0:0:
200,112,80369,2,0,P|236:184|220:280,1,160,4|2,1:3|0:0,0:0:0:0:
148,364,81235,1,2,0:1:0:0:
302,326,81523,2,0,P|338:322|386:334,1,80,0|2,3:0|0:1,0:0:0:0:
506,244,82100,2,0,P|498:216|506:164,1,80,2|2,0:0|0:1,0:0:0:0:
500,20,82676,6,0,P|432:40|336:36,1,160,4|2,1:3|0:1,0:0:0:0:
188,25,83541,1,0,1:0:0:0:
257,168,83830,2,0,L|269:80,1,80,0|2,3:0|0:1,0:0:0:0:
409,59,84406,2,0,L|417:151,1,80,2|2,0:0|1:0,0:0:0:0:
408,268,84983,2,0,P|360:312|256:328,1,160,4|2,1:3|0:1,0:0:0:0:
76,188,86136,2,0,P|136:236|128:344,1,160,0|2,3:0|0:1,0:0:0:0:
288,124,87290,6,0,P|352:104|488:296,1,320,4|0,1:3|3:0,0:0:0:0:
374,353,88732,2,0,L|269:363,1,80,2|2,0:1|0:0,0:0:0:0:
236,256,89308,1,2,1:0:0:0:
268,140,89597,2,0,P|312:100|424:96,1,160,4|2,1:3|0:0,0:0:0:0:
452,204,90462,1,2,0:1:0:0:
348,269,90750,2,0,L|356:181,1,80,0|2,3:0|0:1,0:0:0:0:
264,61,91327,2,0,L|269:157,1,80,2|2,0:0|0:1,0:0:0:0:
165,260,91903,6,0,P|233:212|322:382,1,320,4|0,1:3|3:0,0:0:0:0:
149,173,93634,2,0,P|181:153|225:140,1,80,2|2,0:1|1:0,0:0:0:0:
348,196,94210,2,0,P|416:184|448:96,1,160,4|2,1:3|0:1,0:0:0:0:
240,220,95364,2,0,P|268:280|368:320,1,160,0|2,3:0|0:1,0:0:0:0:
236,108,96517,6,0,P|188:120|124:212,1,160,4|2,1:3|0:0,0:0:0:0:
203,318,97382,1,2,1:0:0:0:
343,242,97670,2,0,P|391:234|447:250,2,80,0|2|2,3:0|0:1|0:0,0:0:0:0:
308,336,98536,1,2,1:0:0:0:
190,276,98824,2,0,P|135:211|156:122,1,160,4|2,1:3|0:0,0:0:0:0:
192,32,99689,1,2,0:1:0:0:
315,119,99977,2,0,P|331:83|331:23,1,80,0|2,3:0|0:1,0:0:0:0:
438,18,100554,2,0,P|454:50|494:74,1,80,2|2,0:0|0:1,0:0:0:0:
412,172,101131,6,0,P|332:204|320:352,1,240,4|2,1:3|0:1,0:0:0:0:
196,316,102284,2,0,L|116:304,2,80,2|2|2,0:0|0:1|0:0,0:0:0:0:
276,224,103149,1,2,1:0:0:0:
208,124,103438,2,0,P|120:92|60:124,1,160,4|2,1:3|0:0,0:0:0:0:
61,239,104303,2,0,P|149:271|209:239,1,160,2|2,0:1|0:1,0:0:0:0:
315,197,105168,2,0,L|340:283,1,80,2|2,0:0|0:1,0:0:0:0:
421,359,105744,6,0,L|435:177,1,160,4|2,1:3|0:0,0:0:0:0:
433,79,106609,2,0,P|351:39|280:47,1,160,2|2,0:1|0:1,0:0:0:0:
185,112,107474,2,0,P|146:100|115:76,1,80,2|2,0:0|1:0,0:0:0:0:
11,17,108051,2,0,B|-19:73|10:138|10:138|40:204|-9:266,2,240,4|2|2,1:3|0:1|0:0,0:0:0:0:
196,169,110358,6,0,P|312:209|251:102,1,320,4|2,1:3|0:0,0:0:0:0:
142,51,111800,1,2,0:1:0:0:
69,146,112088,1,2,0:0:0:0:
57,265,112376,1,2,1:0:0:0:
146,345,112665,2,0,L|233:357,1,80,4|2,1:3|0:1,0:0:0:0:
367,344,113241,1,2,0:0:0:0:
367,344,113530,2,0,B|401:311|394:270|394:270|368:236|368:175,1,160,2|2,0:1|0:1,0:0:0:0:
358,79,114395,2,0,P|388:58|445:55,1,80,2|2,0:0|0:1,0:0:0:0:
311,157,114972,6,0,P|268:82|301:8,1,160,4|2,1:3|0:0,0:0:0:0:
379,325,116125,2,0,B|292:366|235:299|235:299|200:324|148:315,1,240,2|2,0:0|1:0,0:0:0:0:
36,204,117278,2,0,B|44:163|107:121|162:128|276:136|366:333|80:377|-23:241|130:118|208:85|252:85|289:126|298:125|330:133|375:88,1,560,4|2,1:3|0:1,0:0:0:0:
485,194,119585,6,0,P|498:271|439:345,1,160,4|2,1:3|0:0,0:0:0:0:
351,353,120450,1,2,1:0:0:0:
246,364,120739,2,0,P|266:288|351:246,1,160,0|2,3:0|0:1,0:0:0:0:
401,166,121604,1,0,1:0:0:0:
493,115,121892,2,0,P|432:65|354:69,1,160,4|2,1:3|0:1,0:0:0:0:
256,320,123045,2,0,B|208:272|256:212|256:204|300:152|256:96,1,240,0|2,3:0|0:1,0:0:0:0:
135,46,124199,6,0,P|61:46|1:102,1,160,4|2,1:3|0:0,0:0:0:0:
97,145,125064,1,2,1:0:0:0:
25,221,125352,2,0,P|62:244|104:249,1,80,0|2,3:0|0:1,0:0:0:0:
195,233,125929,1,2,0:0:0:0:
195,233,126217,1,0,1:0:0:0:
281,186,126506,2,0,P|330:246|327:324,1,160,4|2,1:3|0:1,0:0:0:0:
186,156,127659,1,0,3:0:0:0:
217,61,127947,1,2,0:1:0:0:
314,37,128236,1,2,0:0:0:0:
309,267,128812,6,0,P|348:339|439:358,1,160,4|2,1:3|0:1,0:0:0:0:
414,256,129677,1,2,1:0:0:0:
450,154,129966,2,0,B|418:88|349:89|349:89|371:39,1,160,0|2,3:0|0:0,0:0:0:0:
256,40,130831,1,2,1:0:0:0:
150,59,131119,2,0,B|162:88|162:88|93:87|61:153,1,160,4|2,1:3|0:1,0:0:0:0:
152,352,132273,2,0,B|208:380|256:316|256:316|304:380|360:352,1,240,0|2,3:0|0:1,0:0:0:0:
349,234,133426,6,0,P|291:163|226:163,1,160,4|2,1:3|0:0,0:0:0:0:
147,230,134291,1,2,1:0:0:0:
62,294,134579,2,0,B|45:126,1,160,0|2,3:0|0:1,0:0:0:0:
308,103,135733,2,0,P|235:44|158:68,1,160,4|2,1:3|0:1,0:0:0:0:
204,281,136886,2,0,P|277:340|354:316,1,160,0|2,3:0|0:1,0:0:0:0:
344,340,138040,6,0,B|368:308|344:264|344:264|324:224|352:184,1,160,4|2,1:3|0:0,0:0:0:0:
440,136,138905,1,2,1:0:0:0:
424,239,139193,2,0,B|398:270|349:257|349:257|306:246|273:282,1,160,0|2,3:0|0:0,0:0:0:0:
228,372,140058,1,2,1:0:0:0:
92,296,140346,2,0,L|96:196,1,80,4|2,1:3|0:1,0:0:0:0:
200,104,140923,2,0,L|204:188,1,80,2|2,0:0|0:1,0:0:0:0:
330,273,141500,2,0,P|400:250|436:155,1,160,0|2,3:0|0:0,0:0:0:0:
380,84,142365,1,2,0:1:0:0:
292,140,142653,6,0,P|254:147|208:136,1,80,4|2,1:3|0:1,0:0:0:0:
219,248,143230,1,2,0:0:0:0:
219,248,143518,1,2,1:0:0:0:
279,341,143807,2,0,P|337:295|438:289,1,160,0|2,3:0|0:0,0:0:0:0:
498,358,144672,1,2,1:0:0:0:
442,209,144960,2,0,L|454:117,1,80,4|2,1:3|0:1,0:0:0:0:
328,29,145537,2,0,L|336:114,1,80,2|2,0:0|0:1,0:0:0:0:
297,253,146113,2,0,P|259:283|142:270,1,160,0|2,3:0|0:0,0:0:0:0:
106,179,146978,1,2,0:1:0:0:
212,198,147267,6,0,P|247:292|201:350,1,160,4|2,1:3|0:0,0:0:0:0:
114,340,148132,1,0,1:0:0:0:
46,257,148420,2,0,L|54:169,1,80,0|2,3:0|0:1,0:0:0:0:
156,72,148997,2,0,L|164:156,1,80,2|2,0:0|1:0,0:0:0:0:
180,256,149574,2,0,P|252:244|352:260,2,160,4|2|0,1:3|0:0|3:0,0:0:0:0:
112,336,151015,1,2,0:1:0:0:
118,178,151304,1,2,0:0:0:0:
180,256,151592,1,2,0:1:0:0:
244,172,151880,6,0,P|240:132|208:88,2,80,4|2|2,1:3|0:1|0:0,0:0:0:0:
180,256,152745,1,2,1:0:0:0:
311,345,153034,2,0,P|364:357|453:285,1,160,0|2,3:0|0:0,0:0:0:0:
452,176,153899,1,2,1:0:0:0:
299,221,154187,2,0,P|231:205|187:117,2,160,4|2|0,1:3|0:0|3:0,0:0:0:0:
381,159,155629,1,2,0:1:0:0:
463,294,155917,2,0,P|467:322|455:374,1,80,2|2,0:0|0:1,0:0:0:0:
373,310,156494,6,0,P|397:230|485:202,2,160,4|2|0,1:3|0:0|3:0,0:0:0:0:
168,364,158224,2,0,P|152:340|104:316,1,80,2|2,0:0|1:0,0:0:0:0:
52,228,158801,2,0,P|72:160|72:68,2,160,4|2|0,1:3|0:0|3:0,0:0:0:0:
156,232,160243,2,0,P|196:228|244:236,2,80,2|2|2,0:1|0:0|0:1,0:0:0:0:
68,288,161108,6,0,P|76:220|28:120,1,160,4|2,1:3|0:0,0:0:0:0:
148,132,161973,1,2,1:0:0:0:
240,84,162261,2,0,P|260:56|272:12,1,80,0|2,3:0|0:1,0:0:0:0:
360,140,162838,2,0,P|400:132|448:104,1,80,2|2,0:0|1:0,0:0:0:0:
339,240,163414,2,0,P|391:301|487:304,1,160,4|2,1:3|0:0,0:0:0:0:
444,200,164279,1,2,0:1:0:0:
328,96,164568,2,0,P|309:80|282:31,1,80,0|2,3:0|0:1,0:0:0:0:
260,184,165145,2,0,P|215:178|169:150,1,80,2|2,0:0|0:1,0:0:0:0:
328,96,165721,6,0,P|371:187|335:262,1,160,4|2,1:3|0:0,0:0:0:0:
250,246,166586,1,2,1:0:0:0:
158,296,166875,2,0,P|77:278|160:205,1,240,0|2,3:0|1:0,0:0:0:0:
251,246,168028,1,4,1:3:0:0:
343,59,168605,1,2,0:0:0:0:
438,243,169181,2,0,B|402:256|360:237|360:237|281:293|195:238,1,240,0|2,3:0|0:1,0:0:0:0:
88,144,170335,6,0,L|108:40,1,80,4|2,1:3|0:1,0:0:0:0:
204,86,170912,2,0,L|219:164,1,80,2|2,0:0|1:0,0:0:0:0:
305,105,171488,2,0,L|319:10,1,80,0|2,3:0|0:1,0:0:0:0:
406,141,172065,1,2,0:0:0:0:
485,224,172353,1,2,1:0:0:0:
458,325,172642,2,0,B|397:390|311:358|286:300|286:300|246:225|142:278|183:378|259:410|364:341|300:252|315:186|258:193|216:177|234:91,1,640,4|2,1:3|0:0,0:0:0:0:
291,20,175237,5,2,0:1:0:0:
382,69,175525,1,2,0:0:0:0:
474,21,175814,1,2,0:1:0:0:
474,21,176102,2,0,B|494:66|479:104|479:104|457:148|485:200,1,160,2|2,0:0|0:0,0:0:0:0:
359,351,177255,2,0,P|314:335|288:282,1,80,2|2,0:0|0:1,0:0:0:0:
251,215,177832,1,2,0:0:0:0:
157,260,178120,1,2,0:1:0:0:
84,185,178409,1,2,0:0:0:0:
302,90,178985,1,2,0:0:0:0:
413,232,179562,5,2,0:0:0:0:
316,193,179850,1,2,0:1:0:0:
397,130,180139,1,2,0:0:0:0:
512,287,180715,1,2,0:0:0:0:
442,350,181004,2,0,P|360:342|298:269,1,160,2|2,0:1|0:1,0:0:0:0:
240,137,181869,1,2,0:0:0:0:
209,221,182157,1,2,0:1:0:0:
156,73,182446,2,0,P|69:109|48:184,1,160,2|2,0:0|0:0,0:0:0:0:
121,292,183311,1,2,0:1:0:0:
280,307,183599,2,0,L|288:219,1,80,2|2,0:0|0:1,0:0:0:0:
234,82,184176,6,0,L|239:178,1,80,2|2,0:0|0:1,0:0:0:0:
98,203,184752,2,0,P|94:263|311:305,1,320,2|2,0:0|0:0,0:0:0:0:
489,173,186482,2,0,L|479:94,1,80,2|2,0:1|0:1,0:0:0:0:
389,34,187059,2,0,P|326:71|344:161,1,160,2|2,0:0|0:0,0:0:0:0:
123,350,188213,2,0,P|186:313|168:223,1,160,2|2,0:1|0:0,0:0:0:0:
135,30,189366,6,0,P|188:20|254:97,1,160,2|2,0:1|0:0,0:0:0:0:
255,198,190231,1,2,0:1:0:0:
176,284,190519,2,0,L|147:377,2,80,2|2|2,0:0|0:1|0:0,0:0:0:0:
303,326,191384,2,0,L|332:233,1,80,2|2,0:1|0:0,0:0:0:0:
365,96,191961,2,0,P|434:133|466:206,1,160,2|2,0:1|0:1,0:0:0:0:
345,218,192826,1,2,0:0:0:0:
212,212,193115,6,0,B|160:166|86:226|22:141|81:36|150:92|150:92|161:100|172:104|179:94|182:81|182:81|198:-6|311:36|317:142|215:148|238:182,1,560,2|2,0:1|0:1,0:0:0:0:
