osu file format v12

[General]
AudioFilename: Taking Over Me.mp3
AudioLeadIn: 0
PreviewTime: 54754
Countdown: 0
SampleSet: Soft
StackLeniency: 0.7
Mode: 0
LetterboxInBreaks: 1

[Editor]
DistanceSpacing: 1.01
BeatDivisor: 2
GridSize: 4

[Metadata]
Title:Taking Over Me
TitleUnicode:Taking Over Me
Artist:Evanescence
ArtistUnicode:Evanescence
Creator:Zero__wind
Version:Easy
Source:
Tags:Fallen Amy Lee Gothic Evil_Twilight
BeatmapID:249864
BeatmapSetID:92424

[Difficulty]
HPDrainRate:2
CircleSize:3
OverallDifficulty:2
ApproachRate:3
SliderMultiplier:1.5
SliderTickRate:2

[Events]
//Background and Video events
0,0,"bg.jpg",0,0
//Break Periods
2,21987,28339
2,148527,168199
//Storyboard Layer 0 (Background)
//Storyboard Layer 1 (Fail)
//Storyboard Layer 2 (Pass)
//Storyboard Layer 3 (Foreground)
//Storyboard Sound Samples
//Background Colour Transformations
3,100,163,162,255

[TimingPoints]
11131.2374724533,666.000666000666,4,1,1,40,1,0
11464,-100,4,1,1,60,0,0
16126,-100,4,2,1,40,0,0
16459,-100,4,1,1,60,0,0
21787,-100,4,1,1,30,0,0
32609,-100,4,2,1,30,0,0
43099,-100,4,1,1,30,0,0
43432,-100,4,1,1,40,0,0
53755,-100,4,1,1,50,0,1
57418,-100,4,1,1,40,0,1
58084,-100,4,1,1,50,0,1
59083,-100,4,1,1,40,0,1
59749,-100,4,1,1,50,0,1
61747,-100,4,1,1,40,0,1
62413,-100,4,1,1,50,0,1
63412,-100,4,1,1,40,0,1
63745,-100,4,1,1,50,0,1
64411,-100,4,1,1,40,0,1
65077,-100,4,1,1,50,0,1
67075,-100,4,1,1,40,0,1
67741,-100,4,1,1,50,0,1
68074,-100,4,1,1,40,0,1
69073,-100,4,1,1,50,0,1
69739,-100,4,1,1,40,0,1
70405,-100,4,1,1,50,0,1
72403,-100,4,1,1,40,0,1
73069,-100,4,1,1,50,0,1
74068,-100,4,1,1,40,0,1
74401,-100,4,1,1,50,0,1
75067,-100,4,1,1,30,0,0
79063,-100,4,1,1,40,0,0
100042,-100,4,2,1,100,0,0
100375,-200,4,2,1,20,0,0
104870,-100,4,1,1,50,0,0
105703,-100,4,1,1,50,0,1
108367,-100,4,1,1,40,0,1
109033,-100,4,1,1,50,0,1
109366,-100,4,1,1,40,0,1
110365,-100,4,1,1,50,0,1
111031,-100,4,1,1,40,0,1
111697,-100,4,1,1,50,0,1
113695,-100,4,1,1,40,0,1
114361,-100,4,1,1,50,0,1
116359,-100,4,1,1,40,0,1
117025,-100,4,1,1,50,0,1
119023,-100,4,1,1,40,0,1
119689,-100,4,1,1,50,0,1
120022,-100,4,1,1,40,0,1
120688,-100,4,1,1,50,0,1
127015,-100,4,1,1,50,0,0
128680,-100,4,1,1,40,0,0
129013,-100,4,1,1,50,0,0
129679,-100,4,1,1,40,0,0
130345,-100,4,1,1,50,0,0
131344,-100,4,1,1,30,0,0
131677,-100,4,1,1,50,0,0
132343,-100,4,1,1,40,0,0
133009,-100,4,1,1,50,0,0
133675,-100,4,1,1,30,0,0
134341,-100,4,1,1,50,0,0
135007,-100,4,1,1,30,0,0
135673,-100,4,1,1,50,0,0
136672,-100,4,1,1,30,0,0
137005,-100,4,1,1,50,0,0
137671,-100,4,1,1,40,0,0
138337,-100,4,1,1,50,0,0
139336,-100,4,1,1,25,0,0
139669,-100,4,1,1,50,0,0
142000,-100,4,1,1,25,0,0
142333,-100,4,1,1,50,0,0
142999,-100,4,1,1,40,0,0
143665,-100,4,1,1,50,0,0
143998,-100,4,1,1,30,0,0
144664,-100,4,1,1,30,0,0
144997,-100,4,1,1,50,0,0
145663,-100,4,1,1,40,0,0
146329,-100,4,1,1,50,0,0
147328,-100,4,1,1,30,0,0
147661,-100,4,2,1,70,0,0
148327,-100,4,1,1,20,0,0
169639,-100,4,1,1,40,0,1
170305,-100,4,1,1,50,0,1
172303,-100,4,1,1,40,0,1
172969,-100,4,1,1,50,0,1
173302,-100,4,1,1,40,0,1
174301,-100,4,1,1,50,0,1
174967,-100,4,1,1,40,0,1
175633,-100,4,1,1,50,0,1
177631,-100,4,1,1,40,0,1
178297,-100,4,1,1,50,0,1
179629,-100,4,1,1,30,0,1
179962,-100,4,1,1,50,0,1
180295,-100,4,1,1,40,0,1
180961,-100,4,1,1,50,0,1
181960,-100,4,1,1,30,0,1
182293,-100,4,1,1,50,0,1
182959,-100,4,1,1,40,0,1
183958,-100,4,1,1,40,0,1
184957,-100,4,1,1,40,0,1
186289,-100,4,1,1,50,0,1
187288,-100,4,1,1,30,0,1
187621,-100,4,1,1,50,0,1
188287,-100,4,1,1,40,0,1
188953,-100,4,1,1,50,0,1
190951,-100,4,1,1,60,0,0
192616,-100,4,1,1,40,0,0
192949,-100,4,1,1,60,0,0
195280,-100,4,1,1,35,0,0
195613,-100,4,1,1,60,0,0
195946,-100,4,1,1,35,0,0
196279,-100,4,1,1,60,0,0
197944,-100,4,1,1,35,0,0
198277,-100,4,1,1,60,0,0
200608,-100,4,1,1,40,0,0
200941,-100,4,1,1,60,0,0
203272,-100,4,1,1,35,0,0
203605,-100,4,1,1,60,0,0
214927,-133.333333333333,4,1,1,60,0,0
215426,-200,4,1,1,60,0,0
216092,-200,4,2,1,30,0,0
222586,-200,4,2,1,10,0,0

[Colours]
Combo1 : 207,228,229
Combo2 : 71,143,215
Combo3 : 220,188,203
Combo4 : 60,63,185
SliderBorder : 204,204,204

[HitObjects]
164,80,11131,1,4,0:0:0:0:
152,156,11464,2,0,P|180:236|248:260,1,150
304,296,12463,2,0,L|368:364,2,75,0|0|8,2:0|0:0|0:0,0:0:0:0:
448,252,13795,5,0,0:0:0:0:
385,208,14128,2,0,P|308:184|245:209,1,150
184,254,15127,2,0,L|124:302,2,75,0|0|8,2:0|0:0|0:0,0:0:0:0:
144,188,16126,1,0,0:0:0:0:
104,122,16459,6,0,P|84:91|50:71,2,75,0|0|8,0:0|0:0|0:0,0:0:0:0:
181,111,17458,2,0,B|229:91|241:63|241:63|305:95,1,150
382,92,18457,1,8,0:0:0:0:
505,176,19123,6,0,P|481:208|441:224,1,75
376,244,19789,1,8,0:0:0:0:
298,248,20122,2,0,B|246:248|230:228|230:228|199:250|158:268,1,150
89,288,21121,2,0,P|50:274|29:240,1,75,8|8,0:0|0:0,0:0:0:0:
23,171,21787,1,4,0:0:0:0:
256,192,29779,12,4,32443,0:0:0:0:
200,144,33109,6,0,B|136:92|136:92|108:112|68:92,1,150,8|0,0:0|0:0,0:0:0:0:
216,52,34441,2,0,B|272:96|272:96|308:100|308:100|348:120,1,150,8|0,0:0|0:0,0:0:0:0:
491,163,35773,5,8,0:0:0:0:
467,237,36106,2,0,B|459:273|483:297|483:297|467:333|483:381,2,150
390,228,37771,1,0,0:0:0:0:
276,328,38437,6,0,P|243:353|209:360,1,75,8|0,0:0|0:0,0:0:0:0:
213,282,39103,2,0,P|159:218|166:145,1,150,0|8,0:0|0:0,0:0:0:0:
256,192,40435,12,0,43099,0:0:0:0:
191,240,43765,5,8,0:0:0:0:
116,220,44098,2,0,B|44:152|108:92,1,150
172,48,45097,1,8,0:0:0:0:
320,52,45763,6,0,P|360:44|392:16,2,75,0|0|8,0:0|0:0|0:0,0:0:0:0:
256,95,46762,2,0,B|284:129|325:127|325:127|368:192,1,150
405,252,47761,1,8,0:0:0:0:
304,360,48427,6,0,P|272:324|260:288,1,75
189,278,49093,2,0,P|149:298|109:306,1,75,8|0,0:0|0:0,0:0:0:0:
72,160,50092,2,0,P|52:188|12:204,1,75,0|8,0:0|0:0,0:0:0:0:
14,52,51091,6,0,B|74:24|74:24|102:56|146:64,1,150,0|8,0:0|0:0,0:0:0:0:
223,72,52090,1,0,0:0:0:0:
300,72,52423,2,0,B|344:69|369:32|369:32|372:112|432:92|432:92|440:148|420:204,1,300,0|4,2:0|0:0,0:0:0:0:
314,304,54421,6,0,L|242:336,1,75,8|0,0:0|0:0,0:0:0:0:
168,336,55087,2,0,P|124:340|96:360,2,75,0|0|8,2:0|0:0|0:0,0:0:0:0:
66,226,56419,6,0,P|131:203|161:125,1,150,0|8,0:0|0:0,0:0:0:0:
195,61,57418,2,0,L|311:158,1,150,4|0,0:0|0:0,0:0:0:0:
368,208,58417,1,8,0:0:0:0:
382,354,59083,6,0,P|451:331|493:265,1,150,4|8,0:0|0:0,0:0:0:0:
498,192,60082,2,0,B|502:148|486:120|486:120|442:128|406:96,1,150
353,55,61081,1,8,0:0:0:0:
277,46,61414,1,0,2:0:0:0:
200,37,61747,6,0,P|124:52|79:106,1,150,4|8,0:0|0:0,0:0:0:0:
112,176,62746,2,0,B|111:229|87:252|87:252|50:260|31:293,1,150,0|4,0:0|3:0,0:0:0:0:
100,328,63745,2,0,L|172:356,1,75,8|8,0:0|0:0,0:0:0:0:
247,365,64411,6,0,B|287:353|303:321|303:321|375:349,1,150,4|8,0:0|0:0,0:0:0:0:
445,315,65410,2,0,B|414:262|414:262|409:235|409:235|381:179,1,150
330,122,66409,2,0,P|290:114|254:94,1,75,8|0,0:0|2:0,0:0:0:0:
194,56,67075,6,0,B|154:52|122:24|122:24|90:48|86:96,1,150,4|8,0:0|0:0,0:0:0:0:
82,160,68074,2,0,B|98:196|98:196|102:228|102:228|134:260|142:300,1,150,4|0,0:0|0:0,0:0:0:0:
94,356,69073,2,0,P|134:371|168:370,1,75,8|0,0:0|2:0,0:0:0:0:
243,374,69739,6,0,P|325:343|365:291,1,150,4|8,0:0|0:0,0:0:0:0:
372,219,70738,2,0,P|323:153|323:86,1,150,0|0,0:0|0:0,0:0:0:0:
382,39,71737,1,8,0:0:0:0:
454,68,72070,1,0,2:0:0:0:
408,131,72403,6,0,L|264:175,1,150,4|8,0:0|0:0,0:0:0:0:
194,208,73402,2,0,P|105:198|80:142,1,150,0|4,0:0|3:0,0:0:0:0:
157,141,74401,2,0,L|214:92,1,75,8|0,0:0|2:0,0:0:0:0:
256,192,75067,12,0,77731,2:0:0:0:
120,137,79063,6,0,P|78:122|55:94,2,75,0|0|8,0:0|0:0|0:0,0:0:0:0:
124,60,80062,2,0,B|160:44|176:24|176:24|256:80,1,150
304,126,81061,1,8,0:0:0:0:
252,268,81727,6,0,P|232:304|192:332,1,75,0|0,0:0|0:0,0:0:0:0:
131,344,82393,2,0,P|83:339|56:326,1,75,8|0,0:0|0:0,0:0:0:0:
28,178,83392,2,0,P|72:176|108:184,1,75,0|8,0:0|0:0,0:0:0:0:
258,185,84391,6,0,P|254:225|234:253,2,75,0|0|8,0:0|0:0|0:0,0:0:0:0:
271,107,85390,2,0,B|274:78|260:52|260:52|320:64|352:44,1,150
415,2,86389,1,8,0:0:0:0:
508,115,87055,6,0,P|492:188|433:229,1,150,0|8,0:0|0:0,0:0:0:0:
359,250,88054,2,0,B|303:262|279:242|279:242|235:302,1,150
287,358,89053,2,0,P|250:372|209:368,1,75,8|0,0:0|2:0,0:0:0:0:
138,362,89719,6,0,P|101:347|75:318,2,75,0|0|8,0:0|0:0|0:0,0:0:0:0:
146,285,90718,2,0,P|146:201|94:161,1,150
26,137,91717,1,8,0:0:0:0:
167,80,92383,6,0,P|207:104|231:136,1,75
248,200,93049,1,8,0:0:0:0:
258,277,93382,2,0,B|268:370|352:376,1,150
428,372,94381,2,0,P|462:353|480:323,1,75,8|0,0:0|2:0,0:0:0:0:
500,248,95047,6,0,P|500:204|483:168,2,75,0|0|8,0:0|0:0|0:0,0:0:0:0:
426,223,96046,2,0,B|378:223|354:195|354:195|286:227,1,150
224,265,97045,1,8,0:0:0:0:
91,192,97711,6,0,P|51:168|35:144,2,75,0|0|8,0:0|0:0|0:0,0:0:0:0:
168,196,98710,2,0,P|228:156|223:76,1,150
160,120,99709,2,0,L|88:84,2,75,8|0|0,0:0|0:0|0:0,0:0:0:0:
256,192,102373,12,4,105703,0:0:0:0:
205,71,106369,5,8,0:0:0:0:
280,92,106702,2,0,B|320:116|360:112|360:112|388:88|392:44,1,150
454,10,107701,2,0,B|466:36|466:36|475:83|432:150,1,150,8|4,0:0|0:0,0:0:0:0:
328,267,109033,2,0,L|400:307,1,75,8|4,0:0|0:0,0:0:0:0:
248,264,110032,2,0,P|256:300|288:336,2,75,0|8|0,0:0|0:0|2:0,0:0:0:0:
279,192,111031,6,0,P|289:112|246:61,1,150,4|8,0:0|0:0,0:0:0:0:
181,22,112030,1,0,0:0:0:0:
125,76,112363,1,0,2:0:0:0:
61,120,112696,2,0,L|7:53,1,75,0|8,0:0|0:0,0:0:0:0:
33,208,113695,6,0,B|83:217|113:194|113:194|157:260,1,150,4|8,0:0|0:0,0:0:0:0:
204,304,114694,2,0,B|240:328|276:312|276:312|344:348,1,150
418,337,115693,2,0,P|462:321|478:298,1,75,8|8,0:0|0:0,0:0:0:0:
460,224,116359,6,0,P|384:200|348:136,1,150,4|8,0:0|0:0,0:0:0:0:
347,66,117358,1,0,0:0:0:0:
281,104,117691,1,0,2:0:0:0:
215,142,118024,2,0,L|149:180,1,75,0|8,0:0|0:0,0:0:0:0:
45,79,119023,6,0,P|9:152|17:230,1,150,4|8,0:0|0:0,0:0:0:0:
3,296,120022,2,0,B|53:294|75:264|75:264|131:316,1,150,4|0,0:0|0:0,0:0:0:0:
191,353,121021,2,0,L|267:369,1,75,8|0,0:0|2:0,0:0:0:0:
342,373,121687,6,0,P|410:333|442:261,1,150,0|8,0:0|0:0,0:0:0:0:
446,194,122686,1,0,0:0:0:0:
344,84,123352,2,0,P|388:68|412:40,2,75,0|8|0,0:0|0:0|2:0,0:0:0:0:
268,96,124351,6,0,B|220:96|188:72|188:72|112:100,1,150,0|8,0:0|0:0,0:0:0:0:
64,50,125350,2,0,P|53:114|113:170,1,150,0|4,0:0|3:0,0:0:0:0:
140,241,126349,2,0,P|112:317|52:341,1,150,0|4,0:0|0:0,0:0:0:0:
204,332,127681,6,0,L|284:348,1,75,8|0,0:0|0:0,0:0:0:0:
419,289,128680,2,0,L|345:274,1,75,4|8,3:0|0:0,0:0:0:0:
274,246,129346,1,0,2:0:0:0:
204,212,129679,6,0,P|141:161|146:96,1,150,4|8,0:0|0:0,0:0:0:0:
214,135,130678,2,0,L|290:99,1,75,0|8,0:0|2:0,0:0:0:0:
291,25,131344,2,0,L|370:53,1,75,4|8,3:0|0:0,0:0:0:0:
423,3,132010,2,0,L|459:78,1,75,0|4,0:0|0:0,0:0:0:0:
416,220,133009,6,0,B|412:255|378:286|378:286|390:330|371:356,2,150,8|4|8,0:0|3:0|0:0,0:0:0:0:
321,109,135007,2,0,P|318:189|273:239,1,150,4|8,3:0|0:0,0:0:0:0:
276,316,136006,2,0,P|192:340|128:320,1,150,0|4,2:0|3:0,0:0:0:0:
76,272,137005,1,8,0:0:0:0:
30,127,137671,6,0,B|82:103|82:63|82:63|146:83,1,150,4|8,0:0|0:0,0:0:0:0:
216,100,138670,1,4,3:0:0:0:
294,100,139003,2,0,P|338:92|370:64,2,75,0|4|8,0:0|3:0|0:0,0:0:0:0:
180,200,140335,6,0,P|232:244|312:248,1,150,0|8,0:0|0:0,0:0:0:0:
388,253,141334,2,0,B|424:249|448:213|448:213|480:257|480:289,1,150,0|4,0:0|3:0,0:0:0:0:
448,352,142333,2,0,P|368:372|300:372,1,150,8|4,0:0|0:0,0:0:0:0:
152,344,143665,6,0,L|80:316,1,75,8|4,0:0|3:0,0:0:0:0:
40,172,144664,2,0,L|109:199,1,75,4|8,3:0|0:0,0:0:0:0:
37,67,145663,6,0,B|111:96|111:96|145:91|145:91|189:111,1,150,4|8,0:0|0:0,0:0:0:0:
248,140,146662,1,0,0:0:0:0:
372,224,147328,2,0,P|344:272|320:284,1,75,4|8,3:0|0:0,0:0:0:0:
184,316,148327,1,4,0:0:0:0:
365,71,169639,6,0,B|293:103|253:87|253:87|229:119,1,150,4|8,0:0|0:0,0:0:0:0:
192,180,170638,2,0,P|116:208|48:184,1,150
19,118,171637,1,8,0:0:0:0:
148,44,172303,6,0,L|281:119,1,150,4|8,0:0|0:0,0:0:0:0:
333,173,173302,2,0,P|377:253|365:309,1,150,4|0,0:0|0:0,0:0:0:0:
308,358,174301,1,8,0:0:0:0:
163,349,174967,6,0,P|103:293|87:225,1,150,4|8,0:0|0:0,0:0:0:0:
88,152,175966,2,0,P|104:88|164:32,1,150
240,20,176965,1,8,0:0:0:0:
316,8,177298,1,0,2:0:0:0:
391,26,177631,6,0,P|369:108|316:152,1,150,4|8,0:0|0:0,0:0:0:0:
248,172,178630,1,0,0:0:0:0:
147,284,179296,2,0,P|99:268|75:244,2,75,0|4|8,0:0|3:0|0:0,0:0:0:0:
224,291,180295,6,0,B|272:295|308:279|308:279|372:315,1,150,4|8,0:0|0:0,0:0:0:0:
432,347,181294,1,0,0:0:0:0:
432,200,181960,2,0,L|504:224,1,75,4|8,3:0|0:0,0:0:0:0:
480,76,182959,6,0,B|424:108|424:108|400:112|400:112|344:144,1,150,4|8,0:0|0:0,0:0:0:0:
331,218,183958,2,0,P|272:163|283:98,1,150,4|0,0:0|0:0,0:0:0:0:
330,40,184957,1,8,0:0:0:0:
180,56,185623,6,0,B|132:56|96:28|96:28|72:40|72:88,1,150,0|8,0:0|0:0,0:0:0:0:
72,157,186622,1,0,0:0:0:0:
104,304,187288,2,0,L|44:352,1,75,4|8,3:0|0:0,0:0:0:0:
84,204,188287,6,0,P|152:212|204:284,1,150,4|8,0:0|0:0,0:0:0:0:
258,326,189286,1,0,0:0:0:0:
333,345,189619,2,8,L|409:315,1,75
463,370,190285,2,8,L|495:295,1,75
492,224,190951,6,0,P|456:160|464:84,1,150,4|8,0:0|0:0,0:0:0:0:
500,18,191950,1,0,0:0:0:0:
360,68,192616,2,0,L|288:93,1,75,4|8,3:0|0:0,0:0:0:0:
144,60,193615,6,0,P|148:136|88:184,1,150,0|8,0:0|0:0,0:0:0:0:
20,196,194614,1,0,0:0:0:0:
48,344,195280,2,0,L|124:312,1,75,4|8,3:0|0:0,0:0:0:0:
168,256,195946,2,0,L|237:285,1,75,4|4,3:0|0:0,0:0:0:0:
388,272,196945,6,0,L|318:242,1,75,8|0,0:0|0:0,0:0:0:0:
216,136,197944,2,0,P|192:96|192:56,2,75,4|8|0,3:0|0:0|2:0,0:0:0:0:
292,148,198943,6,0,B|352:144|392:100|392:100|436:128,1,150,4|8,0:0|0:0,0:0:0:0:
474,177,199942,1,0,0:0:0:0:
380,300,200608,2,0,P|424:312|464:296,2,75,4|8|0,3:0|0:0|0:0,0:0:0:0:
310,267,201607,6,0,B|230:243|158:311,1,150,4|8,0:0|0:0,0:0:0:0:
110,348,202606,1,0,0:0:0:0:
88,200,203272,2,0,L|24:240,1,75,4|8,3:0|0:0,0:0:0:0:
174,208,204271,6,0,P|148:136|80:114,1,150,4|0,0:0|0:0,0:0:0:0:
34,52,205270,2,0,B|50:36|50:36|114:24|178:56,1,150
244,88,206269,2,8,L|336:100,1,75
367,38,206935,6,0,P|395:109|351:168,1,150,4|8,0:0|0:0,0:0:0:0:
285,194,207934,2,0,P|244:246|272:318,1,150,0|4,0:0|3:0,0:0:0:0:
336,361,208933,1,8,0:0:0:0:
188,368,209599,6,0,B|152:324|154:292|154:292|88:280,1,150,4|8,0:0|0:0,0:0:0:0:
13,282,210598,2,0,B|16:237|50:216|50:216|69:193|58:147,1,150
31,76,211597,1,8,0:0:0:0:
180,88,212263,6,0,B|221:83|246:55|246:55|260:90|298:108,1,150,0|8,0:0|0:0,0:0:0:0:
344,168,213262,2,0,P|352:256|312:304,1,150
246,336,214261,2,8,L|150:360,1,75
94,354,214927,6,4,B|50:338|50:338|14:290,2,84.3750032186509
256,192,216259,12,0,222586,0:0:0:0:
