osu file format v11

[General]
AudioFilename: Snow White Queen.mp3
AudioLeadIn: 0
PreviewTime: 58197
Countdown: 0
SampleSet: Normal
StackLeniency: 0.7
Mode: 0
LetterboxInBreaks: 0

[Editor]
Bookmarks: 7401,21947,36492,51038,58310,72856,87401,91038,94674,98310,105583,120129,134674,138310,152856,167401,181947,196492,211038,225583,240129,243765
DistanceSpacing: 1
BeatDivisor: 4
GridSize: 4

[Metadata]
Title:Snow White Queen
TitleUnicode:Snow White Queen
Artist:Evanescence
ArtistUnicode:Evanescence
Creator:Sieg
Version:Hard
Source:
Tags:helldawn the open door
BeatmapID:189142
BeatmapSetID:64215

[Difficulty]
HPDrainRate:6
CircleSize:4
OverallDifficulty:6
ApproachRate:8
SliderMultiplier:1.6
SliderTickRate:2

[Events]
//Background and Video events
0,0,"Evanescence by RoseTylerObsessed.jpg"
//Break Periods
2,92856,93924
2,134674,137560
2,196692,199379
//Storyboard Layer 0 (Background)
//Storyboard Layer 1 (Fail)
//Storyboard Layer 2 (Pass)
//Storyboard Layer 3 (Foreground)
//Storyboard Sound Samples
//Background Colour Transformations
3,100,163,162,255

[TimingPoints]
129,454.545454545455,4,2,1,30,1,0
21947,-100,4,2,1,35,0,0
36492,-100,4,2,1,40,0,0
43765,-100,4,2,1,45,0,0
51038,-100,4,1,1,40,0,0
51947,-100,4,1,1,50,0,0
54674,-100,4,1,1,60,0,0
56492,-100,4,1,1,70,0,0
56947,-100,4,1,1,80,0,0
58310,-100,4,1,1,80,0,1
58424,-100,4,1,1,60,0,1
58765,-100,4,2,2,40,0,1
58879,-100,4,1,1,60,0,1
59674,-100,4,2,2,40,0,1
59788,-100,4,1,1,60,0,1
60129,-100,4,2,2,40,0,1
60242,-100,4,1,1,60,0,1
61492,-100,4,2,2,40,0,1
61606,-100,4,1,1,60,0,1
62401,-100,4,2,2,40,0,1
62515,-100,4,1,1,60,0,1
63310,-100,4,2,2,40,0,1
63424,-100,4,1,1,60,0,1
63765,-100,4,2,2,40,0,1
63879,-100,4,1,1,60,0,1
65129,-100,4,2,2,40,0,1
65242,-100,4,1,1,60,0,1
66038,-100,4,2,2,40,0,1
66151,-100,4,1,1,60,0,1
66947,-100,4,2,2,40,0,1
67060,-100,4,1,1,60,0,1
67401,-100,4,2,2,40,0,1
67515,-100,4,1,1,60,0,1
68765,-100,4,2,2,40,0,1
68879,-100,4,1,1,60,0,1
69674,-100,4,2,2,40,0,1
69788,-100,4,1,1,60,0,1
70583,-100,4,2,2,40,0,1
70697,-100,4,1,1,60,0,1
71038,-100,4,2,2,40,0,1
71151,-100,4,1,1,60,0,1
72742,-100,4,1,1,60,0,0
72856,-100,4,1,1,60,0,1
74219,-100,4,2,2,40,0,1
74333,-100,4,1,1,60,0,1
75129,-100,4,2,2,40,0,1
75242,-100,4,1,1,60,0,1
76038,-100,4,2,2,40,0,1
76151,-100,4,1,1,60,0,1
76947,-100,4,2,2,40,0,1
77060,-100,4,1,1,60,0,1
77856,-100,4,2,2,40,0,1
77969,-100,4,1,1,60,0,1
78765,-100,4,2,2,40,0,1
78879,-100,4,1,1,60,0,1
79674,-100,4,2,2,40,0,1
79788,-100,4,1,1,60,0,1
81492,-100,4,2,2,40,0,1
81606,-100,4,1,1,60,0,1
82401,-100,4,2,2,40,0,1
82515,-100,4,1,1,60,0,1
83310,-100,4,2,2,40,0,1
83424,-100,4,1,1,60,0,1
84219,-100,4,2,2,40,0,1
84333,-100,4,1,1,60,0,1
85129,-100,4,2,2,40,0,1
85242,-100,4,1,1,60,0,1
86038,-100,4,2,2,40,0,1
86151,-100,4,1,1,60,0,1
87515,-100,4,1,1,60,0,0
90810,-100,4,2,1,60,0,0
94674,-100,4,2,1,30,0,0
105583,-100,4,2,1,35,0,0
120129,-100,4,2,1,40,0,0
127401,-100,4,2,1,45,0,0
138310,-100,4,1,1,60,0,1
138424,-100,4,1,1,30,0,1
139219,-100,4,1,1,40,0,1
139674,-100,4,2,2,30,0,1
139788,-100,4,1,1,30,0,1
141038,-100,4,1,1,40,0,1
141265,-100,4,1,1,50,0,1
141492,-100,4,1,1,55,0,1
141947,-100,4,1,1,50,0,1
142401,-100,4,2,2,40,0,1
142515,-100,4,1,1,60,0,1
143310,-100,4,2,2,40,0,1
143424,-100,4,1,1,60,0,1
143765,-100,4,2,2,40,0,1
143879,-100,4,1,1,60,0,1
145129,-100,4,2,2,40,0,1
145242,-100,4,1,1,60,0,1
146038,-100,4,2,2,40,0,1
146151,-100,4,1,1,60,0,1
146947,-100,4,2,2,40,0,1
147060,-100,4,1,1,60,0,1
147401,-100,4,2,2,40,0,1
147515,-100,4,1,1,60,0,1
148765,-100,4,2,2,40,0,1
148879,-100,4,1,1,60,0,1
149674,-100,4,2,2,40,0,1
149788,-100,4,1,1,60,0,1
150583,-100,4,2,2,40,0,1
150697,-100,4,1,1,60,0,1
151038,-100,4,2,2,40,0,1
151151,-100,4,1,1,60,0,1
152742,-100,4,1,1,60,0,0
152856,-100,4,1,1,60,0,1
154219,-100,4,2,2,40,0,1
154333,-100,4,1,1,60,0,1
155129,-100,4,2,2,40,0,1
155242,-100,4,1,1,60,0,1
156038,-100,4,2,2,40,0,1
156151,-100,4,1,1,60,0,1
156947,-100,4,2,2,40,0,1
157060,-100,4,1,1,60,0,1
157856,-100,4,2,2,40,0,1
157969,-100,4,1,1,60,0,1
158765,-100,4,2,2,40,0,1
158879,-100,4,1,1,60,0,1
159674,-100,4,2,2,40,0,1
159788,-100,4,1,1,60,0,1
161492,-100,4,2,2,40,0,1
161606,-100,4,1,1,60,0,1
162401,-100,4,2,2,40,0,1
162515,-100,4,1,1,60,0,1
163310,-100,4,2,2,40,0,1
163424,-100,4,1,1,60,0,1
164219,-100,4,2,2,40,0,1
164333,-100,4,1,1,60,0,1
165129,-100,4,2,2,40,0,1
165242,-100,4,1,1,60,0,1
166038,-100,4,2,2,40,0,1
166151,-100,4,1,1,60,0,1
167401,-100,4,1,1,60,0,0
170583,-100,4,2,2,40,0,0
170697,-100,4,1,1,60,0,0
171492,-100,4,2,2,40,0,0
171606,-100,4,1,1,60,0,0
172401,-100,4,2,2,40,0,0
172515,-100,4,1,1,60,0,0
173310,-100,4,2,2,40,0,0
173424,-100,4,1,1,60,0,0
174219,-100,4,2,2,40,0,0
174333,-100,4,1,1,60,0,0
175129,-100,4,2,2,40,0,0
175242,-100,4,1,1,60,0,0
176038,-100,4,2,2,40,0,0
176151,-100,4,1,1,60,0,0
176947,-100,4,2,2,40,0,0
177060,-100,4,1,1,60,0,0
177856,-100,4,2,2,40,0,0
177969,-100,4,1,1,60,0,0
180583,-100,4,2,2,40,0,0
180697,-100,4,1,1,60,0,0
182060,-100,4,2,1,80,0,0
185129,-100,4,1,1,40,0,0
185583,-100,4,1,1,60,0,0
186038,-100,4,2,2,40,0,0
186151,-100,4,1,1,60,0,0
186947,-100,4,2,2,40,0,0
187060,-100,4,1,1,60,0,0
187856,-100,4,2,2,40,0,0
187969,-100,4,1,1,60,0,0
188765,-100,4,2,2,40,0,0
188879,-100,4,1,1,60,0,0
189674,-100,4,2,2,40,0,0
189788,-100,4,1,1,60,0,0
190583,-100,4,2,2,40,0,0
190697,-100,4,1,1,60,0,0
191492,-100,4,2,2,40,0,0
191606,-100,4,1,1,60,0,0
192401,-100,4,2,2,40,0,0
192515,-100,4,1,1,60,0,0
192969,-100,4,2,1,80,0,0
194219,-100,4,2,2,40,0,0
194333,-100,4,1,1,60,0,0
200129,-100,4,1,1,60,0,1
200242,-100,4,1,1,60,0,0
201492,-100,4,2,2,40,0,0
201606,-100,4,1,1,60,0,0
201947,-100,4,2,2,40,0,0
202060,-100,4,1,1,60,0,0
203765,-100,4,1,1,60,0,1
205129,-100,4,2,2,40,0,1
205242,-100,4,1,1,60,0,1
205583,-100,4,2,2,40,0,1
205697,-100,4,1,1,60,0,1
206947,-100,4,2,2,40,0,1
207060,-100,4,1,1,60,0,1
207856,-100,4,2,2,40,0,1
207969,-100,4,1,1,60,0,1
208765,-100,4,2,2,40,0,1
208879,-100,4,1,1,60,0,1
210924,-100,4,1,1,60,0,0
211038,-100,4,1,1,60,0,1
212401,-100,4,2,2,40,0,1
212515,-100,4,1,1,60,0,1
213310,-100,4,2,2,40,0,1
213424,-100,4,1,1,60,0,1
214219,-100,4,2,2,40,0,1
214333,-100,4,1,1,60,0,1
215129,-100,4,2,2,40,0,1
215242,-100,4,1,1,60,0,1
216038,-100,4,2,2,40,0,1
216151,-100,4,1,1,60,0,1
216947,-100,4,2,2,40,0,1
217060,-100,4,1,1,60,0,1
217856,-100,4,2,2,40,0,1
217969,-100,4,1,1,60,0,1
219674,-100,4,2,2,40,0,1
219788,-100,4,1,1,60,0,1
220583,-100,4,2,2,40,0,1
220697,-100,4,1,1,60,0,1
221492,-100,4,2,2,40,0,1
221606,-100,4,1,1,60,0,1
222401,-100,4,2,2,40,0,1
222515,-100,4,1,1,60,0,1
223310,-100,4,2,2,40,0,1
223424,-100,4,1,1,60,0,1
224219,-100,4,2,2,40,0,1
224333,-100,4,1,1,60,0,1
225583,-100,4,1,1,60,0,0
226947,-100,4,2,2,40,0,0

[Colours]
Combo1 : 255,250,239
Combo2 : 113,166,210
Combo3 : 243,143,169
SliderBorder : 0,0,0

[HitObjects]
32,96,7401,2,0,B|80:96|80:96|104:64|144:56|180:64,1,160,2|0,0:0|0:0,0:0:0
148,136,8083,1,2,0:0:0
120,212,8310,1,8,0:0:0
176,272,8538,2,0,B|232:216|216:120,1,160,0|8,0:0|0:0,0:0:0
295,123,9219,2,0,B|280:216|336:272,1,160,2|0,0:0|0:0,0:0:0
392,212,9901,1,2,0:0:0
364,136,10129,1,8,0:0:0
332,64,10356,2,0,B|368:56|408:64|432:96|432:96|480:96,1,160,0|8,0:0|0:0,0:0:0
468,176,11038,6,0,B|468:216|432:244,1,80,2|0,0:0|0:0,0:0:0
368,292,11492,1,0,0:0:0
292,320,11719,2,0,P|256:332|216:320,1,80,2|8,0:0|0:0,0:0:0
144,292,12174,1,0,0:0:0
80,244,12401,2,0,B|44:216|44:176,1,80,0|8,0:0|0:0,0:0:0
124,176,12856,6,0,B|160:148|160:108,1,80,2|2,0:0|0:0,0:0:0
180,32,13310,1,0,0:0:0
256,60,13538,1,0,0:0:0
332,32,13765,1,8,0:0:0
352,108,13992,1,0,0:0:0
352,108,14219,2,0,B|352:148|388:176,1,80,0|8,0:0|0:0,0:0:0
332,232,14674,6,0,B|304:268|280:284|280:284|320:332|320:360,1,160,2|0,0:0|0:0,0:0:0
388,320,15356,1,2,0:0:0
428,252,15583,1,8,0:0:0
440,172,15811,2,0,B|360:140|284:160,1,160,0|8,0:0|0:0,0:0:0
228,224,16492,2,0,B|152:244|72:212,1,160,2|0,0:0|0:0,0:0:0
84,132,17174,1,2,0:0:0
124,64,17402,1,8,0:0:0
192,25,17629,2,0,B|192:52|232:100|232:100|208:116|180:152,1,160,0|8,0:0|0:0,0:0:0
124,208,18311,6,0,B|160:236|160:276,1,80,2|0,0:0|0:0,0:0:0
192,348,18765,1,0,0:0:0
256,300,18992,1,2,0:0:0
320,348,19220,1,8,0:0:0
352,276,19447,1,0,0:0:0
352,276,19674,2,0,B|388:248|388:208,1,80,0|8,0:0|0:0,0:0:0
308,208,20129,6,0,B|272:180|272:140,1,80,2|2,0:0|0:0,0:0:0
352,140,20583,1,0,0:0:0
328,64,20811,1,0,0:0:0
252,36,21038,1,8,0:0:0
184,64,21265,1,0,0:0:0
148,136,21492,2,0,B|148:176|112:204,1,80,0|8,0:0|0:0,0:0:0
68,136,21947,5,2,0:0:0
100,64,22174,1,0,0:0:0
172,32,22401,1,0,0:0:0
244,68,22629,1,2,0:0:0
244,68,22856,2,0,B|288:120|224:228|152:156|124:236,1,240,8|2,0:0|0:0,0:0:0
56,192,23765,2,0,P|52:272|112:316,1,160,2|2,0:0|0:0,0:0:0
188,336,24447,1,0,0:0:0
268,316,24674,2,0,B|224:264|288:156|360:228|388:148,1,240,8|8,0:0|0:0,0:0:0
456,192,25583,6,0,P|460:112|400:68,1,160,2|2,0:0|0:0,0:0:0
324,48,26265,1,0,0:0:0
256,92,26492,2,0,B|228:152|296:188|256:248,1,160,8|2,0:0|0:0,0:0:0
340,268,27174,6,0,B|376:296|380:340,2,80,2|2|0,0:0|0:0|0:0,0:0:0
296,336,27856,1,2,0:0:0
216,336,28083,1,0,0:0:0
172,268,28310,2,0,B|136:296|132:340,2,80,8|2|0,0:0|0:0|0:0,0:0:0
236,216,28992,1,8,0:0:0
312,196,29219,5,2,0:0:0
388,172,29446,1,0,0:0:0
448,120,29673,1,0,0:0:0
476,48,29901,1,2,0:0:0
400,24,30128,2,0,B|272:8|172:96,1,240,8|2,0:0|0:0,0:0:0
164,168,31038,2,0,P|188:244|260:252,1,160,2|2,0:0|0:0,0:0:0
336,292,31719,1,0,0:0:0
336,292,31947,2,0,B|240:376|112:360,1,240,8|8,0:0|0:0,0:0:0
56,304,32856,6,0,P|44:228|112:184,1,160,2|2,0:0|0:0,0:0:0
188,220,33537,1,0,0:0:0
272,248,33765,2,0,P|332:204|320:128,1,160,8|2,0:0|0:0,0:0:0
240,124,34446,6,0,B|196:108|176:76,2,80,2|2|0,0:0|0:0|0:0,0:0:0
256,40,35128,1,2,0:0:0
256,40,35355,1,0,0:0:0
332,72,35583,2,0,B|352:164,2,80,8|2|0,0:0|0:0|0:0,0:0:0
256,40,36264,1,2,0:0:0
180,64,36492,6,0,B|232:144|216:216,1,160,2|0,0:0|0:0,0:0:0
296,212,37174,2,0,B|280:140|332:60,1,160,2|2,0:0|0:0,0:0:0
408,36,37856,1,2,0:0:0
460,96,38083,1,0,0:0:0
404,152,38310,2,0,B|328:108|252:152,1,160,2|2,0:0|0:0,0:0:0
260,232,38992,1,2,0:0:0
260,232,39219,2,0,B|184:276|108:232,1,160,8|0,0:0|0:0,0:0:0
52,288,39901,1,2,0:0:0
104,348,40129,5,0,0:0:0
180,324,40356,2,0,B|232:244|216:172,1,160,2|0,0:0|0:0,0:0:0
280,144,41038,2,0,B|272:120|232:80|180:88|148:116|144:156|112:184|200:184|112:296,2,320,8|0|8,0:0|0:0|0:0,0:0:0
308,224,43083,1,2,0:0:0
332,300,43310,1,0,0:0:0
396,352,43538,1,2,0:0:0
396,352,43765,6,0,P|468:324|464:248,1,160,2|2,0:0|0:0,0:0:0
400,204,44447,1,0,0:0:0
332,160,44674,1,8,0:0:0
404,120,44901,1,0,0:0:0
404,120,45129,2,0,P|372:52|296:60,1,160,2|2,0:0|0:0,0:0:0
256,128,45810,5,0,0:0:0
256,128,46038,1,0,0:0:0
216,60,46265,1,2,0:0:0
216,60,46492,2,0,P|140:52|108:120,1,160,8|2,0:0|0:0,0:0:0
164,180,47174,1,0,0:0:0
248,160,47401,2,0,P|196:260|92:228,1,240,2|2,0:0|0:0,0:0:0
164,180,48310,1,8,0:0:0
204,112,48538,2,0,P|292:112|312:172,1,160,2|2,0:0|0:0,0:0:0
284,244,49219,5,2,0:0:0
228,300,49447,1,0,0:0:0
148,292,49674,1,0,0:0:0
100,228,49901,1,2,0:0:0
116,148,50129,1,8,0:0:0
180,100,50356,1,2,0:0:0
252,64,50583,6,0,B|336:68|408:40,1,160
460,104,51265,2,0,B|400:164|404:248,1,160
324,256,51947,2,0,B|288:180|220:136,1,160
220,136,52629,1,0,0:0:0
256,192,52856,12,0,54219,0:0:0
88,304,54674,5,0,0:0:0
88,304,54901,1,0,0:0:0
248,320,55356,1,0,0:0:0
248,320,55583,1,0,0:0:0
468,228,56265,5,0,0:0:0
468,228,56492,1,0,0:0:0
332,144,56947,5,0,0:0:0
332,240,57174,1,0,0:0:0
256,136,57401,1,0,0:0:0
256,248,57629,1,0,0:0:0
180,128,57856,1,0,0:0:0
180,256,58083,1,0,0:0:0
108,76,58310,6,0,B|180:16|252:76,2,160,4|2|8,0:0|0:0|0:0,0:0:0
180,128,59447,1,0,0:0:0
132,192,59674,1,2,0:0:0
180,256,59901,1,0,0:0:0
108,312,60129,2,0,B|184:364|256:308|256:308|328:364|404:312,1,320,2|8,0:0|0:0,0:0:0
424,212,61265,1,0,0:0:0
380,144,61492,1,2,0:0:0
320,92,61719,1,0,0:0:0
296,168,61947,2,0,B|288:260|376:296,2,160,4|2|8,0:0|0:0|0:0,0:0:0
192,292,63310,5,2,0:0:0
136,232,63538,1,0,0:0:0
216,216,63765,2,0,B|224:124|136:88,2,160,2|0|8,0:0|0:0|0:0,0:0:0
212,296,64901,2,0,B|176:320|132:316,1,80,0|2,0:0|0:0,0:0:0
56,304,65356,1,0,0:0:0
92,232,65583,6,0,B|104:204|104:204|80:184|80:152,1,80,4|0,0:0|0:0,0:0:0
156,140,66038,1,2,0:0:0
232,120,66265,2,0,B|232:97|208:77|208:77|220:49,1,80,0|8,0:0|0:0,0:0:0
380,48,66947,5,2,0:0:0
348,120,67174,1,0,0:0:0
376,196,67401,2,0,P|300:184|268:112,2,160,2|0|8,0:0|0:0|0:0,0:0:0
452,172,68537,1,0,0:0:0
424,248,68765,1,2,0:0:0
504,240,68992,1,0,0:0:0
504,240,69219,6,0,B|508:280|484:328|432:336|398:324,1,160,4|2,0:0|0:0,0:0:0
324,300,69901,1,0,0:0:0
248,276,70129,2,0,B|172:232|96:276,1,160,8|2,0:0|0:0,0:0:0
84,196,70810,2,0,B|76:156|108:124,1,80,0|2,0:0|0:0,0:0:0
168,68,71265,5,8,0:0:0
300,100,71492,1,0,0:0:0
380,212,71719,1,0,0:0:0
288,312,71947,1,8,0:0:0
160,268,72174,1,0,0:0:0
136,136,72401,1,0,0:0:0
256,68,72629,1,0,0:0:0
372,148,72856,5,4,0:0:0
368,68,73083,2,0,P|300:108|300:184,1,160,0|0,0:0|0:0,0:0:0
212,182,73765,2,0,P|212:108|144:68,1,160,8|2,0:0|0:0,0:0:0
140,148,74447,2,0,B|256:96|372:148,1,240,0|2,0:0|0:0,0:0:0
440,192,75356,1,0,0:0:0
468,268,75583,5,8,0:0:0
420,332,75810,2,0,B|372:328|360:288,1,80,0|2,0:0|0:0,0:0:0
284,320,76265,2,0,B|272:280|224:276,1,80,0|4,0:0|0:0,0:0:0
248,200,76719,2,0,B|292:208|320:176,1,80,0|2,0:0|0:0,0:0:0
260,124,77174,5,0,0:0:0
208,64,77401,2,0,B|172:100|184:144|184:144|164:176|120:184,1,160,8|2,0:0|0:0,0:0:0
48,196,78083,1,0,0:0:0
88,264,78310,2,0,B|160:236|212:276|212:276|240:268,1,160,0|2,0:0|0:0,0:0:0
212,344,78992,1,0,0:0:0
132,332,79219,5,8,0:0:0
88,264,79446,1,0,0:0:0
136,200,79674,1,2,0:0:0
216,188,79901,1,4,0:0:0
248,260,80129,5,4,0:0:0
300,320,80356,2,0,B|336:284|324:240|324:240|344:208|388:200,1,160,0|0,0:0|0:0,0:0:0
416,120,81038,2,0,B|344:148|292:108|292:108|264:116,1,160,8|2,0:0|0:0,0:0:0
276,36,81719,2,0,B|232:64|180:24|180:24|104:20|56:68,1,240,0|2,0:0|0:0,0:0:0
44,148,82629,1,0,0:0:0
108,204,82856,5,8,0:0:0
184,236,83083,2,0,B|196:332,2,80,0|2|0,0:0|0:0|0:0,0:0:0
264,212,83765,1,4,0:0:0
340,180,83992,2,0,B|328:84,2,80,0|2|0,0:0|0:0|0:0,0:0:0
408,232,84674,6,0,P|372:304|372:304|296:328,1,160,8|2,0:0|0:0,0:0:0
216,328,85356,2,0,P|140:304|140:304|104:232,1,160,0|8,0:0|0:0,0:0:0
136,160,86038,5,2,0:0:0
188,32,86265,1,0,0:0:0
324,32,86492,1,8,0:0:0
376,160,86719,1,8,0:0:0
324,284,86947,1,8,0:0:0
188,284,87174,1,8,0:0:0
136,160,87401,1,4,0:0:0
256,192,87515,12,0,90924,0:0:0
48,336,94674,6,0,B|48:296|84:268,1,80,2|0,0:0|0:0,0:0:0
204,160,95356,1,2,0:0:0
256,96,95584,1,8,0:0:0
332,236,96038,6,0,B|296:264|296:304,1,80,0|8,0:0|0:0,0:0:0
216,304,96493,2,0,B|216:264|180:236,1,80,2|2,0:0|0:0,0:0:0
256,96,97175,1,0,0:0:0
308,156,97402,1,8,0:0:0
428,268,97856,2,0,B|464:296|464:336,1,80,0|8,0:0|0:0,0:0:0
384,336,98311,6,0,B|348:364|284:332|284:332|224:348,1,160,2|0,0:0|0:0,0:0:0
152,356,98993,1,2,0:0:0
80,324,99220,1,8,0:0:0
148,280,99448,2,0,B|232:268|292:212,1,160,0|8,0:0|0:0,0:0:0
224,172,100129,2,0,B|280:116|368:104,1,160,2|0,0:0|0:0,0:0:0
432,60,100811,1,2,0:0:0
360,28,101039,1,8,0:0:0
280,38,101265,2,0,B|228:52|228:52|164:20|128:48,1,160,0|8,0:0|0:0,0:0:0
124,128,101948,6,0,B|160:156|160:196,1,80,2|0,0:0|0:0,0:0:0
192,268,102402,1,0,0:0:0
256,220,102629,1,2,0:0:0
320,268,102857,1,8,0:0:0
352,196,103084,1,0,0:0:0
352,196,103311,2,0,B|388:168|388:128,1,80,0|8,0:0|0:0,0:0:0
396,48,103766,6,0,B|356:48|328:84,1,80,2|2,0:0|0:0,0:0:0
288,152,104220,1,0,0:0:0
256,76,104448,1,0,0:0:0
256,76,104675,1,8,0:0:0
224,152,104902,1,0,0:0:0
184,84,105129,2,0,B|156:48|116:48,1,80,0|8,0:0|0:0,0:0:0
40,76,105583,5,2,0:0:0
20,152,105810,1,0,0:0:0
36,228,106037,1,0,0:0:0
76,296,106265,1,2,0:0:0
124,232,106492,2,0,P|220:212|172:296,1,240,8|2,0:0|0:0,0:0:0
180,376,107401,2,0,B|256:332|332:376,1,160,2|2,0:0|0:0,0:0:0
336,296,108083,1,0,0:0:0
336,296,108310,2,0,P|296:208|388:232,1,240,8|8,0:0|0:0,0:0:0
428,160,109219,6,0,P|484:108|472:32,1,160,2|2,0:0|0:0,0:0:0
408,84,109901,1,0,0:0:0
388,4,110129,2,0,P|332:56|344:132,1,160,8|2,0:0|0:0,0:0:0
332,216,110810,2,0,B|296:244|292:288,2,80,2|2|0,0:0|0:0|0:0,0:0:0
280,152,111492,1,2,0:0:0
240,220,111719,1,0,0:0:0
180,168,111946,2,0,B|216:140|220:96,2,80,8|2|0,0:0|0:0|0:0,0:0:0
120,224,112628,1,8,0:0:0
40,224,112855,5,2,0:0:0
20,148,113082,1,0,0:0:0
60,76,113309,1,0,0:0:0
136,52,113537,1,2,0:0:0
208,76,113765,2,0,P|220:172|136:120,1,240,8|2,0:0|0:0,0:0:0
52,116,114674,2,0,B|96:192|52:268,1,160,2|2,0:0|0:0,0:0:0
136,260,115355,1,0,0:0:0
135,260,115583,2,0,P|220:212|208:308,1,240,8|8,0:0|0:0,0:0:0
136,340,116492,6,0,P|64:356|32:288,1,160,2|2,0:0|0:0,0:0:0
40,204,117173,1,0,0:0:0
92,140,117401,2,0,P|164:124|196:192,1,160,8|2,0:0|0:0,0:0:0
224,264,118082,6,0,B|228:316|272:336,2,80,2|2|0,0:0|0:0|0:0,0:0:0
256,192,118764,1,2,0:0:0
256,192,118991,1,0,0:0:0
288,120,119219,2,0,B|284:68|240:48,2,80,8|2|0,0:0|0:0|0:0,0:0:0
256,192,119900,1,2,0:0:0
336,188,120128,6,0,B|388:268|376:340,1,160,2|0,0:0|0:0,0:0:0
296,340,120810,2,0,B|284:268|336:188,1,160,2|2,0:0|0:0,0:0:0
416,188,121492,1,2,0:0:0
416,188,121719,1,0,0:0:0
416,188,121947,2,0,B|468:108|456:36,1,160,2|2,0:0|0:0,0:0:0
380,80,122628,1,2,0:0:0
344,148,122856,2,0,B|264:96|192:108,1,160,8|0,0:0|0:0,0:0:0
132,160,123537,1,2,0:0:0
132,160,123765,5,0,0:0:0
168,236,123992,2,0,B|248:288|320:276,1,160,2|0,0:0|0:0,0:0:0
344,197,124674,2,0,P|236:276|352:352,2,320,8|0|8,0:0|0:0|0:0,0:3:0
316,276,126719,2,0,P|240:300|164:284,1,160,2|2,0:0|0:0,0:0:0
116,352,127401,6,0,P|44:324|48:248,1,160,2|2,0:0|0:0,0:0:0
112,204,128083,1,0,0:0:0
180,160,128310,1,8,0:0:0
108,120,128537,1,0,0:0:0
108,120,128765,2,0,P|140:52|216:60,1,160,2|2,0:0|0:0,0:0:0
256,128,129446,5,0,0:0:0
256,128,129674,1,0,0:0:0
296,60,129901,1,2,0:0:0
296,60,130128,2,0,P|372:52|404:120,1,160,8|2,0:0|0:0,0:0:0
348,180,130810,1,0,0:0:0
264,160,131037,6,0,P|316:260|420:228,1,240,2|2,0:0|0:0,0:0:0
348,180,131946,1,8,0:0:0
308,112,132174,2,0,P|220:112|200:172,1,160,2|2,0:0|0:0,0:0:0
228,244,132855,1,2,0:0:0
284,300,133083,1,0,0:0:0
364,292,133310,1,0,0:0:0
412,228,133537,1,2,0:0:0
396,148,133765,1,8,0:0:0
332,100,133992,1,2,0:0:0
272,80,138310,38,0,B|252:-4|136:12|152:68|88:108|208:132|164:220,1,320,4|8,0:0|0:0,0:0:0
324,124,139674,2,0,B|412:124|424:240|368:236|344:308|292:200|216:264,1,320,2|8,0:0|0:0,0:0:0
60,280,141038,1,8,0:0:0
124,332,141265,1,0,0:0:0
200,356,141492,1,0,0:0:0
328,260,141947,2,0,P|256:292|184:260,2,160,4|2|8,0:0|0:0|0:0,0:0:0
256,120,143310,5,2,0:0:0
256,120,143538,1,0,0:0:0
188,76,143765,2,0,P|256:40|324:76,2,160,2|0|8,0:0|0:0|0:0,0:0:0
124,132,144901,2,0,B|136:212,1,80,0|2,0:0|0:0,0:0:0
192,268,145356,1,0,0:0:0
268,240,145583,6,0,B|256:160,1,80,4|0,0:0|0:0,0:0:0
320,116,146038,1,2,0:0:0
372,173,146265,2,0,B|388:252,1,80,0|8,0:0|0:0,0:0:0
256,344,146947,5,2,0:0:0
320,296,147174,1,0,0:0:0
312,216,147401,2,0,P|381:248|393:324,2,160,2|0|8,0:0|0:0|0:0,0:0:0
256,160,148537,1,0,0:0:0
188,116,148765,1,2,0:0:0
108,128,148992,1,0,0:0:0
108,128,149219,6,0,P|132:56|208:36,1,160,4|2,0:0|0:0,0:0:0
276,76,149901,1,0,0:0:0
324,140,150129,2,0,P|300:212|224:232,1,160,8|2,0:0|0:0,0:0:0
148,208,150810,2,0,B|112:176|132:136,1,80,0|2,0:0|0:0,0:0:0
200,92,151265,5,8,0:0:0
328,192,151492,1,0,0:0:0
172,160,151719,1,0,0:0:0
328,124,151947,1,8,0:0:0
204,224,152174,1,0,0:0:0
272,80,152401,1,8,0:0:0
268,240,152629,1,0,0:0:0
408,164,152856,5,4,0:0:0
408,84,153083,2,0,P|336:64|276:116,1,160
212,160,153765,2,0,P|236:204|304:192|332:204|348:236,1,160,8|2,0:0|0:0,0:0:0
420,192,154447,2,0,P|396:300|284:288,1,240,0|2,0:0|0:0,0:0:0
208,272,155356,1,0,0:0:0
136,308,155583,5,8,0:0:0
60,288,155810,2,0,P|72:252|108:236,1,80,0|2,0:0|0:0,0:0:0
172,188,156265,2,0,P|208:172|220:136,1,80,0|4,0:0|0:0,0:0:0
188,64,156719,2,0,P|160:36|120:32,1,80,0|2,0:0|0:0,0:0:0
52,72,157174,1,0,0:0:0
128,100,157401,6,0,B|184:152|184:152|164:192|184:232,1,160,8|2,0:0|0:0,0:0:0
256,192,158083,1,0,0:0:0
328,152,158310,2,0,B|348:192|328:232|328:232|384:284,1,160,0|2,0:0|0:0,0:0:0
452,240,158992,1,0,0:0:0
444,160,159219,5,8,0:0:0
392,100,159446,1,0,0:0:0
312,84,159674,1,2,0:0:0
236,116,159901,1,4,0:0:0
160,144,160129,5,4,0:0:0
104,84,160356,2,0,P|176:64|236:116,1,160
300,160,161038,2,0,P|276:204|208:192|180:204|164:236,1,160,8|2,0:0|0:0,0:0:0
80,248,161719,2,0,P|144:336|240:276,1,240,0|2,0:0|0:0,0:0:0
316,248,162629,1,0,0:0:0
396,260,162856,5,8,0:0:0
316,248,163083,2,0,B|296:332,2,80,0|2|0,0:0|0:0|0:0,0:0:0
256,192,163765,1,4,0:0:0
196,136,163992,2,0,B|236:112|236:72,2,80,0|2|0,0:0|0:0|0:0,0:0:0
128,176,164674,6,0,P|164:244|240:268,1,160,8|2,0:0|0:0,0:0:0
272,340,165356,2,0,P|348:316|384:248,1,160,0|8,0:0|0:0,0:0:0
404,172,166038,5,2,0:0:0
324,60,166265,1,0,0:0:0
188,60,166492,1,8,0:0:0
108,172,166719,1,8,0:0:0
188,284,166947,1,8,0:0:0
324,284,167174,1,8,0:0:0
404,172,167401,1,4,0:0:0
256,192,167515,12,4,170129,0:0:0
436,116,170583,5,2,0:0:0
348,248,171038,6,0,P|308:256|296:216|236:192|196:220,1,160,4|2,0:0|0:0,0:0:0
236,296,171719,1,0,0:0:0
236,296,171947,2,0,P|156:292|112:232,1,160,8|2,0:0|0:0,0:0:0
136,156,172629,1,0,0:0:0
212,132,172856,2,0,P|160:80|80:96,2,160,0|2|8,0:0|0:0|0:0,0:0:0
256,196,173992,1,0,0:0:0
296,264,174219,1,2,0:0:0
372,292,174447,1,0,0:0:0
440,332,174674,6,0,P|444:256|376:212,1,160,4|2,0:0|0:0,0:0:0
324,148,175356,2,0,P|312:112|324:72,1,80,0|8,0:0|0:0,0:0:0
256,28,175810,1,0,0:0:0
188,72,176038,2,0,P|200:112|188:148,1,80,2|0,0:0|0:0,0:0:0
180,224,176492,6,0,P|256:248|332:224,1,160,0|2,0:0|0:0,0:0:0
392,168,177174,2,0,P|356:96,1,80,0|8,0:0|0:0,0:0:0
440,104,177629,2,0,P|404:32,2,80,0|2|0,0:0|0:0|0:0,0:0:0
392,168,178310,2,0,P|360:104|256:132|256:172|256:212|152:232|116:168,2,320,4|8|0,0:0|0:0|0:0,0:0:0
436,236,180356,5,8,0:0:0
324,316,180583,1,2,0:0:0
188,316,180810,1,0,0:0:0
76,236,181038,1,8,0:0:0
124,108,181265,1,8,0:0:0
256,72,181492,1,8,0:0:0
388,108,181719,1,8,0:0:0
436,236,181947,1,4,0:0:0
256,192,182060,12,4,185129,0:0:0
52,124,185583,6,0,P|96:92|148:124|148:124|184:120|200:96,2,160,4|2|8,0:0|0:0|0:0,0:0:0
8,192,186719,1,0,0:0:0
52,260,186947,2,0,P|96:292|148:260|148:260|184:264|200:288,2,160,2|0|2,0:0|0:0|0:0,0:0:0
100,192,188083,5,0,0:0:0
176,192,188310,2,0,P|336:192,1,160,8|2,0:0|0:0,0:0:0
412,192,188992,1,0,0:0:0
460,260,189219,6,0,P|416:292|364:260|364:260|328:264|312:288,2,160,4|2|8,0:0|0:0|0:0,0:0:0
504,192,190356,1,0,0:0:0
460,124,190583,2,0,P|416:92|364:124|364:124|328:120|312:96,2,160,2|0|2,0:0|0:0|0:0,0:0:0
412,192,191719,5,0,0:0:0
336,192,191947,2,0,P|176:192,1,160,8|2,0:0|0:0,0:0:0
100,192,192629,1,0,0:0:0
100,192,192856,2,0,P|256:40|412:192,1,480,4|2,0:0|0:0,0:0:0
392,272,194447,1,0,0:0:0
332,324,194674,1,0,0:0:0
256,344,194901,6,0,P|232:344|208:336,3,40
180,324,195356,2,0,P|160:312|144:296,3,40,0|0|8|0,0:0|0:0|0:0|0:0,0:0:0
124,268,195810,2,0,P|112:252|104:232,4,40,0|0|8|0|0,0:0|0:0|0:0|0:0|0:0,0:0:0
108,144,196492,5,4,0:0:0
368,316,200129,5,4,0:0:0
448,332,200356,2,0,P|448:272|408:248|408:248|428:188,1,160
456,112,201038,1,0,0:0:0
332,212,201492,6,0,P|256:236|180:212,1,160,2|2,0:0|0:0,0:0:0
136,148,202174,1,8,0:0:0
144,68,202401,1,0,0:0:0
220,40,202629,1,8,0:0:0
280,92,202856,2,0,P|296:136,4,40,0|0|0|0|8,0:0|0:0|0:0|0:0|0:0,0:0:0
220,40,203538,1,0,0:0:0
144,68,203765,5,4,0:0:0
64,52,203992,2,0,P|64:112|104:136|104:136|84:196,1,160
56,272,204674,1,0,0:0:0
180,168,205129,6,0,P|256:144|332:168,3,160,2|2|0|8,0:0|0:0|0:0|0:0,0:0:0
372,236,206719,6,0,P|396:320,2,80,0|2|0,0:0|0:0|0:0,0:0:0
296,268,207401,2,0,P|296:348,1,80,4|0,0:0|0:0,0:0:0
216,348,207856,2,0,P|216:268,1,80,2|0,0:0|0:0,0:0:0
140,236,208310,2,0,P|116:316,2,80,8|0|2,0:0|0:0|0:0,0:0:0
140,152,208992,2,0,P|116:72,2,80
140,236,209674,5,0,0:0:0
256,308,209901,1,8,0:0:0
372,236,210129,1,0,0:0:0
388,100,210356,1,8,0:0:0
256,64,210583,1,8,0:0:0
124,100,210810,1,8,0:0:0
140,236,211038,5,4,0:0:0
144,316,211265,2,0,P|212:276|212:200,1,160
299,201,211947,2,0,P|300:276|368:316,1,160,8|2,0:0|0:0,0:0:0
372,236,212629,2,0,B|256:288|140:236,1,240,0|2,0:0|0:0,0:0:0
72,192,213538,1,0,0:0:0
72,192,213765,5,8,0:0:0
140,152,213992,2,0,B|180:128|184:84,1,80,0|2,0:0|0:0,0:0:0
264,80,214447,2,0,B|288:120|332:124,1,80,0|4,0:0|0:0,0:0:0
280,188,214901,2,0,B|236:180|200:200,1,80,0|2,0:0|0:0,0:0:0
248,264,215356,5,0,0:0:0
304,320,215583,2,0,B|340:284|328:240|328:240|348:208|392:200,1,160,8|2,0:0|0:0,0:0:0
464,192,216265,1,0,0:0:0
424,120,216492,2,0,B|352:148|300:108|300:108|272:116,1,160,0|2,0:0|0:0,0:0:0
260,36,217174,1,0,0:0:0
340,32,217401,5,8,0:0:0
388,96,217628,1,0,0:0:0
388,176,217856,1,2,0:0:0
308,192,218083,1,0,0:0:0
264,124,218311,5,4,0:0:0
212,64,218538,2,0,B|176:100|188:144|188:144|168:176|124:184,1,160
96,264,219220,2,0,B|140:268|176:288|176:288|212:260|248:264,1,160,8|2,0:0|0:0,0:0:0
236,348,219901,2,0,B|280:320|332:360|332:360|408:364|456:316,1,240,0|2,0:0|0:0,0:0:0
440,232,220810,1,0,0:0:0
380,176,221038,5,8,0:0:0
312,128,221265,2,0,B|300:32,2,80,0|2|0,0:0|0:0|0:0,0:0:0
244,176,221947,1,4,0:0:0
168,208,222174,2,0,B|180:304,2,80,0|2|0,0:0|0:0|0:0,0:0:0
104,152,222856,6,0,P|140:80|140:80|216:56,1,160,8|2,0:0|0:0,0:0:0
296,56,223538,2,0,P|372:80|372:80|408:152,1,160,0|8,0:0|0:0,0:0:0
376,224,224220,5,2,0:0:0
324,352,224447,1,0,0:0:0
188,352,224674,1,8,0:0:0
136,224,224901,1,8,0:0:0
188,96,225129,1,8,0:0:0
324,96,225356,1,8,0:0:0
376,224,225583,1,4,0:0:0
256,192,225697,12,2,226947,0:0:0
176,112,227401,5,4,0:0:0
176,112,227856,5,2,0:0:0
220,180,228083,2,0,P|260:112|224:44,1,160
148,40,228765,2,0,P|108:52|72:40,1,80,2|0,0:0|0:0,0:0:0
40,112,229219,2,0,P|40:192|40:192|-4:280|108:380|220:280|176:192|176:192|176:112,1,480,4|2,0:0|0:0,0:0:0
336,112,231038,5,4,0:0:0
336,112,231493,5,2,0:0:0
292,180,231720,2,0,P|252:112|288:44,1,160
364,40,232402,2,0,P|404:52|440:40,1,80,2|0,0:0|0:0,0:0:0
472,112,232856,2,0,P|472:192|472:192|516:280|404:380|292:280|336:192|336:192|336:112,1,480,4|2,0:0|0:0,0:0:0
256,248,234674,5,4,0:0:0
256,248,235129,5,2,0:0:0
324,200,235356,2,0,P|256:164|188:200,1,160
112,176,236038,1,2,0:0:0
112,176,236265,1,0,0:0:0
112,176,236492,2,0,P|364:96|276:336,2,640,4|4|4,0:0|0:0|0:0,0:0:0
256,192,240242,12,2,243765,0:0:0
