osu file format v12

[General]
AudioFilename: Oceans.mp3
AudioLeadIn: 0
PreviewTime: 53109
Countdown: 0
SampleSet: Soft
StackLeniency: 0.7
Mode: 0
LetterboxInBreaks: 1
EpilepsyWarning: 1
WidescreenStoryboard: 0

[Editor]
Bookmarks: 149109
DistanceSpacing: 0.9
BeatDivisor: 4
GridSize: 4
TimelineZoom: 1

[Metadata]
Title:Oceans
TitleUnicode:Oceans
Artist:Evanescence
ArtistUnicode:Evanescence
Creator:narakucrimson
Version:Normal
Source:
Tags:Mystyk MystykAMV
BeatmapID:180641
BeatmapSetID:44077

[Difficulty]
HPDrainRate:3
CircleSize:3
OverallDifficulty:2
ApproachRate:4
SliderMultiplier:1.8
SliderTickRate:2

[Events]
//Background and Video events
0,0,"bg.jpg",0,0
//Break Periods
2,72509,79689
2,142109,147789
//Storyboard Layer 0 (Background)
//Storyboard Layer 1 (Fail)
//Storyboard Layer 2 (Pass)
//Storyboard Layer 3 (Foreground)
//Storyboard Sound Samples
//Background Colour Transformations
3,100,163,162,255

[TimingPoints]
309.543518400938,600,4,2,0,30,1,0
459,-125,4,2,0,20,0,0
9984,-125,4,2,0,30,0,0
10134,-125,4,2,0,5,0,0
10284,-125,4,2,0,30,0,0
11034,-125,4,2,0,5,0,0
11184,-125,4,2,0,30,0,0
12234,-125,4,2,0,20,0,0
12384,-125,4,2,0,30,0,0
12534,-125,4,2,0,5,0,0
12684,-125,4,2,0,30,0,0
13434,-125,4,2,0,5,0,0
13584,-125,4,2,0,30,0,0
14634,-125,4,2,0,20,0,0
14784,-125,4,2,0,30,0,0
14934,-125,4,2,0,5,0,0
15084,-125,4,2,0,30,0,0
15834,-125,4,2,0,5,0,0
15984,-125,4,2,0,30,0,0
17034,-125,4,2,0,20,0,0
17184,-125,4,2,0,30,0,0
17334,-125,4,2,0,5,0,0
17484,-125,4,2,0,30,0,0
17634,-125,4,2,0,5,0,0
17784,-125,4,2,0,30,0,0
18534,-125,4,2,0,5,0,0
18684,-125,4,2,0,30,0,0
19434,-125,4,2,0,20,0,0
19584,-125,4,2,0,30,0,0
19734,-125,4,2,0,5,0,0
19884,-125,4,2,0,30,0,0
20634,-125,4,2,0,5,0,0
20784,-125,4,2,0,30,0,0
21834,-125,4,2,0,20,0,0
21984,-125,4,2,0,30,0,0
22134,-125,4,2,0,5,0,0
22284,-125,4,2,0,30,0,0
24234,-125,4,2,0,20,0,0
24384,-125,4,2,0,30,0,0
24534,-125,4,2,0,5,0,0
24684,-125,4,2,0,30,0,0
24834,-125,4,2,0,5,0,0
24984,-125,4,2,0,30,0,0
25134,-125,4,2,0,5,0,0
25284,-125,4,2,0,30,0,0
26334,-125,4,2,0,5,0,0
26484,-125,4,2,0,30,0,0
26934,-125,4,2,0,5,0,0
27084,-125,4,2,0,30,0,0
27234,-125,4,2,0,5,0,0
27384,-125,4,2,0,30,0,0
28059,-125,4,2,1,45,0,0
28959,-100,4,2,1,60,0,0
47484,-100,4,2,1,50,0,0
47634,-100,4,2,1,60,0,0
47784,-100,4,2,1,70,0,0
47934,-100,4,2,1,80,0,0
48234,-117.647058823529,4,2,1,50,0,0
50634,-117.647058823529,4,2,1,40,0,0
50784,-117.647058823529,4,2,1,50,0,0
52359,-100,4,2,1,60,0,0
53109,-86.9565217391304,4,2,1,90,0,1
72309,-86.9565217391304,4,2,1,90,0,0
72459,-100,4,2,1,60,0,0
105159,-100,4,2,1,80,0,0
105909,-86.9565217391304,4,2,1,90,0,1
141909,-86.9565217391304,4,2,1,90,0,0
149109,-86.9565217391304,4,2,1,90,0,1
151509,-86.9565217391304,4,2,1,90,0,0
161484,-86.9565217391304,4,1,0,70,0,0
161634,-86.9565217391304,4,2,1,90,0,0
162684,-86.9565217391304,4,1,0,70,0,0
162834,-86.9565217391304,4,2,1,90,0,0
163884,-86.9565217391304,4,1,0,70,0,0
164034,-86.9565217391304,4,2,1,90,0,0
164709,-86.9565217391304,4,2,1,70,0,0
165909,-86.9565217391304,4,2,1,90,0,1
201909,-86.9565217391304,4,1,0,45,0,0
204159,-86.9565217391304,4,2,0,15,0,0
209034,-86.9565217391304,4,2,0,5,0,0
209184,-86.9565217391304,4,2,0,10,0,0
212634,-86.9565217391304,4,2,0,5,0,0

[Colours]
Combo1 : 138,66,184
Combo2 : 45,217,253
Combo3 : 35,111,252
Combo4 : 46,233,139
SliderBorder : 11,36,116
SliderTrackOverride : 97,171,255

[HitObjects]
252,268,9909,6,0,P|196:356|92:360,2,216,4|2|0,0:0|0:0|0:0,0:0:0:0:
188,156,12309,2,0,P|84:160|28:248,2,216,4|2|0,0:0|0:0|0:0,0:0:0:0:
324,228,14709,22,0,P|427:223|483:135,2,216,4|2|0,0:0|0:0|0:0,0:0:0:0:
260,116,17109,2,0,P|316:28|420:24,2,216,4|2|0,0:0|0:0|0:0,0:0:0:0:
184,220,19509,22,0,P|188:296|236:340,1,144,4|2,0:0|0:0,0:0:0:0:
276,339,20409,2,0,P|326:290|328:220,2,144,0|2|2,0:0|0:0|0:0,0:0:0:0:
235,339,21909,1,4,0:0:0:0:
128,256,22509,1,0,0:0:0:0:
140,128,23109,1,2,0:0:0:0:
256,72,23709,1,0,0:0:0:0:
372,128,24309,22,0,B|428:172|464:252|428:332|372:376,1,288,4|2,0:0|0:0,0:0:0:0:
256,320,26109,1,0,0:0:0:0:
140,376,26709,2,0,B|84:332|48:252|84:172|140:128,1,288,4|2,0:0|0:0,0:0:0:0:
256,68,28509,1,8,0:0:0:0:
256,112,28809,1,8,0:0:0:0:
256,156,29109,22,0,B|272:248|240:244|256:336,1,180,4|8,0:0|0:0,0:0:0:0:
416,364,30309,2,0,B|428:320|416:276,2,90,2|0|8,0:0|0:0|0:0,0:0:0:0:
304,244,31509,2,0,B|313:196|349:162|396:148|442:163,2,180,4|8|2,0:0|0:0|0:0,0:0:0:0:
176,344,33309,1,8,0:0:0:0:
336,344,33909,5,4,0:0:0:0:
208,244,34509,1,8,0:0:0:0:
208,244,34809,2,0,B|199:196|163:162|116:148|70:163,1,180,2|0,0:0|0:0,0:0:0:0:
32,232,35709,2,0,B|41:280|77:314|124:328|170:313,1,180,8|4,0:0|0:0,0:0:0:0:
336,296,36909,1,8,0:0:0:0:
416,156,37509,1,2,0:0:0:0:
336,15,38109,1,8,0:0:0:0:
176,16,38709,37,4,0:0:0:0:
96,156,39309,1,8,0:0:0:0:
96,156,39609,2,0,P|104:228|192:276,1,180,2|0,0:0|0:0,0:0:0:0:
256,224,40509,1,8,0:0:0:0:
320,276,40809,2,0,P|399:240|416:156,1,180,2|0,0:0|0:0,0:0:0:0:
352,104,41709,1,8,0:0:0:0:
324,180,42009,2,0,P|392:240|480:264,2,180,2|0|0,0:0|3:0|0:0,0:0:0:0:
352,104,43509,5,4,0:0:0:0:
256,232,44109,1,8,0:0:0:0:
160,104,44709,1,2,0:0:0:0:
160,104,45009,1,0,0:0:0:0:
188,180,45309,2,0,P|120:240|32:264,2,180,8|4|8,0:0|3:2|0:0,0:0:0:0:
336,248,47109,2,0,P|340:292|316:332,1,90,2|0,0:0|0:0,0:0:0:0:
194,330,47709,2,0,P|172:292|176:248,1,90,8|0,0:0|0:0,0:0:0:0:
256,272,48309,37,4,0:0:0:0:
172,164,48909,2,0,B|128:148|96:164|64:180|20:164,2,153.000002918243,0|2|2,3:0|0:0|3:0,0:0:0:0:
340,220,50709,2,2,B|384:236|416:220|448:204|492:220,1,153.000002918243,4|2,0:0|0:0,0:0:0:0:
490,219,51609,1,0,0:0:0:0:
412,332,52209,1,2,0:0:0:0:
332,348,52509,1,8,0:0:0:0:
256,320,52809,1,8,0:0:0:0:
180,348,53109,6,0,P|88:332|16:248,2,207.000003948212,4|8|2,0:0|0:0|0:0,0:0:0:0:
328,232,54909,2,0,P|284:176|184:232,1,207.000003948212,8|4,0:0|0:0,0:0:0:0:
332,348,56109,2,0,P|424:332|496:248,1,207.000003948212,8|2,0:0|0:0,0:0:0:0:
496,156,57009,1,0,0:0:0:0:
440,84,57309,1,8,0:0:0:0:
256,48,57909,38,0,P|112:180|388:248,1,621.000011844635,4|8,0:0|0:0,0:0:0:0:
256,192,60309,1,4,0:0:0:0:
92,104,60909,2,0,P|52:156|92:280,1,207.000003948212,8|4,0:0|0:0,0:0:0:0:
184,280,61809,1,2,0:0:0:0:
256,340,62109,1,8,0:0:0:0:
328,280,62409,1,2,0:0:0:0:
419,280,62709,6,0,P|466:192|420:104,1,207.000003948212,4|8,0:0|0:0,0:0:0:0:
224,100,63909,2,0,B|212:144|224:196|288:188|300:240|288:284,1,207.000003948212,2|8,0:0|0:0,0:0:0:0:
208,328,64809,1,0,0:0:0:0:
172,241,65109,2,0,B|191:200|234:168|277:215|320:183|339:142,1,207.000003948212,4|8,0:0|0:0,0:0:0:0:
172,64,66309,2,0,B|136:64|136:64|100:64|72:80,1,103.500001974106,2|0,0:0|0:0,0:0:0:0:
4,144,66909,2,0,P|-12:192|4:240,1,103.500001974106,8|0,0:0|0:0,0:0:0:0:
84,192,67509,38,0,B|144:192|164:236|200:252|248:252|280:236,1,207.000003948212,4|8,0:0|0:0,0:0:0:0:
234,147,68409,2,0,B|264:132|312:132|348:148|368:192|428:192,1,207.000003948212,2|0,0:0|0:0,0:0:0:0:
508,144,69309,2,0,P|524:192|508:240,1,103.500001974106,8|2,0:0|0:0,0:0:0:0:
440,304,69909,38,0,B|400:316|364:304|364:304|328:316|288:304,2,155.250002961159,8|8|8,0:0|0:0|0:0,0:0:0:0:
344,144,71409,1,8,0:0:0:0:
256,116,71709,1,8,0:0:0:0:
168,144,72009,1,2,0:0:0:0:
108,216,72309,1,4,0:0:0:0:
216,304,81009,6,0,B|188:304|188:304|160:304|128:292,2,90,0|8|8,0:0|0:0|0:0,0:0:0:0:
296,304,81909,2,0,B|364:304|364:304|428:304|468:268,1,180,4|8,0:0|0:0,0:0:0:0:
472,188,82809,2,0,P|439:132|333:108,1,180,2|0,0:0|0:0,0:0:0:0:
256,140,83709,1,8,0:0:0:0:
40,188,84309,2,0,P|72:132|178:108,1,180,4|8,0:0|0:0,0:0:0:0:
256,244,85509,2,0,P|223:299|117:324,1,180,2|8,0:0|0:0,0:0:0:0:
148,216,86709,6,0,P|176:112|148:48,1,180,4|8,0:0|0:0,0:0:0:0:
88,108,87609,2,0,P|192:136|256:108,1,180,2|0,0:0|0:0,0:0:0:0:
300,40,88509,1,8,0:0:0:0:
452,92,89109,2,0,P|480:124|488:172,2,90,4|2|8,0:0|0:0|0:0,0:0:0:0:
372,112,90009,1,2,0:0:0:0:
336,184,90309,2,0,P|284:216|176:184,1,180,0|8,0:0|0:0,0:0:0:0:
140,112,91209,1,2,0:0:0:0:
256,108,91509,38,0,L|256:288,1,180,4|8,0:0|0:0,0:0:0:0:
336,304,92409,2,0,P|392:352|496:356,2,180,0|2|2,3:0|0:0|0:0,0:0:0:0:
340,224,93909,1,4,0:0:0:0:
172,224,94509,1,8,0:0:0:0:
175,304,94809,2,0,P|105:357|17:356,1,180,2|0,0:0|0:0,0:0:0:0:
0,276,95709,2,0,B|-4:236|4:180|44:204|52:148|48:108,1,180,8|4,0:0|0:0,0:0:0:0:
192,36,96909,5,8,0:0:0:0:
207,119,97209,2,0,B|215:158|240:209|271:174|296:225|304:264,1,180,2|0,0:0|0:0,0:0:0:0:
320,348,98109,1,8,0:0:0:0:
512,276,98709,2,8,B|516:236|508:180|468:204|460:148|464:108,2,180,4|8|2,0:0|0:0|0:0,0:0:0:0:
332,372,100509,1,8,0:0:0:0:
256,340,100809,1,8,0:0:0:0:
180,372,101109,1,4,0:0:0:0:
48,276,101709,37,8,0:0:0:0:
24,200,102009,2,0,B|54:164|100:156|100:156|130:120|176:112,1,180,2|2,0:0|0:0,0:0:0:0:
256,132,102909,1,8,0:0:0:0:
335,112,103209,2,0,B|381:120|411:156|411:156|457:164|488:200,2,180,4|2|2,0:0|0:0|0:0,0:0:0:0:
188,184,105009,1,0,0:0:0:0:
200,264,105309,1,8,0:0:0:0:
256,324,105609,1,8,0:0:0:0:
332,348,105909,6,0,P|424:332|496:248,2,207.000003948212,4|8|2,0:0|0:0|0:0,0:0:0:0:
184,232,107709,2,0,P|228:176|328:232,1,207.000003948212,8|4,0:0|0:0,0:0:0:0:
180,348,108909,2,0,P|88:332|16:248,1,207.000003948212,8|2,0:0|0:0,0:0:0:0:
20,156,109809,1,0,0:0:0:0:
76,84,110109,1,8,0:0:0:0:
164,52,110409,1,0,0:0:0:0:
256,48,110709,38,0,P|400:180|124:248,1,621.000011844635,4|8,0:0|0:0,0:0:0:0:
256,192,113109,1,4,0:0:0:0:
420,104,113709,2,0,P|460:156|420:280,1,207.000003948212,8|4,0:0|0:0,0:0:0:0:
328,280,114609,1,2,0:0:0:0:
256,224,114909,1,8,0:0:0:0:
184,280,115209,1,2,0:0:0:0:
93,280,115509,6,0,P|46:192|92:104,1,207.000003948212,4|8,0:0|0:0,0:0:0:0:
288,100,116709,2,0,B|300:144|288:196|224:188|212:240|224:284,1,207.000003948212,2|8,0:0|0:0,0:0:0:0:
304,328,117609,1,0,0:0:0:0:
340,241,117909,2,0,B|321:200|278:168|235:215|192:183|173:142,1,207.000003948212,4|8,0:0|0:0,0:0:0:0:
340,64,119109,2,0,B|376:64|376:64|412:64|440:80,1,103.500001974106,2|0,0:0|0:0,0:0:0:0:
508,144,119709,2,0,P|524:192|508:240,1,103.500001974106,8|0,0:0|0:0,0:0:0:0:
496,332,120309,38,0,P|412:364|304:332,1,207.000003948212,4|8,0:0|0:0,0:0:0:0:
208,332,121209,2,0,P|111:364|15:332,1,207.000003948212,2|0,0:0|0:0,0:0:0:0:
4,240,122109,2,0,P|-11:192|4:144,1,103.500001974106,8|2,0:0|0:0,0:0:0:0:
64,72,122709,6,0,B|100:32|160:16|212:20|196:76|256:96|316:76|300:20|352:16|412:32|448:72,1,414.000007896424,4|2,0:0|0:0,0:0:0:0:
512,252,124509,1,8,0:0:0:0:
352,344,125109,2,0,P|264:376|160:344,1,207.000003948212,4|8,0:0|0:0,0:0:0:0:
0,252,126309,1,2,0:0:0:0:
48,172,126609,1,0,0:0:0:0:
95,92,126909,2,0,P|195:82|268:152,1,207.000003948212,8|4,0:0|0:0,0:0:0:0:
416,291,128109,38,0,P|316:301|243:231,1,207.000003948212,8|2,0:0|0:0,0:0:0:0:
320,180,129009,2,0,P|368:168|404:128,1,103.500001974106,0|8,0:0|0:0,0:0:0:0:
344,56,129609,1,2,0:0:0:0:
256,20,129909,1,4,0:0:0:0:
168,56,130209,1,2,0:0:0:0:
108,129,130509,2,0,P|142:167|192:180,1,103.500001974106,8|2,0:0|0:0,0:0:0:0:
256,112,131109,1,4,0:0:0:0:
352,276,131709,1,8,0:0:0:0:
160,276,132309,1,4,0:0:0:0:
320,180,132909,5,8,0:0:0:0:
256,248,133209,1,2,0:0:0:0:
192,180,133509,2,0,P|104:160|8:216,1,207.000003948212,4|8,0:0|0:0,0:0:0:0:
156,332,134709,2,0,P|284:352|356:332,1,207.000003948212,4|8,0:0|0:0,0:0:0:0:
332,196,135759,2,0,P|288:208|180:196,1,155.250002961159,2|0,0:0|0:0,0:0:0:0:
92,224,136509,1,8,0:0:0:0:
156,52,137109,38,0,P|284:32|356:52,1,207.000003948212,4|8,0:0|0:0,0:0:0:0:
420,120,138009,2,0,P|408:204|300:220,1,207.000003948212,2|0,0:0|0:0,0:0:0:0:
208,220,138909,2,0,P|111:213|89:119,1,207.000003948212,8|8,0:0|0:0,0:0:0:0:
188,20,139959,38,0,B|232:32|256:56|256:56|280:32|324:20,1,155.250002961159,8|12,0:0|0:0,0:0:0:0:
388,88,140709,1,0,0:0:0:0:
404,180,141009,1,8,0:0:0:0:
344,252,141309,1,8,0:0:0:0:
256,280,141609,1,2,0:0:0:0:
168,252,141909,1,4,0:0:0:0:
116,284,149109,22,0,P|208:336|396:284,2,310.500005922318,4|8|8,0:0|0:0|0:0,0:0:0:0:
72,200,151209,1,2,0:0:0:0:
164,220,151509,38,0,P|256:260|348:220,1,207.000003948212,4|8,0:0|0:0,0:0:0:0:
348,128,152409,2,0,P|255:87|163:127,1,207.000003948212,2|0,0:0|0:0,0:0:0:0:
84,176,153309,1,8,0:0:0:0:
256,244,153909,1,4,0:0:0:0:
428,176,154509,1,8,0:0:0:0:
452,264,154809,2,0,P|516:200|480:100,1,207.000003948212
396,64,155709,1,8,0:0:0:0:
312,104,156009,1,8,0:0:0:0:
228,64,156309,6,0,P|104:48|52:100,1,207.000003948212,4|8,0:0|0:0,0:0:0:0:
104,176,157209,2,0,B|176:212|256:192|336:172|408:208,2,310.500005922318,4|8|2,0:0|0:0|0:0,0:0:0:0:
140,92,159309,2,0,B|214:121|253:194|292:267|367:296,1,310.500005922318,8|2,0:0|0:0,0:0:0:0:
460,284,160509,1,12,0:0:0:0:
512,104,161109,38,0,B|480:92|456:92|456:92|416:92|416:92|392:92|360:104,1,155.250002961159,4|4,0:0|0:0,0:0:0:0:
228,156,162009,1,2,0:0:0:0:
152,104,162309,6,0,B|120:92|96:92|96:92|56:92|56:92|32:92|0:104,2,155.250002961159,8|4|2,0:0|0:0|0:0,0:0:0:0:
228,156,163509,37,8,0:0:0:0:
324,292,163959,2,0,P|264:324|188:292,1,155.250002961159,4|2,0:0|0:0,0:0:0:0:
256,236,164709,1,12,0:0:0:0:
344,64,165909,6,0,P|436:80|508:164,2,207.000003948212,4|8|2,0:0|0:0|0:0,0:0:0:0:
256,92,167409,1,0,0:0:0:0:
168,64,167709,2,0,P|76:80|4:164,1,207.000003948212,8|4,0:0|0:0,0:0:0:0:
160,264,168909,2,0,P|236:296|352:264,1,207.000003948212,8|2,0:0|0:0,0:0:0:0:
336,172,169809,1,0,0:0:0:0:
256,128,170109,1,8,0:0:0:0:
176,172,170409,1,2,0:0:0:0:
92,132,170709,38,0,P|228:28|420:132,1,414.000007896424,4|2,0:0|0:0,0:0:0:0:
344,304,172509,2,0,P|292:344|168:304,1,207.000003948212,8|4,0:0|0:0,0:0:0:0:
112,228,173409,1,2,0:0:0:0:
28,192,173709,2,0,B|32:136|60:124|88:112|92:56,2,155.250002961159,8|4|2,0:0|0:0|0:0,0:0:0:0:
40,284,174909,1,8,0:0:0:0:
224,284,175509,6,0,B|212:240|224:188|288:196|300:144|288:100,1,207.000003948212,4|8,0:0|0:0,0:0:0:0:
208,56,176409,1,0,0:0:0:0:
172,143,176709,2,0,B|191:184|234:216|277:169|320:201|339:242,2,207.000003948212,2|8|4,0:0|0:0|0:0,0:0:0:0:
352,100,178509,2,0,L|508:100,2,155.250002961159,8|2|0,0:0|0:0|0:0,0:0:0:0:
272,52,179709,2,0,P|256:100|272:148,1,103.500001974106,8|0,0:0|0:0,0:0:0:0:
308,236,180309,38,0,P|324:284|308:332,1,103.500001974106,4|0,0:0|0:0,0:0:0:0:
220,360,180909,1,8,0:0:0:0:
132,332,181209,2,0,P|80:240|92:140,1,207.000003948212,2|0,0:0|0:0,0:0:0:0:
168,88,182109,1,8,0:0:0:0:
380,52,182709,6,0,P|432:144|420:244,1,207.000003948212,4|8,0:0|0:0,0:0:0:0:
344,296,183609,1,0,0:0:0:0:
252,292,183909,2,0,B|232:236|256:192|256:192|280:148|260:92,1,207.000003948212,2|8,0:0|0:0,0:0:0:0:
72,96,185109,2,0,P|40:184|72:288,1,207.000003948212,4|8,0:0|0:0,0:0:0:0:
256,288,186309,1,2,0:0:0:0:
348,308,186609,1,0,0:0:0:0:
440,288,186909,2,0,P|473:192|441:96,1,207.000003948212,8|4,0:0|0:0,0:0:0:0:
252,96,188109,38,0,B|200:124|128:124|128:124|48:124,2,207.000003948212,8|2|8,0:0|0:0|0:0,0:0:0:0:
256,192,189609,1,2,0:0:0:0:
260,288,189909,2,0,B|312:260|384:260|384:260|464:260,1,207.000003948212,4|10,0:0|0:0,0:0:0:0:
460,352,190809,2,0,L|356:352,1,103.500001974106,0|4,0:0|0:0,0:0:0:0:
256,192,191709,1,8,0:0:0:0:
156,352,192309,5,4,0:0:0:0:
56,192,192909,1,8,0:0:0:0:
84,104,193209,1,2,0:0:0:0:
156,48,193509,2,0,B|204:24|256:48|256:48|308:24|356:48,1,207.000003948212,4|8,0:0|0:0,0:0:0:0:
356,236,194709,2,0,P|228:256|156:236,1,207.000003948212,4|8,0:0|0:0,0:0:0:0:
204,56,195909,2,0,P|256:64|308:56,1,103.500001974106,2|0,0:0|0:0,0:0:0:0:
396,80,196509,1,8,0:0:0:0:
356,236,197109,38,0,P|228:256|156:236,1,207.000003948212,4|8,0:0|0:0,0:0:0:0:
108,316,198009,2,0,P|256:356|404:316,1,310.500005922318,2|8,0:0|0:0,0:0:0:0:
328,144,199509,38,0,B|284:152|256:172|256:172|228:152|184:144,2,155.250002961159,8|4|8,0:0|0:0|0:0,0:0:0:0:
392,316,201009,1,8,0:0:0:0:
304,348,201309,1,8,0:0:0:0:
208,348,201609,1,2,0:0:0:0:
120,316,201909,1,4,0:0:0:0:
256,192,204309,12,0,209109,0:0:0:0:
256,192,209184,12,2,212709,0:0:0:0:
