osu file format v12

[General]
AudioFilename: Oceans.mp3
AudioLeadIn: 0
PreviewTime: 53109
Countdown: 0
SampleSet: Soft
StackLeniency: 0.7
Mode: 0
LetterboxInBreaks: 1
EpilepsyWarning: 1
WidescreenStoryboard: 0

[Editor]
Bookmarks: 149109
DistanceSpacing: 0.9
BeatDivisor: 4
GridSize: 4
TimelineZoom: 1

[Metadata]
Title:Oceans
TitleUnicode:Oceans
Artist:Evanescence
ArtistUnicode:Evanescence
Creator:narakucrimson
Version:Insane
Source:
Tags:Mystyk MystykAMV
BeatmapID:138154
BeatmapSetID:44077

[Difficulty]
HPDrainRate:8
CircleSize:4
OverallDifficulty:7
ApproachRate:8
SliderMultiplier:2.55
SliderTickRate:2

[Events]
//Background and Video events
0,0,"bg.jpg",0,0
//Break Periods
2,72509,80259
2,142109,148359
//Storyboard Layer 0 (Background)
//Storyboard Layer 1 (Fail)
//Storyboard Layer 2 (Pass)
//Storyboard Layer 3 (Foreground)
//Storyboard Sound Samples
//Background Colour Transformations
3,100,163,162,255

[TimingPoints]
309.543518400938,600,4,2,0,30,1,0
459,-142.857142857143,4,2,0,20,0,0
9984,-142.857142857143,4,2,0,30,0,0
10134,-142.857142857143,4,2,0,5,0,0
10284,-142.857142857143,4,2,0,30,0,0
11034,-142.857142857143,4,2,0,5,0,0
11184,-142.857142857143,4,2,0,30,0,0
12234,-142.857142857143,4,2,0,20,0,0
12384,-142.857142857143,4,2,0,30,0,0
12534,-142.857142857143,4,2,0,5,0,0
12684,-142.857142857143,4,2,0,30,0,0
14634,-142.857142857143,4,2,0,20,0,0
14784,-142.857142857143,4,2,0,30,0,0
14934,-142.857142857143,4,2,0,5,0,0
15084,-142.857142857143,4,2,0,30,0,0
15834,-142.857142857143,4,2,0,5,0,0
15984,-142.857142857143,4,2,0,30,0,0
17034,-142.857142857143,4,2,0,20,0,0
17184,-142.857142857143,4,2,0,30,0,0
17334,-142.857142857143,4,2,0,5,0,0
17484,-142.857142857143,4,2,0,30,0,0
17634,-142.857142857143,4,2,0,5,0,0
17784,-142.857142857143,4,2,0,30,0,0
18534,-142.857142857143,4,2,0,5,0,0
18684,-142.857142857143,4,2,0,30,0,0
19434,-142.857142857143,4,2,0,20,0,0
19584,-142.857142857143,4,2,0,30,0,0
19734,-142.857142857143,4,2,0,5,0,0
19884,-142.857142857143,4,2,0,30,0,0
20634,-142.857142857143,4,2,0,5,0,0
20784,-142.857142857143,4,2,0,30,0,0
21834,-142.857142857143,4,2,0,20,0,0
21984,-142.857142857143,4,2,0,30,0,0
22134,-142.857142857143,4,2,0,5,0,0
22284,-142.857142857143,4,2,0,30,0,0
23034,-142.857142857143,4,2,0,5,0,0
23184,-142.857142857143,4,2,0,30,0,0
24234,-142.857142857143,4,2,0,20,0,0
24384,-142.857142857143,4,2,0,30,0,0
24534,-142.857142857143,4,2,0,5,0,0
24684,-142.857142857143,4,2,0,30,0,0
24834,-142.857142857143,4,2,0,5,0,0
24984,-142.857142857143,4,2,0,30,0,0
25134,-142.857142857143,4,2,0,5,0,0
25284,-142.857142857143,4,2,0,30,0,0
26034,-142.857142857143,4,2,0,5,0,0
26184,-142.857142857143,4,2,0,30,0,0
26334,-142.857142857143,4,2,0,5,0,0
26484,-142.857142857143,4,2,0,30,0,0
26934,-142.857142857143,4,2,0,5,0,0
27084,-142.857142857143,4,2,0,30,0,0
27234,-142.857142857143,4,2,0,5,0,0
27384,-142.857142857143,4,2,0,30,0,0
28059,-142.857142857143,4,2,1,45,0,0
28959,-100,4,2,1,60,0,0
47484,-100,4,2,1,50,0,0
47634,-100,4,2,1,60,0,0
47784,-100,4,2,1,70,0,0
47934,-100,4,2,1,80,0,0
48234,-117.647058823529,4,2,1,50,0,0
50634,-117.647058823529,4,2,1,40,0,0
50784,-117.647058823529,4,2,1,50,0,0
52359,-100,4,2,1,60,0,0
53109,-76.9230769230769,4,2,1,90,0,1
72309,-100,4,2,1,90,0,0
72459,-100,4,2,1,60,0,0
101259,-100,4,2,1,60,0,0
105159,-100,4,2,1,80,0,0
105909,-76.9230769230769,4,2,1,90,0,1
141909,-76.9230769230769,4,2,1,90,0,0
149109,-76.9230769230769,4,2,1,90,0,1
151509,-76.9230769230769,4,2,1,90,0,0
161484,-76.9230769230769,4,1,0,70,0,0
161634,-76.9230769230769,4,2,1,90,0,0
162684,-76.9230769230769,4,1,0,70,0,0
162834,-76.9230769230769,4,2,1,90,0,0
163884,-76.9230769230769,4,1,0,70,0,0
164034,-76.9230769230769,4,2,1,90,0,0
164709,-76.9230769230769,4,2,1,70,0,0
165909,-76.9230769230769,4,2,1,90,0,1
201909,-76.9230769230769,4,1,0,45,0,0
204159,-76.9230769230769,4,2,0,15,0,0
208959,-76.9230769230769,4,2,0,5,0,0
209184,-76.9230769230769,4,2,0,10,0,0
212634,-76.9230769230769,4,2,0,5,0,0

[Colours]
Combo1 : 138,66,184
Combo2 : 45,217,253
Combo3 : 35,111,252
Combo4 : 46,233,139
SliderBorder : 11,36,116
SliderTrackOverride : 97,171,255

[HitObjects]
92,192,9009,5,2,0:0:0:0:
96,196,9309,1,0,0:0:0:0:
100,200,9609,1,2,0:0:0:0:
104,204,9909,22,0,B|156:120|104:36,1,178.499995744228,4|2,0:0|0:0,0:0:0:0:
32,36,10809,2,0,B|-20:120|31:204,1,178.499995744228,0|2,0:0|0:0,0:0:0:0:
68,268,11709,1,0,0:0:0:0:
68,268,12009,1,2,0:0:0:0:
80,344,12309,2,0,B|124:360|176:364|208:332|256:316|304:332|336:364|384:360|432:344,1,356.999989105225,4|2,0:0|0:0,0:0:0:0:
444,268,13809,1,0,0:0:0:0:
444,268,14109,1,2,0:0:0:0:
444,268,14409,1,0,0:0:0:0:
480,204,14709,22,0,B|532:120|480:36,1,178.499995744228,4|2,0:0|0:0,0:0:0:0:
408,35,15609,2,0,B|356:120|408:204,1,178.499995744228,0|2,0:0|0:0,0:0:0:0:
408,204,16809,1,2,0:0:0:0:
384,272,17109,2,0,B|316:284|256:244|256:244|196:284|128:272,1,267.749993616343,4|0,0:0|0:0,0:0:0:0:
76,224,18309,2,0,B|94:176|132:148|179:150|221:179,1,178.499995744228,0|2,3:0|0:0,0:0:0:0:
436,160,19509,22,0,B|418:207|380:235|333:233|291:204,1,178.499995744228,4|2,0:0|0:0,0:0:0:0:
220,180,20409,2,0,B|148:100|220:20,1,178.499995744228,0|2,0:0|0:0,0:0:0:0:
219,20,21609,1,2,0:0:0:0:
292,20,21909,2,0,B|364:100|292:180,1,178.499995744228,4|2,0:0|0:0,0:0:0:0:
296,252,22809,2,0,B|316:308|256:348|196:308|216:252,1,178.499995744228,0|2,0:0|0:0,0:0:0:0:
256,192,23709,1,0,0:0:0:0:
256,192,24009,1,2,0:0:0:0:
320,156,24309,22,0,B|360:108|340:12|256:-12|172:12|152:108|192:156,1,356.999991488457,4|2,0:0|0:0,0:0:0:0:
208,228,25809,2,0,B|176:268|192:328|256:360|320:328|336:268|304:228,2,267.749993616343
256,176,27909,1,2,0:0:0:0:
312,108,28209,21,0,0:0:0:0:
292,72,28359,1,0,0:0:0:0:
256,56,28509,1,8,0:0:0:0:
220,72,28659,1,8,0:0:0:0:
200,108,28809,1,8,0:0:0:0:
256,208,29109,22,0,B|292:268|256:328,1,127.5,4|2,0:0|0:0,0:0:0:0:
244,344,29559,1,0,0:0:0:0:
232,360,29709,2,0,B|108:340,1,127.5,8|2,0:0|0:0,0:0:0:0:
104,320,30159,2,0,B|92:248|32:220,1,127.5,0|0,3:0|0:0,0:0:0:0:
16,212,30609,2,0,B|-20:152|16:92,1,127.5,2|8,3:2|0:0,0:0:0:0:
32,80,31059,2,0,B|84:116,1,63.75,0|2,3:0|0:0,0:0:0:0:
104,112,31359,2,0,B|156:148,1,63.75,0|4,3:0|0:0,0:0:0:0:
256,72,31809,5,0,0:0:0:0:
256,200,32109,1,8,0:0:0:0:
256,72,32409,1,2,0:0:0:0:
355,148,32709,2,0,B|408:112,1,63.75,0|8,3:0|0:0,0:0:0:0:
427,116,33009,2,0,B|480:80,1,63.75,0|0,3:0|0:0,0:0:0:0:
495,91,33309,2,0,B|532:152|496:212,1,127.5,8|2,0:0|3:2,0:0:0:0:
372,232,33909,38,0,B|375:294|327:363|244:370|191:336,1,255,4|8,0:0|0:0,0:0:0:0:
172,328,34659,1,0,0:0:0:0:
160,316,34809,2,0,B|92:335|44:284,1,127.5,2|0,0:0|0:0,0:0:0:0:
84,156,35409,2,0,B|151:136|199:187,1,127.5,0|8,3:0|0:0,0:0:0:0:
212,204,35859,1,0,3:0:0:0:
224,220,36009,1,2,0:0:0:0:
311,187,36309,6,0,B|360:136|428:156,1,127.5,4|0,0:0|0:0,0:0:0:0:
448,156,36759,2,0,B|476:100,1,63.75,0|8,3:0|0:0,0:0:0:0:
504,224,37209,2,0,B|476:280,1,63.75,2|0,0:0|3:0,0:0:0:0:
452,292,37509,1,0,3:0:0:0:
428,300,37659,1,8,0:0:0:0:
404,308,37809,1,2,0:0:0:0:
256,280,38109,1,8,0:0:0:0:
108,308,38409,1,0,0:0:0:0:
196,188,38709,38,0,B|256:152|316:188,1,127.5,4|2,0:0|0:0,0:0:0:0:
332,200,39159,1,0,3:0:0:0:
348,212,39309,2,0,B|388:156|460:160,1,127.5,8|2,0:0|0:0,0:0:0:0:
476,168,39759,2,0,B|464:296,1,127.5,0|0,3:0|0:0,0:0:0:0:
456,312,40209,2,0,B|395:348|335:312,1,127.5,2|8,3:2|0:0,0:0:0:0:
320,300,40659,2,0,B|260:316,1,63.75,0|2,3:0|0:0,0:0:0:0:
240,312,40959,2,0,B|180:328,1,63.75,0|4,3:0|0:0,0:0:0:0:
156,196,41409,5,0,0:0:0:0:
256,96,41709,1,8,0:0:0:0:
356,196,42009,1,2,0:0:0:0:
333,328,42309,2,0,B|272:312,1,63.75,0|8,3:0|0:0,0:0:0:0:
253,316,42609,2,0,B|192:300,1,63.75,0|0,3:0|0:0,0:0:0:0:
176,312,42909,2,0,B|116:348|56:312,1,127.5,8|2,0:0|0:0,0:0:0:0:
116,216,43509,38,0,P|32:164|32:76,1,191.25,4|0,0:0|3:0,0:0:0:0:
44,64,44109,1,0,1:0:0:0:
44,64,44409,1,0,0:0:0:0:
140,128,44709,2,0,B|184:164|244:156|256:120|268:84|328:76|372:112,1,255,2|8,0:0|0:0,0:0:0:0:
384,128,45459,2,0,B|453:148|514:96|506:25,1,191.25,0|4,0:0|0:0,0:0:0:0:
316,88,46359,2,0,B|256:108,1,63.75,0|8,0:0|0:0,0:0:0:0:
196,296,46959,2,0,B|256:276,1,63.75,0|0,3:0|0:0,0:0:0:0:
284,276,47259,2,0,B|344:256,1,63.75,8|2,0:0|3:2,0:0:0:0:
360,244,47559,1,0,0:0:0:0:
372,232,47709,1,8,0:0:0:0:
384,220,47859,1,8,0:0:0:0:
396,208,48009,1,8,0:0:0:0:
482,153,48309,6,0,P|498:101|482:49,1,108.375002067089,4|0,0:0|0:0,0:0:0:0:
402,101,48909,2,0,P|376:52|328:27,1,108.375002067089,0|0,0:0|0:0,0:0:0:0:
308,120,49509,2,0,P|256:103|204:119,1,108.375002067089,2|0,0:0|0:0,0:0:0:0:
164,204,50109,2,0,B|200:252|256:272|312:252|348:204,1,216.749990956486,0|4,0:0|0:0,0:0:0:0:
256,32,51309,2,0,B|252:88|260:88|256:140,1,108.375002067089,2|0,0:0|0:0,0:0:0:0:
140,332,52209,37,2,0:0:0:0:
372,332,52509,1,8,0:0:0:0:
400,324,52659,1,8,0:0:0:0:
420,308,52809,1,8,0:0:0:0:
400,100,53109,6,0,P|280:32|112:100,1,331.499984825135,4|8,0:0|0:0,0:0:0:0:
48,140,53859,2,0,P|36:100|48:60,1,82.8749962062837,0|2,0:0|0:0,0:0:0:0:
116,176,54159,2,0,P|87:206|46:216,1,82.8749962062837,0|4,0:0|0:0,0:0:0:0:
12,280,54459,1,2,0:0:0:0:
68,328,54609,1,0,0:0:0:0:
140,312,54759,1,0,0:0:0:0:
168,240,54909,2,0,B|184:172|256:132|328:172|344:240,1,248.624995554239,8|0,0:0|0:0,0:0:0:0:
256,252,55509,38,0,B|256:88,1,165.749997036159,4|0,0:0|0:0,0:0:0:0:
396,28,56109,2,0,B|444:28|478:58|485:110|464:145,1,165.749997036159,8|0,0:0|0:0,0:0:0:0:
401,181,56559,2,0,B|352:180|318:150|311:98|333:63,1,165.749997036159,2|0,0:0|0:0,0:0:0:0:
400,104,57009,2,0,P|440:100|476:80,2,82.8749962062837,0|2|8,0:0|0:0|0:0,0:0:0:0:
256,84,57609,1,2,0:0:0:0:
372,324,57909,6,0,B|276:352|172:300|120:220|172:136|256:80|340:136|392:220|340:300|236:352|140:324,1,662.999988144636,4|2,0:0|0:0,0:0:0:0:
68,316,59259,1,0,0:0:0:0:
28,252,59409,1,0,0:0:0:0:
88,208,59559,1,0,0:0:0:0:
48,146,59709,2,0,B|27:110|34:58|68:28|116:28,1,165.749997036159,8|2,0:0|0:0,0:0:0:0:
192,28,60159,1,0,0:0:0:0:
196,100,60309,38,0,B|224:180|320:244|416:180|444:100,1,331.499994072318,4|8,0:0|0:0,0:0:0:0:
440,280,61209,1,0,0:0:0:0:
440,280,61359,2,0,B|400:296|360:280,1,82.8749985180795,2|8,0:0|0:0,0:0:0:0:
296,240,61659,1,4,0:0:0:0:
72,280,61959,2,0,B|112:296|152:280,1,82.8749985180795,2|8,0:0|0:0,0:0:0:0:
216,240,62259,1,4,0:0:0:0:
320,28,62559,1,0,0:0:0:0:
316,100,62709,6,0,B|288:180|192:244|96:180|68:100,1,331.499994072318,4|8,0:0|0:0,0:0:0:0:
124,48,63459,1,0,0:0:0:0:
192,16,63609,1,2,0:0:0:0:
256,52,63759,1,0,0:0:0:0:
316,100,63909,2,0,B|295:166|338:237|420:238|468:188,1,248.624995554239,4|0,0:0|0:0,0:0:0:0:
416,136,64509,2,0,B|348:180|328:272,1,165.749997036159,8|0,0:0|0:0,0:0:0:0:
256,292,64959,1,2,0:0:0:0:
183,271,65109,38,0,B|164:180|96:136,1,165.749997036159,4|0,0:0|0:0,0:0:0:0:
176,8,65709,2,0,B|256:44|336:8,1,165.749997036159,8|0,0:0|0:0,0:0:0:0:
412,8,66159,2,0,B|448:84|376:92|411:167,1,165.749992412567,2|0,0:0|0:0,0:0:0:0:
464,224,66609,1,0,0:0:0:0:
432,292,66759,1,2,0:0:0:0:
360,280,66909,1,8,0:0:0:0:
256,80,67209,1,0,0:0:0:0:
152,280,67509,6,0,B|106:308|59:300|25:261|6:205|43:159|88:134|135:143|168:185,1,331.499994072318,4|8,0:0|0:0,0:0:0:0:
343,185,68409,2,0,B|376:143|423:134|468:159|505:205|486:261|452:300|405:308|360:280,1,331.499994072318,2|0,0:0|0:0,0:0:0:0:
256,132,69309,1,8,0:0:0:0:
152,280,69609,1,2,0:0:0:0:
12,228,69909,22,0,B|164:160,1,165.749997036159,8|0,0:0|0:0,0:0:0:0:
176,88,70359,2,0,B|256:124|336:88,1,165.749997036159,8|0,0:0|0:0,0:0:0:0:
348,160,70809,2,0,B|500:228,1,165.749997036159,8|2,0:0|0:0,0:0:0:0:
468,296,71259,1,8,0:0:0:0:
396,312,71409,1,8,0:0:0:0:
328,284,71559,1,0,0:0:0:0:
256,264,71709,1,8,0:0:0:0:
184,284,71859,1,0,0:0:0:0:
116,312,72009,1,2,0:0:0:0:
44,296,72159,1,0,0:0:0:0:
12,228,72309,1,4,0:0:0:0:
200,168,81009,6,0,B|164:168|144:192,2,63.75,0|8|8,0:0|0:0|0:0,0:0:0:0:
312,216,81609,2,0,B|348:216|368:192,1,63.75,2|8,0:0|0:0,0:0:0:0:
376,176,81909,1,4,0:0:0:0:
452,332,82359,5,0,3:0:0:0:
452,332,82509,2,0,B|392:368|332:332,1,127.5,8|2,0:0|0:0,0:0:0:0:
316,320,82959,2,0,B|256:356|196:320,1,127.5,0|0,3:0|3:0,0:0:0:0:
180,331,83409,2,0,B|120:368|60:332,1,127.5,2|8,3:2|0:0,0:0:0:0:
48,316,83859,2,0,B|64:256,1,63.75,0|2,3:0|0:0,0:0:0:0:
84,248,84159,2,0,B|100:188,1,63.75,0|4,3:0|0:0,0:0:0:0:
168,48,84609,37,2,0:0:0:0:
256,176,84909,1,8,0:0:0:0:
344,48,85209,1,2,0:0:0:0:
411,186,85509,2,0,B|428:248,1,63.75,0|8,0:0|0:0,0:0:0:0:
447,254,85809,2,0,B|464:316,1,63.75,0|0,0:0|0:0,0:0:0:0:
480,328,86109,1,8,0:0:0:0:
364,316,86409,1,0,3:0:0:0:
340,332,86559,1,2,0:0:0:0:
316,348,86709,6,0,B|256:384|196:348,1,127.5,4|0,3:2|0:0,0:0:0:0:
176,236,87309,2,0,B|188:108,1,127.5,8|2,0:0|0:0,0:0:0:0:
196,92,87759,2,0,B|256:128|316:92,1,127.5,0|0,3:0|3:0,0:0:0:0:
324,109,88209,2,0,B|336:236,1,127.5,2|8,3:2|0:0,0:0:0:0:
256,320,88809,2,0,B|256:288,4,31.875,0|0|0|0|2,0:0|0:0|0:0|0:0|0:0,0:0:0:0:
276,332,89259,38,0,B|340:344,1,63.75,0|0,3:0|0:0,0:0:0:0:
352,328,89559,2,0,B|388:328|412:308,1,63.75,0|8,3:0|0:0,0:0:0:0:
480,216,90009,1,2,0:0:0:0:
460,224,90159,2,0,B|392:207|375:139,1,127.5,0|8,3:0|0:0,0:0:0:0:
384,120,90609,2,0,B|428:72,2,63.75,0|0|8,0:0|0:0|0:0,0:0:0:0:
292,240,91209,1,2,0:0:0:0:
140,232,91509,6,0,B|137:294|185:363|268:370|321:336,1,255,4|8,0:0|0:0,0:0:0:0:
340,328,92259,1,0,0:0:0:0:
352,316,92409,2,0,B|420:335|468:284,1,127.5,2|0,0:0|0:0,0:0:0:0:
428,156,93009,2,0,B|361:136|313:187,1,127.5,0|8,3:0|0:0,0:0:0:0:
300,204,93459,1,0,0:0:0:0:
288,220,93609,1,2,0:0:0:0:
201,187,93909,38,0,B|152:136|84:156,1,127.5,4|0,0:0|0:0,0:0:0:0:
64,156,94359,2,0,B|36:100,1,63.75,0|8,0:0|0:0,0:0:0:0:
8,224,94809,2,0,B|36:280,1,63.75,2|0,3:2|0:0,0:0:0:0:
136,224,95259,2,0,B|148:288,1,63.75,8|0,0:0|0:0,0:0:0:0:
256,244,95709,2,0,B|256:308,1,63.75,8|0,0:0|0:0,0:0:0:0:
376,224,96159,6,0,B|364:286,1,63.75,0|2,0:0|3:2,0:0:0:0:
504,224,96609,2,0,B|476:280,2,63.75,0|0|8,0:0|0:0|0:0,0:0:0:0:
508,108,97209,2,0,B|464:56|380:56|380:56|332:56,1,191.25,2|8,0:0|0:0,0:0:0:0:
316,68,97809,2,0,B|256:108|196:68,1,127.5,0|8,0:0|0:0,0:0:0:0:
181,56,98259,2,0,B|132:56|132:56|48:56|4:108,1,191.25,0|4,0:0|0:0,0:0:0:0:
76,196,99009,38,2,B|132:240|204:232|200:176|256:152|312:176|308:232|380:240|436:196,1,382.5,2|2,0:0|0:0,0:0:0:0:
456,176,100059,1,8,0:0:0:0:
476,156,100209,1,0,0:0:0:0:
412,40,100509,1,8,0:0:0:0:
324,132,100809,1,8,0:0:0:0:
256,156,100959,1,8,0:0:0:0:
188,132,101109,1,4,0:0:0:0:
100,40,101409,5,0,0:0:0:0:
20,124,101709,1,8,0:0:0:0:
32,240,102009,1,2,0:0:0:0:
48,252,102159,2,0,B|172:276,1,127.5,0|0,3:0|3:0,0:0:0:0:
192,284,102609,2,0,B|220:220|288:208,1,127.5,2|8,3:2|0:0,0:0:0:0:
304,220,103059,2,0,B|358:175|345:107,1,127.5
336,88,103509,1,4,0:0:0:0:
167,106,103809,38,0,B|153:175|208:220,1,127.5,2|8,0:0|0:0,0:0:0:0:
296,296,104409,2,0,B|332:332|316:396|256:420|200:396|180:332|216:296,1,255,2|0,0:0|0:0,0:0:0:0:
256,176,105309,1,8,0:0:0:0:
292,108,105459,1,8,0:0:0:0:
220,108,105609,1,8,0:0:0:0:
80,48,105909,6,0,B|20:96|-28:192|20:288|80:336,1,331.499994072318,4|8,0:0|0:0,0:0:0:0:
140,292,106659,1,0,0:0:0:0:
180,228,106809,1,2,0:0:0:0:
180,156,106959,1,0,0:0:0:0:
140,92,107109,1,4,0:0:0:0:
176,28,107259,2,0,B|256:-12|336:28,1,165.749997036159,0|0,0:0|0:0,0:0:0:0:
372,92,107709,1,8,0:0:0:0:
332,156,107859,1,0,0:0:0:0:
332,228,108009,1,2,0:0:0:0:
372,292,108159,1,0,0:0:0:0:
431,336,108309,38,0,B|492:288|540:192|492:96|432:48,1,331.499994072318,4|8,0:0|0:0,0:0:0:0:
396,192,109209,1,2,0:0:0:0:
332,228,109359,2,0,B|292:240|256:260|256:260|220:240|180:228,1,165.749997036159,0|0,0:0|0:0,0:0:0:0:
116,192,109809,1,2,0:0:0:0:
112,116,109959,2,0,B|148:100|192:100,1,82.8749985180795,0|8,0:0|0:0,0:0:0:0:
256,140,110259,1,0,0:0:0:0:
319,99,110409,2,0,B|364:100|400:116,1,82.8749985180795,2|0,0:0|0:0,0:0:0:0:
420,44,110709,6,0,P|256:20|92:44,1,331.499984825135,4|8,0:0|0:0,0:0:0:0:
16,36,111459,2,0,B|12:120,1,82.8749985180795,0|2,0:0|0:0,0:0:0:0:
64,172,111759,2,0,B|48:212|64:252,1,82.8749985180795,0|4,0:0|0:0,0:0:0:0:
256,144,112209,1,0,0:0:0:0:
447,252,112509,2,0,B|464:212|448:172,1,82.8749985180795,8|0,0:0|0:0,0:0:0:0:
392,120,112809,1,2,0:0:0:0:
328,80,112959,1,0,0:0:0:0:
256,60,113109,37,4,0:0:0:0:
184,80,113259,1,8,0:0:0:0:
128,128,113409,1,0,0:0:0:0:
188,264,113709,2,0,P|268:304|323:265,1,165.749992412567,8|8,0:0|0:0,0:0:0:0:
324,192,114159,2,0,P|244:152|188:192,2,165.749992412567,8|4|0,0:0|0:0|0:0,0:0:0:0:
256,228,114909,1,8,0:0:0:0:
256,228,115059,1,4,0:0:0:0:
124,152,115359,1,0,0:0:0:0:
124,228,115509,6,0,B|160:308|256:348|352:308|388:228,1,331.499994072318,4|8,0:0|0:0,0:0:0:0:
448,184,116259,1,0,0:0:0:0:
508,140,116409,1,2,0:0:0:0:
508,64,116559,1,0,0:0:0:0:
448,20,116709,2,0,B|433:87|360:127|288:87|272:20,1,248.624995554239,4|0,0:0|0:0,0:0:0:0:
196,20,117309,2,0,B|196:112|116:156,1,165.749997036159,8|0,0:0|0:0,0:0:0:0:
48,184,117759,1,2,0:0:0:0:
60,256,117909,38,0,P|124:292|204:256,1,165.749992412567,4|0,0:0|0:0,0:0:0:0:
256,204,118359,1,0,0:0:0:0:
308,257,118509,2,0,P|380:292|452:256,1,165.749992412567,8|0,0:0|0:0,0:0:0:0:
451,151,118959,2,0,P|379:114|308:150,1,165.749992412567,2|2,0:0|0:0,0:0:0:0:
256,204,119409,1,0,0:0:0:0:
256,204,119559,1,0,0:0:0:0:
204,150,119709,2,0,P|132:114|60:151,1,165.749992412567,8|2,0:0|0:0,0:0:0:0:
256,300,120309,6,0,P|360:192|256:84,1,331.499984825135,4|8,0:0|0:0,0:0:0:0:
120,20,121209,2,0,B|66:51|82:134|150:140|150:140|218:145|233:228|180:260,1,331.499994072318,2|0,0:0|0:0,0:0:0:0:
108,272,121959,2,0,B|120:360,1,82.8749985180795,0|8,0:0|0:0,0:0:0:0:
392,354,122409,2,0,B|404:272,1,82.8749985180795,2|0,0:0|0:0,0:0:0:0:
331,260,122709,38,0,B|278:228|293:145|361:140|361:140|429:134|445:51|392:20,1,331.499994072318,4|8,0:0|0:0,0:0:0:0:
316,28,123459,1,0,0:0:0:0:
256,72,123609,1,2,0:0:0:0:
196,28,123759,1,0,0:0:0:0:
120,20,123909,1,4,0:0:0:0:
24,132,124209,1,2,0:0:0:0:
88,172,124359,1,0,0:0:0:0:
152,212,124509,2,0,B|192:292|151:372,1,165.749997036159,8|2,0:0|0:0,0:0:0:0:
152,372,124959,1,0,0:0:0:0:
100,280,125109,6,0,P|168:272|256:308,1,165.749992412567,4|0,0:0|0:0,0:0:0:0:
359,371,125709,2,0,B|320:292|360:212,1,165.749997036159,8|2,0:0|0:0,0:0:0:0:
400,148,126159,2,0,B|440:132|464:84|440:36|400:20,1,165.749997036159,0|2,0:0|0:0,0:0:0:0:
324,16,126609,1,0,0:0:0:0:
292,84,126759,1,0,0:0:0:0:
324,152,126909,1,8,0:0:0:0:
436,252,127209,1,2,0:0:0:0:
412,324,127359,1,0,0:0:0:0:
336,328,127509,38,0,B|360:224|256:148|152:224|176:328,1,331.499994072318,4|8,0:0|0:0,0:0:0:0:
100,324,128259,1,0,0:0:0:0:
76,252,128409,1,2,0:0:0:0:
52,180,128559,1,0,0:0:0:0:
32,108,128709,2,0,P|88:64|180:60,1,165.749992412567,4|2,0:0|0:0,0:0:0:0:
256,84,129159,1,0,0:0:0:0:
332,59,129309,2,0,P|413:60|480:107,1,165.749992412567,8|2,0:0|0:0,0:0:0:0:
472,180,129759,2,0,B|456:216|472:260,1,82.8749985180795
412,324,130059,6,0,B|324:184,1,165.749997036159,8|0,0:0|0:0,0:0:0:0:
256,216,130509,1,8,0:0:0:0:
100,324,130809,1,0,0:0:0:0:
100,324,130959,2,0,B|188:184,1,165.749997036159,2|2,0:0|0:0,0:0:0:0:
176,32,131559,1,0,0:0:0:0:
256,84,131709,1,8,0:0:0:0:
336,32,131859,1,4,0:0:0:0:
256,300,132309,38,0,P|152:192|256:84,1,331.499984825135,4|8,0:0|0:0,0:0:0:0:
304,140,133059,1,0,0:0:0:0:
352,196,133209,1,2,0:0:0:0:
400,252,133359,1,0,0:0:0:0:
448,308,133509,2,0,B|428:344|380:368|332:344|312:308,1,165.749997036159,4|2,0:0|0:0,0:0:0:0:
256,256,133959,1,0,0:0:0:0:
199,308,134109,2,0,B|180:344|132:368|84:344|64:308,1,165.749997036159,8|2,0:0|0:0,0:0:0:0:
112,252,134559,1,0,0:0:0:0:
160,196,134709,6,0,P|236:88|352:196,1,331.499984825135,4|8,0:0|0:0,0:0:0:0:
408,336,135609,1,0,0:0:0:0:
336,352,135759,2,0,B|256:316|176:352,1,165.749997036159,2|0,0:0|0:0,0:0:0:0:
104,336,136209,1,0,0:0:0:0:
64,272,136359,1,2,0:0:0:0:
68,196,136509,1,8,0:0:0:0:
112,136,136659,1,0,0:0:0:0:
184,116,136809,1,2,0:0:0:0:
256,140,136959,1,0,0:0:0:0:
328,116,137109,38,0,B|360:74|407:65|452:90|489:136|470:192|436:231|389:239|343:211,1,331.499994072318,4|8,0:0|0:0,0:0:0:0:
168,211,138009,2,0,B|122:239|75:231|41:192|22:136|59:90|104:65|151:74|184:116,1,331.499994072318,2|0,0:0|0:0,0:0:0:0:
256,292,138909,1,8,0:0:0:0:
328,116,139209,1,2,0:0:0:0:
320,264,139509,38,0,B|192:160,1,165.749997036159,8|0,0:0|0:0,0:0:0:0:
176,84,139959,2,0,B|256:120|336:84,1,165.749997036159,8|0,0:0|0:0,0:0:0:0:
320,159,140409,2,0,B|192:264,1,165.749997036159,8|2,0:0|0:0,0:0:0:0:
116,252,140859,1,8,0:0:0:0:
64,196,141009,1,0,0:0:0:0:
256,32,141309,1,8,0:0:0:0:
448,196,141609,1,8,0:0:0:0:
396,252,141759,1,8,0:0:0:0:
320,264,141909,1,4,0:0:0:0:
100,112,149109,22,0,P|256:64|412:112,1,331.499984825135,4|8,0:0|0:0,0:0:0:0:
336,292,150009,2,0,B|256:332|176:292,1,165.749997036159,2|0,0:0|0:0,0:0:0:0:
132,232,150459,1,8,0:0:0:0:
176,172,150609,2,0,B|255:132|335:172,1,165.749997036159,2|8,0:0|0:0,0:0:0:0:
380,236,151059,1,8,0:0:0:0:
380,236,151209,1,2,0:0:0:0:
448,84,151509,38,0,B|424:48|384:36,1,82.8749985180795,4|0,0:0|0:0,0:0:0:0:
296,64,151809,2,0,B|256:80|216:64,1,82.8749985180795,0|2,0:0|0:0,0:0:0:0:
128,36,152109,2,0,B|86:48|62:84,1,82.8749985180795,8|0,0:0|0:0,0:0:0:0:
60,176,152409,2,0,B|101:163|125:127,1,82.8749985180795,2|0,0:0|0:0,0:0:0:0:
216,156,152709,2,0,B|256:172|296:155,1,82.8749985180795,0|2,0:0|0:0,0:0:0:0:
386,127,153009,2,0,B|410:163|452:176,1,82.8749985180795,0|0,0:0|0:0,0:0:0:0:
508,252,153309,2,0,B|464:332|372:332,1,165.749997036159,8|0,0:0|0:0,0:0:0:0:
256,320,153759,6,0,B|240:280|256:240,1,82.8749985180795,2|0,0:0|0:0,0:0:0:0:
346,101,154059,2,0,B|329:141|289:158,1,82.8749985180795,0|0,0:0|0:0,0:0:0:0:
128,192,154359,2,0,B|168:175|208:192,1,82.8749985180795,0|8,0:0|0:0,0:0:0:0:
346,282,154659,2,0,B|306:265|289:225,1,82.8749985180795,0|2,0:0|0:0,0:0:0:0:
255,63,154959,2,0,B|272:103|255:144,1,82.8749985180795,0|0,0:0|0:0,0:0:0:0:
165,282,155259,2,0,B|182:242|222:225,1,82.8749985180795,0|2,0:0|0:0,0:0:0:0:
384,191,155559,2,0,B|344:208|304:191,1,82.8749985180795,0|8,0:0|0:0,0:0:0:0:
165,101,155859,2,0,B|205:118|222:158,1,82.8749985180795,8|2,0:0|0:0,0:0:0:0:
336,356,156309,38,0,P|344:320|336:276,1,82.8749962062837,4|0,0:0|0:0,0:0:0:0:
256,316,156609,1,2,0:0:0:0:
176,356,156759,2,0,P|168:320|176:276,1,82.8749962062837,0|8,0:0|0:0,0:0:0:0:
256,224,157059,1,0,0:0:0:0:
344,200,157209,2,0,B|412:124|360:4|256:-28|152:4|100:124|168:200,2,497.249991108477,4|8|2,0:0|0:0|0:0,0:0:0:0:
256,308,159309,6,0,B|328:352|416:336,1,165.749997036159,8|0,0:0|0:0,0:0:0:0:
356,200,159909,1,2,0:0:0:0:
304,252,160059,1,8,0:0:0:0:
256,308,160209,2,0,B|184:352|96:336,1,165.749997036159,0|8,0:0|0:0,0:0:0:0:
72,324,160584,2,0,B|32:340,3,41.4374992590398,0|8|8|8,0:0|0:0|0:0|0:0,0:0:0:0:
8,192,161109,37,12,0:0:0:0:
380,28,161559,1,4,0:0:0:0:
216,344,162009,1,2,0:0:0:0:
504,192,162309,5,8,0:0:0:0:
132,28,162759,1,4,0:0:0:0:
296,344,163209,1,2,0:0:0:0:
136,208,163509,38,0,B|108:248,4,41.4374992590398,8|0|0|0|0,0:0|3:0|3:0|3:0|3:0,0:0:0:0:
256,120,163959,2,0,B|256:80,4,41.4374992590398,4|0|0|0|0,1:1|3:0|3:0|3:0|3:0,0:0:0:0:
376,208,164409,2,0,B|404:248,4,41.4374992590398,0|0|0|0|4,3:0|3:0|3:0|3:0|0:0,0:0:0:0:
132,252,165909,6,0,P|192:328|380:252,1,331.499984825135,4|8,0:0|0:0,0:0:0:0:
408,184,166659,2,0,P|424:152|456:112,1,82.8749962062837,0|2,0:0|0:0,0:0:0:0:
360,76,166959,2,0,P|344:112|336:156,1,82.8749962062837,0|4,0:0|0:0,0:0:0:0:
256,144,167259,2,0,L|256:61,1,82.8749962062837,0|2,0:0|0:0,0:0:0:0:
152,76,167559,2,0,P|168:113|175:154,1,82.8749962062837,0|8,0:0|0:0,0:0:0:0:
103,183,167859,2,0,P|84:147|59:115,1,82.8749962062837,0|2,0:0|0:0,0:0:0:0:
104,272,168159,1,0,0:0:0:0:
180,328,168309,38,0,P|256:356|332:328,1,165.749992412567,4|0,0:0|0:0,0:0:0:0:
488,340,168909,2,0,B|528:316|544:272|528:228|489:205,1,165.749997036159,8|2,0:0|0:0,0:0:0:0:
436,152,169359,2,0,B|376:152|368:192|360:232|300:232,1,165.749992412567,0|8,0:0|0:0,0:0:0:0:
256,172,169809,1,0,0:0:0:0:
256,96,169959,1,0,0:0:0:0:
256,20,170109,1,8,0:0:0:0:
128,92,170409,1,2,0:0:0:0:
384,92,170709,6,0,B|432:132|432:196|384:236,1,165.749997036159,4|2,0:0|0:0,0:0:0:0:
324,280,171159,1,0,0:0:0:0:
256,312,171309,1,8,0:0:0:0:
188,280,171459,1,0,0:0:0:0:
128,236,171609,2,0,B|80:196|80:132|128:92,1,165.749997036159,2|4,0:0|0:0,0:0:0:0:
296,104,172209,2,0,B|256:120|216:104,1,82.8749985180795,2|0,0:0|0:0,0:0:0:0:
176,168,172509,2,0,B|256:204|336:168,1,165.749997036159,8|2,0:0|0:0,0:0:0:0:
408,140,172959,2,0,B|448:124|488:140,1,82.8749985180795,0|4,0:0|0:0,0:0:0:0:
512,212,173259,37,8,0:0:0:0:
468,272,173409,1,2,0:0:0:0:
400,300,173559,1,0,0:0:0:0:
324,292,173709,1,8,0:0:0:0:
256,264,173859,1,8,0:0:0:0:
188,292,174009,1,2,0:0:0:0:
112,300,174159,1,0,0:0:0:0:
44,272,174309,1,8,0:0:0:0:
0,212,174459,1,4,0:0:0:0:
180,88,174759,1,0,0:0:0:0:
256,140,174909,1,8,0:0:0:0:
332,88,175059,1,4,0:0:0:0:
388,272,175359,1,0,0:0:0:0:
324,312,175509,6,0,B|288:312|256:292|256:272|256:252|224:232|188:232,1,165.749992412567,4|2,0:0|0:0,0:0:0:0:
124,272,175959,1,0,0:0:0:0:
188,312,176109,2,0,B|224:312|256:292|256:272|256:252|288:232|324:232,1,165.749992412567,8|2,0:0|0:0,0:0:0:0:
388,272,176559,1,0,0:0:0:0:
412,200,176709,2,0,B|396:156|360:136,1,82.8749985180795,4|0,0:0|0:0,0:0:0:0:
296,108,177009,2,0,B|256:124|216:108,1,82.8749985180795,2|0,0:0|0:0,0:0:0:0:
148,136,177309,2,0,B|113:155|97:199,1,82.8749985180795,8|0,0:0|0:0,0:0:0:0:
124,272,177609,1,2,0:0:0:0:
188,312,177759,1,0,0:0:0:0:
256,340,177909,38,0,B|320:288|288:192|256:192|224:192|192:96|256:44,1,331.499994072318,4|8,0:0|0:0,0:0:0:0:
364,148,178809,2,0,B|392:184|396:224,1,82.8749985180795,0|2,0:0|0:0,0:0:0:0:
148,236,179259,2,0,B|120:200|116:160,1,82.8749985180795,2|0,0:0|0:0,0:0:0:0:
128,88,179559,1,0,0:0:0:0:
184,36,179709,1,8,0:0:0:0:
256,12,179859,1,0,0:0:0:0:
328,36,180009,1,2,0:0:0:0:
384,88,180159,1,0,0:0:0:0:
404,160,180309,6,0,B|392:240|324:320|218:321|150:278,1,331.499994072318,4|8,0:0|0:0,0:0:0:0:
0,280,181209,2,0,P|12:200|85:195,1,165.749992412567,2|0,0:0|0:0,0:0:0:0:
144,244,181659,2,0,B|184:236|216:208,1,82.8749985180795,0|2,0:0|0:0,0:0:0:0:
426,195,182109,1,8,0:0:0:0:
368,244,182259,2,0,B|328:236|296:208,1,82.8749985180795,0|2,0:0|0:0,0:0:0:0:
60,28,182709,38,0,P|76:112|140:156,1,165.749992412567,4|2,0:0|0:0,0:0:0:0:
138,155,183159,1,0,0:0:0:0:
138,155,183309,1,8,0:0:0:0:
256,52,183609,1,0,0:0:0:0:
373,155,183909,2,0,P|438:107|452:28,1,165.749992412567,2|0,0:0|0:0,0:0:0:0:
328,100,184509,2,0,B|304:132|256:152|208:132|184:100,1,165.749992412567,8|0,0:0|0:0,0:0:0:0:
104,208,185109,6,0,B|192:284|320:284|408:208,1,331.499994072318,4|8,0:0|0:0,0:0:0:0:
412,340,186009,1,0,0:0:0:0:
324,372,186159,2,0,B|236:356|212:264,1,165.749997036159,2|2,0:0|0:0,0:0:0:0:
216,184,186609,1,0,0:0:0:0:
296,184,186759,1,0,0:0:0:0:
300,264,186909,2,0,B|276:356|188:372,1,165.749997036159,8|2,0:0|0:0,0:0:0:0:
100,340,187359,1,0,0:0:0:0:
48,264,187509,38,0,B|52:144|124:36|256:-12|388:36|460:144|464:264,1,662.999988144636,4|2,0:0|0:0,0:0:0:0:
328,204,189009,2,0,B|288:156|224:156|184:204,1,165.749997036159,0|8,0:0|0:0,0:0:0:0:
256,336,189609,1,2,0:0:0:0:
412,276,189909,5,8,0:0:0:0:
468,228,190059,1,8,0:0:0:0:
468,156,190209,1,8,0:0:0:0:
412,108,190359,1,0,0:0:0:0:
336,96,190509,2,0,B|256:135|176:95,1,165.749997036159,8|0,0:0|0:0,0:0:0:0:
176,172,190959,2,0,B|224:196|288:196|336:172,1,165.749997036159,2|4,0:0|0:0,0:0:0:0:
344,292,191559,2,0,B|328:360|256:400|184:360|168:292,1,248.624995554239,2|8,0:0|0:0,0:0:0:0:
56,228,192309,38,0,B|67:147|135:67|241:66|309:109,1,331.499994072318,4|8,0:0|0:0,0:0:0:0:
372,156,193059,1,0,0:0:0:0:
408,220,193209,1,2,0:0:0:0:
408,296,193359,1,0,0:0:0:0:
372,360,193509,1,4,0:0:0:0:
256,268,193809,1,2,0:0:0:0:
140,360,194109,1,8,0:0:0:0:
104,220,194409,1,2,0:0:0:0:
136,80,194709,6,0,B|256:136|376:80,1,248.624995554239,4|0,0:0|0:0,0:0:0:0:
336,8,195309,2,0,B|256:44|176:8,1,165.749997036159,8|0,0:0|0:0,0:0:0:0:
100,8,195759,2,0,B|64:84|136:92|101:167,1,165.749992412567,2|0,0:0|0:0,0:0:0:0:
40,208,196209,1,0,0:0:0:0:
52,280,196359,1,2,0:0:0:0:
116,316,196509,1,8,0:0:0:0:
256,104,196809,1,0,0:0:0:0:
396,316,197109,38,0,B|442:344|489:336|523:297|542:241|505:195|460:170|413:179|380:221,1,331.499994072318,4|8,0:0|0:0,0:0:0:0:
116,316,198009,2,0,B|70:344|23:336|-10:297|-29:241|7:195|52:170|99:179|132:221,1,331.499994072318,2|0,0:0|0:0,0:0:0:0:
256,368,198909,1,8,0:0:0:0:
256,144,199209,1,2,0:0:0:0:
400,240,199509,38,0,B|420:76,1,165.749997036159,8|0,0:0|0:0,0:0:0:0:
336,32,199959,2,0,B|256:68|176:32,1,165.749997036159,12|0,0:0|0:0,0:0:0:0:
91,75,200409,2,0,B|112:240,1,165.749997036159,10|0,0:0|0:0,0:0:0:0:
136,320,200859,1,8,0:0:0:0:
212,356,201009,1,2,0:0:0:0:
300,356,201159,1,0,0:0:0:0:
376,320,201309,1,8,0:0:0:0:
324,180,201609,21,10,0:0:0:0:
256,152,201759,1,0,0:0:0:0:
188,180,201909,1,4,0:0:0:0:
256,192,204309,12,4,209109,0:0:0:0:
256,192,209184,12,2,212709,0:0:0:0:
