osu file format v9

[General]
AudioFilename: my immortal.mp3
AudioLeadIn: 0
PreviewTime: 52227
Countdown: 0
SampleSet: Soft
StackLeniency: 0.5
Mode: 0
LetterboxInBreaks: 0

[Editor]
Bookmarks: 173574
DistanceSpacing: 1
BeatDivisor: 4
GridSize: 4

[Metadata]
Title:My Immortal
Artist:Evanescence
Creator:narakucrimson
Version:Insane
Source:
Tags:Lanttu

[Difficulty]
HPDrainRate:7
CircleSize:4
OverallDifficulty:8
ApproachRate:7
SliderMultiplier:1.8
SliderTickRate:1

[Events]
//Background and Video events
0,0,"immortal.png"
Video,0,"video.avi"
//Break Periods
2,80852,92572
2,160975,172695
//Storyboard Layer 0 (Background)
//Storyboard Layer 1 (Fail)
//Storyboard Layer 2 (Pass)
//Storyboard Layer 3 (Foreground)
//Storyboard Sound Samples
//Background Colour Transformations
3,100,255,255,255

[TimingPoints]
11747,400.614275222007,4,2,1,20,1,0
13134,-133.333333333333,4,2,1,20,0,0
48487,-100,4,2,1,40,0,0
76929,-100,4,2,1,30,0,0
77130,-100,4,2,1,20,0,0
77330,-100,4,2,1,40,0,0
78832,-100,4,2,1,20,0,0
93354,-133.333333333333,4,2,1,20,0,0
128507,-100,4,2,1,40,0,0
157069,-100,4,2,1,30,0,0
157270,-100,4,2,1,20,0,0
157470,-100,4,2,1,40,0,0
184791,-100,4,2,1,100,0,0
186414,-66.6666666666667,4,2,1,100,0,1
199296,-100,4,2,1,100,0,1
199497,-100,4,2,1,100,0,1
221664,-100,4,2,1,100,0,0
221765,400.641025641026,4,2,1,20,1,0
223649,-100,4,2,1,60,0,0
226654,-100,4,2,1,15,0,0

[Colours]
Combo1 : 125,125,125
Combo2 : 230,230,230
SliderBorder : 0,0,0
SliderTrackOverride : 245,245,245

[HitObjects]
128,104,13349,2,0,B|184:64|256:80,1,134.999995976687,0|0
384,128,14150,2,0,B|328:168|256:152,1,134.999995976687,2|0
256,288,14951,1,2
392,288,15352,1,0
344,240,15552,2,0,B|312:200|256:176|200:200|168:240,1,202.49999396503,2|0
440,136,16554,6,0,B|424:72|368:96|328:88,1,134.999995976687,0|0
256,208,17355,1,2
183,88,17756,2,0,B|144:96|88:72|72:136,1,134.999995976687,0|4
256,336,19759,5,0
256,192,20159,1,0
144,264,20560,1,2
368,264,20961,1,0
144,264,21361,1,2
56,160,21762,2,0,B|96:96|168:96,1,134.999995976687,0|0
152,176,22363,2,0,B|232:184|272:112|344:120,1,202.49999396503,2|0
312,248,23364,6,0,B|384:232|440:272,1,134.999995976687,2|0
256,200,24166,1,0
200,248,24366,2,0,B|128:232|72:272,1,134.999995976687,2|0
71,272,24967,1,2
256,128,25367,1,4
24,96,26169,6,0,B|56:160,1,67.4999979883433
120,128,26569,2,0,B|176:168,1,67.4999979883433
200,232,26970,2,0,B|224:264|256:280|288:264|312:232,1,134.999995976687,2|0
200,160,27771,2,0,B|192:112|192:64|256:0|320:64|320:112|312:160,1,269.999991953373,2|2
256,280,28973,1,0
488,96,29374,6,0,B|456:160,1,67.4999979883433
392,128,29774,2,0,B|336:168,1,67.4999979883433,2|0
304,104,30175,2,0,B|300:72|256:44|212:72|208:104,2,134.999995976687,2|0|2
424,272,31377,1,0
424,272,31577,1,2
88,272,31978,1,0
88,272,32178,1,2
256,248,32578,1,4
256,56,32979,5,0
224,184,33380,1,2
164,216,33580,1,0
200,272,33780,2,0,B|320:344,1,134.999995976687,0|2
196,341,34582,2,0,B|312:272,1,134.999995976687,0|2
256,144,35383,1,0
256,144,35783,1,0
120,168,36184,5,0
104,232,36384,1,0
136,288,36585,1,2
200,304,36785,2,0,B|216:332|256:352|296:332|312:304,1,134.999995976687
256,264,37386,2,0,B|256:128,1,134.999995976687,2|0
256,129,38187,1,2
128,192,38588,5,0
384,192,38988,1,4
256,272,39389,2,0,B|256:344,2,67.4999979883433,0|0|0
192,120,40190,6,0,B|112:128|104:208,1,134.999995976687,2|0
320,120,40991,2,0,B|400:128|408:208,1,134.999995976687,0|2
320,312,41793,1,0
256,328,41993,1,0
192,312,42193,1,4
376,248,42594,6,0,B|432:288,1,67.4999979883433,0|2
136,248,43195,2,0,B|80:288,1,67.4999979883433
184,192,43796,1,2
328,64,44196,1,0
184,64,44597,1,2
328,192,44997,1,0
328,192,45198,1,0
328,192,45398,1,4
424,288,45799,6,0,B|392:352|312:344,1,134.999995976687,0|2
256,312,46400,1,0
200,344,46600,2,0,B|120:352|88:288,1,134.999995976687,0|0
352,248,47401,1,0
160,248,47802,1,0
256,80,48202,1,0
416,160,48603,6,0,B|376:128|304:132|256:192|256:192|208:132|136:128|96:160,1,360,4|0
352,224,49805,2,0,B|384:304|256:352|256:352|128:304|160:224,2,360,2|2|0
256,192,51808,1,4
296,16,52209,6,0,B|256:56|216:16,2,90,2|0|0
136,88,53010,2,0,B|192:144|256:160|320:144|376:88,1,270,2|0
288,56,53811,2,0,B|224:128|256:224,1,180,2|0
255,223,54412,1,2
104,320,54813,5,0
176,368,55013,2,0,B|256:296|336:368,2,180,4|2|0
376,304,56215,2,0,B|336:256|256:224|176:256|136:304,1,270,2|2
216,352,57016,2,0,B|280:280|248:184,1,180,0|2
256,24,57817,2,0,B|256:112,2,90,2|0|4
392,136,58618,5,0
336,200,58819,1,2
120,136,59219,1,0
176,200,59420,2,0,B|168:248|200:296|256:304|312:296|344:248|336:200,1,270,2|0
344,112,60221,2,0,B|312:104|256:128|256:128|200:104|168:112,1,180,2|0
168,200,60822,2,0,B|200:208|256:184|256:184|312:208|344:200,1,180,2|0
352,288,61423,6,0,B|424:296|464:208|424:160,2,180,4|2|0
160,288,62625,2,0,B|88:296|48:208|88:160,1,180,2|0
85,164,63225,1,2
256,104,63626,2,0,B|256:200,1,90,0|2
168,224,64027,1,0
208,312,64227,1,0
304,312,64427,1,0
344,224,64628,1,4
176,128,65028,6,0,B|152:40,2,90,0|0|2
336,128,65829,2,0,B|360:40,2,90,2|0|0
128,208,66631,2,0,B|184:176|256:224|256:224|328:176|384:208,1,270,2|2
256,80,67632,1,0
256,176,67832,6,0,B|296:248|424:280|496:224,1,270,4|2
456,144,68634,1,0
256,176,69034,2,0,B|216:248|88:280|16:224,1,270,4|2
56,144,69836,1,0
256,64,70236,1,2
256,240,70637,2,0,B|256:328,2,90,0|0|2
328,72,71438,5,0
344,160,71638,1,2
256,128,71839,1,0
184,72,72039,1,0
168,160,72239,2,0,B|216:232|320:248,1,180,2|0
193,247,73040,2,0,B|296:232|344:160,1,180,2|0
256,128,73641,2,0,B|256:312,1,180,2|0
256,304,74242,1,4
96,144,76646,5,2
168,88,76846,1,0
256,72,77047,1,0
344,88,77247,1,0
416,144,77447,1,4
256,192,79050,12,0,80652
256,312,93472,6,0,B|200:352|128:336,1,134.999995976687,2|0
256,312,94273,2,0,B|312:352|384:336,1,134.999995976687,2|0
424,280,94874,2,0,B|404:216|324:200,1,134.999995976687,2|0
256,188,95475,1,0
188,200,95675,2,0,B|108:215|88:279,1,134.999995976687,2|0
88,279,96276,1,0
52,148,96677,1,4
120,32,97077,6,0,B|120:96|120:96|120:136|136:168,1,134.999995976687,0|2
144,296,97879,2,0,B|176:304|200:264|224:228|256:232,1,134.999995976687,0|2
256,232,98479,1,0
368,296,98880,1,2
368,296,99080,2,0,B|336:304|312:264|288:228|256:232,1,134.999995976687,0|2
392,32,99882,6,0,B|392:96|392:96|392:136|376:168,1,134.999995976687,0|0
256,112,100683,1,2
312,152,100883,2,0,B|296:184|256:192|216:184|200:152,1,134.999995976687
256,112,101484,2,0,B|256:248,1,134.999995976687,2|0
176,136,102285,2,0,B|104:148|64:204,1,134.999995976687,2|0
112,256,102886,6,0,B|192:256|224:320,1,134.999995976687,4|0
288,318,103487,2,0,B|320:256|400:256,1,134.999995976687,2|0
288,184,104288,1,0
336,136,104489,2,0,B|408:148|448:204,1,134.999995976687,2|0
428,268,105090,1,2
256,248,105490,1,4
488,288,106291,6,0,B|456:224,1,67.4999979883433
392,256,106692,2,0,B|336:216,1,67.4999979883433
312,152,107093,2,0,B|288:120|256:104|224:120|200:152,1,134.999995976687,2|0
312,224,107894,2,0,B|320:272|320:320|256:384|192:320|192:272|200:224,1,269.999991953373,2|2
256,104,109096,1,0
24,288,109496,6,0,B|56:224,1,67.4999979883433
120,256,109897,2,0,B|176:216,1,67.4999979883433,2|0
200,152,110298,1,2
256,192,110498,2,0,B|256:328,1,134.999995976687
328,288,111099,2,0,B|328:224|328:224|328:184|320:152,1,134.999995976687,2|0
191,153,111700,2,0,B|184:184|184:224|184:224|184:288,1,134.999995976687,2|0
256,304,112301,1,2
256,304,112701,1,4
192,184,113102,6,0,B|144:168|136:104|160:72,1,134.999995976687,0|2
320,184,113903,2,0,B|368:168|376:104|352:72,1,134.999995976687,0|2
256,160,114704,1,0
256,224,114905,2,0,B|304:264|208:312|256:344,1,134.999995976687,2|0
256,344,115506,1,2
256,224,115906,1,4
352,320,116307,6,0,B|424:320|456:248,1,134.999995976687,0|2
352,320,117108,2,0,B|368:256|296:208,1,134.999995976687,0|2
216,207,117709,2,0,B|144:256|160:320,1,134.999995976687,0|2
160,320,118310,2,0,B|88:320|56:248,1,134.999995976687,0|2
55,247,118911,1,0
56,248,119111,1,4
144,152,119512,5,0
208,128,119712,1,0
272,144,119912,1,2
312,200,120113,1,0
320,264,120313,6,0,B|400:256|408:176,1,134.999995976687,2|0
192,264,121114,2,0,B|112:256|104:176,1,134.999995976687,0|2
192,72,121915,1,0
256,56,122116,1,0
320,72,122316,1,4
200,136,122717,6,0,B|152:184,1,67.4999979883433,0|2
312,136,123318,2,0,B|360:184,1,67.4999979883433
256,272,123918,1,0
160,368,124319,1,0
256,272,124720,1,2
352,368,125120,1,0
256,368,125321,1,0
256,368,125521,1,4
208,240,125922,6,0,B|224:176,1,67.4999979883433
288,176,126322,2,0,B|304:240,1,67.4999979883433,2|0
320,112,126723,2,0,B|256:88|256:88|192:112,4,134.999995976687,4|0|2|0|2
416,224,128726,6,0,B|376:256|304:252|256:192|256:192|208:252|136:256|96:224,1,360,4|0
160,160,129928,2,0,B|128:80|256:32|256:32|384:80|352:160,2,360,2|2|2
256,192,131931,1,4
216,368,132331,6,0,B|256:328|296:368,2,90,2|0|0
376,296,133133,2,0,B|328:248|256:216|184:248|136:296,1,270,2|0
136,296,133934,2,0,B|152:200|64:144,1,180,2|0
48,232,134535,2,0,B|152:224|184:128,1,180,2|0
336,16,135136,6,0,B|256:88|176:16,2,180,4|2|0
136,88,136338,2,0,B|184:136|256:168|328:136|376:88,1,270,2|2
376,88,137139,2,0,B|360:184|448:240,1,180,0|2
256,192,137940,2,0,B|256:104,2,90,2|0|4
208,368,138741,5,0
304,368,138942,1,2
208,280,139142,1,0
304,280,139342,1,0
336,200,139542,2,0,B|344:152|312:104|256:96|200:104|168:152|176:200,1,270,2|0
256,240,140344,2,0,B|288:248|344:224|344:224|400:248|432:240,1,180,2|0
256,240,140945,2,0,B|224:248|168:224|168:224|112:248|80:240,1,180,2|0
56,88,141546,6,0,B|144:132|224:68,2,180,4|2|0
288,68,142747,2,0,B|368:132|456:88,1,180,2|0
344,224,143549,1,2
344,224,143749,2,0,B|384:304,1,90,0|2
300,336,144150,1,0
212,336,144350,1,0
127,304,144550,2,0,B|168:224,1,90,0|4
304,112,145151,6,0,B|348:100|392:112,2,90,0|0|2
256,192,145752,1,0
208,112,145952,2,0,B|164:100|120:112,2,90,2|0|0
392,32,146754,2,0,B|320:24|256:40|256:40|192:24|120:32,1,270,2|2
256,152,147755,5,0
328,208,147955,2,0,B|272:128|160:120|88:176,1,270,4|2
0,192,148757,1,0
184,208,149157,2,0,B|240:128|352:120|424:176,1,270,4|2
512,192,149958,1,0
344,272,150359,1,2
168,272,150760,1,0
256,264,150960,1,0
344,272,151160,1,2
328,96,151561,5,0
344,184,151761,1,2
256,216,151961,1,0
168,184,152162,1,0
184,96,152362,2,0,B|216:48|256:32|296:48|328:96,1,180,2|0
112,152,153163,2,0,B|144:200|184:216|224:200|256:152,1,180,2|0
399,152,153764,2,0,B|368:200|328:216|288:200|256:152,1,180,2|0
256,64,154365,1,4
416,240,156769,5,2
344,296,156969,1,0
256,312,157169,1,0
168,296,157370,1,0
96,240,157570,1,4
256,192,159173,12,4,160775
356,108,173595,6,0,B|340:172|256:224|172:172|156:108,2,270,2|0|0
256,256,175197,1,0
124,132,175598,2,0,B|136:64|256:20|256:20|376:64|388:132,1,360,2|0
388,131,176800,1,4
212,336,177401,6,0,B|152:312|152:216|212:192,1,180,2|0
300,192,178001,2,0,B|359:215|359:311|299:335,1,180,0|2
300,336,179003,1,0
256,264,179203,1,2
256,264,179604,1,0
412,172,180004,6,0,B|324:168|256:92|256:92|188:168|100:172,1,360,2|0
100,352,181206,2,0,B|188:348|256:272|256:272|324:348|412:352,1,360,2|0
460,180,182408,2,0,B|500:64|340:12|300:124,1,270,2|0
208,116,183209,2,0,B|170:11|10:63|50:179,2,270,2|0|2
304,116,185012,5,8
208,116,185212,1,0
256,192,185413,1,0
256,280,185613,1,8
88,352,186014,1,2
424,352,186414,1,4
304,112,186815,5,0
256,260,187015,1,0
208,112,187216,1,8
336,200,187416,1,0
176,200,187616,1,4
400,304,188017,5,2
112,304,188417,1,0
256,272,188618,1,0
256,136,188818,2,0,B|184:136|152:64,1,134.999995976687,8|0
256,136,189219,2,0,B|328:136|360:64,1,134.999995976687,0|0
384,200,189619,6,0,B|320:240|256:248|192:240|128:200,1,269.999991953373,4|0
256,152,190220,1,0
352,248,190420,1,8
256,344,190621,1,0
160,248,190821,1,4
392,96,191222,5,0
120,96,191622,1,0
112,368,192023,2,0,B|184:352|224:296,1,134.999995976687,8|0
400,368,192424,2,0,B|328:352|288:296,1,134.999995976687,2|0
344,176,192824,6,0,B|232:168|192:120|192:56|256:24|320:56|320:120|280:168|168:176,1,404.99998793006,4|0
256,272,193625,1,8
136,336,193826,1,0
56,224,194026,2,0,B|-48:152|48:24|144:88,1,269.999991953373,4|0
136,224,194627,2,0,B|208:216|256:168|256:168|304:216|376:224,1,269.999991953373,2|0
456,224,195228,2,0,B|560:152|464:24|368:88,1,269.999991953373,8|2
256,160,195829,1,0
160,248,196029,1,4
160,248,196430,5,2
256,224,196630,1,0
352,248,196830,1,8
256,276,197031,1,0
160,248,197231,2,0,B|124:192|156:152|204:128|256:104|256:104|308:128|356:152|388:192|352:248,1,404.99998793006,4|8
320,284,197932,5,0
280,300,198032,1,8
236,300,198132,1,8
192,284,198232,1,0
192,156,198433,5,8
216,116,198533,1,0
256,100,198633,1,0
296,116,198733,1,0
320,156,198833,1,8
256,220,199034,1,0
256,220,199234,1,4
352,384,199635,5,2
160,384,199835,1,0
256,232,200035,1,8
256,232,200236,1,8
168,224,200436,2,0,B|168:176|200:136|256:120|312:136|344:176|344:224,1,270,4|2
256,232,201237,2,0,B|256:48,1,180,0|8
256,52,201838,1,0
456,208,202239,5,0
432,296,202439,2,0,B|344:264|256:296,1,180,4|0
80,296,203240,2,0,B|168:264|256:296,1,180,8|4
256,116,204041,1,0
436,132,204442,2,0,B|460:192|400:260|336:232,1,180,0|8
76,132,205243,2,0,B|52:192|112:260|176:232,1,180,0|4
384,288,206044,6,0,B|296:320,1,90
212,318,206445,2,0,B|127:288,1,90,8|0
156,204,206846,2,0,B|176:136|256:92|336:136|356:204,1,270,4|0
376,112,207647,2,0,B|272:120|256:224,1,180,2|8
256,223,208248,2,0,B|240:120|136:112,1,180,2|0
172,32,208849,6,0,B|216:24|256:56|256:56|296:24|340:32,2,180,4|0|8
172,212,210051,2,0,B|156:148|244:100|292:148,1,180,4|0
220,316,210852,2,0,B|268:364|356:316|340:252,1,180,0|8
256,232,211453,1,0
176,272,211653,1,8
256,232,211853,1,8
336,192,212054,1,4
256,32,212454,5,0
184,80,212655,1,0
328,80,212855,1,8
256,128,213055,1,8
256,128,213255,1,4
88,184,213656,6,0,B|143:220|143:220|200:256|208:312,1,180,0|2
256,232,214257,1,0
304,309,214457,2,0,B|312:256|368:220|368:220|424:184,1,180,8|2
344,144,215058,1,0
344,144,215259,6,0,B|352:80|256:8|160:80|168:144,1,270,4|0
216,224,216060,2,0,B|248:224|256:208|256:208|264:224|296:224,1,90,8|0
344,304,216460,2,0,B|352:368|256:440|160:368|168:304,1,270,4|0
256,304,217262,1,0
256,128,217662,1,8
256,128,218063,1,0
304,208,218263,1,2
208,208,218463,1,4
384,248,218864,5,2
336,320,219064,1,0
256,352,219265,1,8
176,320,219465,1,0
128,248,219665,1,4
288,168,220066,6,0,B|376:168,2,90,0|8|0
300,256,220667,1,0
212,256,220867,1,8
224,168,221067,2,0,B|136:168,2,90
256,84,221668,1,4
416,144,224168,5,2
344,88,224369,1,0
256,72,224569,1,0
168,88,224769,1,0
96,144,224970,1,4
256,192,228575,12,4,233583
