osu file format v9

[General]
AudioFilename: 04 Lithium.mp3
AudioLeadIn: 0
PreviewTime: 81556
Countdown: 0
SampleSet: Soft
StackLeniency: 0.7
Mode: 0
LetterboxInBreaks: 1

[Editor]
Bookmarks: 44438,178548
DistanceSpacing: 1
BeatDivisor: 4
GridSize: 4

[Metadata]
Title:Lithium
Artist:Evanescence
Creator:narakucrimson
Version:Normal
Source:
Tags:gothic rock the open door Lanttu

[Difficulty]
HPDrainRate:4
CircleSize:3
OverallDifficulty:4
ApproachRate:4
SliderMultiplier:1.2
SliderTickRate:2

[Events]
//Background and Video events
0,0,"102505AmyLeeFFpff_02_1024.jpg"
Video,0,"HD-Evanescence-Lithium[www.savevid.com].avi"
//Break Periods
2,112027,112795
2,150933,160602
//Storyboard Layer 0 (Background)
//Storyboard Layer 1 (Fail)
//Storyboard Layer 2 (Pass)
//Storyboard Layer 3 (Foreground)
//Storyboard Sound Samples
//Background Colour Transformations
3,100,163,162,255

[TimingPoints]
34777,508.582326764145,4,2,1,100,1,0
81566,-100,4,2,1,100,0,1
111827,-100,4,2,1,100,0,0
114115,-100,4,2,1,100,0,1
150733,-100,4,2,1,100,0,0
187351,-100,4,2,1,100,0,1
217612,-100,4,2,1,100,0,0

[Colours]
Combo1 : 179,189,198
Combo2 : 123,169,214
Combo3 : 184,235,239
SliderBorder : 0,0,0
SliderTrackOverride : 240,245,255

[HitObjects]
256,64,36811,1,4
256,64,37319,2,0,B|256:184,1,120,2|0
344,264,38337,2,0,B|336:320|256:360|168:320|160:264,1,240,2|2
160,144,39862,1,0
40,144,40371,1,0
40,264,40879,1,4
136,336,41388,6,0,B|264:336,1,120,2|0
376,336,42405,2,0,B|376:216,1,120,2|0
464,136,43422,1,2
376,56,43931,1,0
256,72,44440,2,0,B|256:8,2,60,0|0|4
200,176,45457,6,0,B|184:112|112:104,2,120,0|8|0
256,160,46728,2,0,B|256:40,2,120,2|0|0
312,176,48000,2,0,B|328:112|400:104,1,120,8|0
380,220,49017,2,0,B|384:288|336:320|256:344|176:320|136:288|128:212,1,360,2|0
188,200,50797,2,0,B|188:228|216:248|256:256|296:248|328:228|328:196,1,180,2|0
324,144,51814,2,0,B|324:116|296:96|256:88|216:96|184:116|184:148,1,180,2|0
80,80,53085,6,0,B|80:200,1,120
160,104,54103,2,0,B|160:168|160:168|208:208,1,120,8|0
248,240,54866,2,0,B|336:288|424:240,1,180,2|0
336,160,56137,1,4
128,48,57154,6,0,B|256:48,1,120,4|0
368,48,58171,1,8
448,136,58680,1,2
368,224,59188,2,0,B|368:288,1,60,0|8
256,328,59951,2,0,B|256:264,1,60,0|8
256,144,60714,1,2
144,112,61223,6,0,B|152:64|192:24|256:8|320:24|360:64|368:112,1,300,4|0
488,96,63003,2,0,B|512:152|488:224|424:264|360:248,1,240
256,192,64529,1,0
148,248,65037,2,0,B|88:264|24:224|0:152|24:96,1,240,2|0
136,136,66563,2,0,B|192:88,2,60,0|0|2
184,248,67580,2,0,B|240:296,3,60,0|0|2|8
304,192,68852,5,0
408,136,69360,2,0,B|448:192|408:248,1,120,2|0
304,304,70377,2,0,B|232:312|208:248,1,120,8|0
208,136,71394,2,0,B|232:72|304:80,1,120,2|0
424,80,72412,1,8
424,200,72920,2,0,B|424:264,2,60,8|0|4
304,200,73937,5,0
192,200,74446,2,0,B|64:200,1,120,8|0
160,280,75463,2,0,B|280:280,1,120,2|0
280,168,76480,1,8
400,168,76989,2,0,B|464:168,2,60,2|0|4
364,52,78006,6,0,B|300:28|256:80|256:80|208:28|148:52,2,240,0|2|0
320,160,80549,1,8
192,160,81057,1,8
72,168,81566,6,0,B|32:117|66:37|145:3|196:43,1,240,4|8
192,160,83092,1,0
184,272,83600,2,0,B|232:309|311:275|345:196|305:145,1,240,2|8
384,48,85126,2,0,B|384:120|456:128,1,120,0|4
448,248,86143,5,0
384,144,86652,2,0,B|312:144|336:208|256:248|176:208|200:144|120:144,1,300,8|8
224,80,88432,2,0,B|208:32|144:16|112:64|48:64,1,180,2|8
64,184,89703,6,0,B|110:182|142:230|240:232|256:128,1,240,4|8
256,8,91229,1,0
256,128,91738,2,0,B|272:232|369:230|401:182|448:184,1,240,2|8
384,80,93263,2,0,B|424:64|448:72,2,60,2|0|4
336,192,94281,5,0
256,104,94789,2,0,B|256:176,2,60,8|0|0
176,192,95806,1,0
80,264,96315,2,0,B|136:296|200:264,1,120,0|2
320,268,97332,2,0,B|380:298|436:266,1,120,0|4
428,148,98349,6,0,B|460:124|452:68|516:76,2,120,0|8|0
328,80,99875,2,0,B|352:48|328:12|256:-8|184:12|164:48|188:80,1,240,2|8
88,148,101401,2,0,B|56:124|64:68|0:76,1,120,0|4
56,216,102418,5,0
144,296,102927,1,8
256,248,103435,2,0,B|256:184,1,60
352,112,104198,1,8
440,192,104707,2,0,B|440:256,1,60,0|8
352,328,105469,2,0,B|296:288|240:328,1,120,4|4
144,264,106487,6,0,B|104:232|80:232,2,60,0|0|8
256,312,107504,1,0
256,192,107758,12,4,110047
168,192,111064,5,8
344,192,111827,1,8
96,184,114115,6,0,B|136:128|208:144,1,120,4|0
152,256,115133,2,0,B|224:248|256:304,1,120,8|0
256,184,116150,2,0,B|286:238|358:230,1,120,4|0
312,120,117167,2,0,B|377:134|417:78,1,120,8|0
464,192,118184,6,0,B|464:264|392:304|312:264|312:192,1,240,4|8
256,88,119710,2,0,B|256:152,1,60,0|0
328,240,120473,2,0,B|312:272|256:304|200:272|176:240,1,180,2|8
128,128,121744,1,2
48,224,122253,6,4,B|96:256|112:320|152:280,1,120,4|0
256,248,123270,1,8
344,168,123778,2,4,B|296:136|280:72|240:112,1,120,2|4
136,144,124796,1,0
32,88,125304,2,0,B|16:120|0:168|64:240|56:288|40:320,1,240,8|4
160,304,126830,6,0,B|280:304,1,120,0|8
296,184,127847,2,0,B|304:216|344:232,2,60,2|0|0
400,120,128864,1,0
456,228,129373,2,0,B|484:212|500:184,2,60,8|8|2
440,348,130390,6,0,B|320:348|336:220,1,180,4|2
472,136,131916,2,0,B|424:96|360:104,1,120,0|2
256,40,132933,2,0,B|256:104,1,60,0|2
112,208,133950,2,0,B|160:248|224:240,1,120,0|4
312,328,134967,5,0
432,304,135476,2,8,B|464:272|400:216|432:184,1,120,8|0
312,144,136493,2,0,B|328:112|352:96,1,60,0|8
240,144,137256,2,0,B|224:112|200:96,1,60,0|8
88,144,138019,1,0
168,232,138527,6,0,B|216:264|256:272|296:264|336:232,1,180,4|0
376,192,139544,2,0,B|424:152|424:72,1,120,2|0
312,120,140562,1,2
256,16,141070,1,2
200,120,141579,2,0,B|184:136|136:144,2,60,2|0|8
256,192,142596,12,2,146156
256,192,146665,12,4,150733
256,304,161922,5,4
136,104,162939,2,0,B|256:64|376:104,1,240,4|8
312,200,164465,2,0,B|256:176|192:200,1,120,2|0
184,256,165228,2,0,B|200:304|264:304|312:304|328:256,1,180,8|8
256,160,166499,1,2
256,160,167008,6,0,B|144:160|144:160|144:240|208:264,1,240,4|8
256,160,168534,2,0,B|368:160|368:160|368:80|304:56,1,240,2|0
306,57,170059,1,8
184,56,170568,1,0
64,56,171077,6,0,B|64:176,1,120,2|0
64,296,172094,2,0,B|120:272|184:296,1,120,8|0
200,176,173111,2,0,B|256:200|320:176,1,120,2|0
328,296,174128,2,0,B|384:272|448:296,1,120,8|0
432,176,175145,6,0,B|368:176,1,60
256,176,175908,2,0,B|272:112|336:80,1,120,2|0
256,176,176925,2,0,B|240:112|176:80,1,120,2|0
128,64,177688,1,0
128,184,178197,1,4
376,184,179214,5,4
256,184,179722,1,0
344,264,180231,1,8
256,184,180740,1,0
256,304,181248,1,2
256,184,181757,1,0
168,264,182265,1,8
256,184,182774,1,0
136,184,183283,6,0,B|16:184,1,120,2|0
112,104,184300,2,0,B|232:104,1,120,8|0
352,104,185317,2,0,B|408:120|440:184|440:184|408:248|352:264,1,240,2|8
304,296,186588,1,8
248,264,186843,1,2
248,144,187351,6,0,B|248:88|160:48|72:88|71:143,1,240,4|8
160,224,188877,1,0
72,304,189386,2,0,B|72:360|160:400|248:360|248:304,1,240,2|8
248,184,190911,2,0,B|248:112|320:104,1,120,0|4
440,104,191928,5,0
432,224,192437,2,0,B|384:184|320:184,1,120,8|0
200,184,193454,2,0,B|137:183|89:223,1,120,0|0
88,288,194217,2,0,B|104:336|168:352|200:304|264:304,1,180,2|8
312,208,195489,6,0,B|312:168|360:136|360:32|256:16,1,240,4|8
256,136,197014,1,0
256,16,197523,2,0,B|152:32|154:129|202:161|200:208,1,240,2|8
256,312,199049,2,0,B|256:376,2,60,2|0|4
168,232,200066,5,0
256,152,200574,2,0,B|256:80,2,60,8|0|0
344,232,201592,1,0
400,128,202100,2,0,B|344:96|280:128,1,120,0|2
168,128,203117,2,0,B|108:98|52:130,1,120,0|4
168,168,204134,6,0,B|136:192|144:248|80:240,2,120,0|8|0
184,288,205660,2,0,B|160:320|192:360|256:384|320:360|344:320|320:288,1,240,2|8
344,168,207186,2,0,B|376:192|368:248|432:240,1,120,0|4
448,120,208203,5,0
328,120,208712,1,8
256,24,209220,2,0,B|256:88,1,60
184,176,209983,1,8
256,272,210492,2,0,B|256:208,1,60,0|8
312,104,211255,2,0,B|256:144|200:104,1,120,4|4
224,224,212272,6,0,B|288:224,2,60,0|0|8
256,112,213289,1,0
256,112,213797,1,4
256,192,214052,12,4,217612
