osu file format v9

[General]
AudioFilename: 04 Lithium.mp3
AudioLeadIn: 0
PreviewTime: 81556
Countdown: 0
SampleSet: Soft
StackLeniency: 0.7
Mode: 0
LetterboxInBreaks: 1

[Editor]
DistanceSpacing: 1
BeatDivisor: 4
GridSize: 4

[Metadata]
Title:Lithium
Artist:Evanescence
Creator:narakucrimson
Version:Hard
Source:
Tags:gothic rock the open door Lanttu

[Difficulty]
HPDrainRate:7
CircleSize:4
OverallDifficulty:7
ApproachRate:7
SliderMultiplier:1.6
SliderTickRate:2

[Events]
//Background and Video events
0,0,"102505AmyLeeFFpff_02_1024.jpg"
Video,0,"HD-Evanescence-Lithium[www.savevid.com].avi"
//Break Periods
2,112027,113215
2,150933,161022
//Storyboard Layer 0 (Background)
//Storyboard Layer 1 (Fail)
//Storyboard Layer 2 (Pass)
//Storyboard Layer 3 (Foreground)
//Storyboard Sound Samples
//Background Colour Transformations
3,100,163,162,255

[TimingPoints]
34777,508.582326764145,4,2,1,100,1,0
81566,-100,4,2,1,100,0,1
111827,-100,4,2,1,100,0,0
114115,-100,4,2,1,100,0,1
150733,-100,4,2,1,100,0,0
187224,-66.6666666666667,4,2,1,100,0,0
187351,-66.6666666666667,4,2,1,100,0,1
217612,-100,4,2,1,100,0,0

[Colours]
Combo1 : 179,189,198
Combo2 : 123,169,214
Combo3 : 184,235,239
SliderBorder : 0,0,0
SliderTrackOverride : 240,245,255

[HitObjects]
256,80,36811,1,4
400,144,37319,2,0,B|352:224,1,80,2|0
296,168,37828,2,0,B|216:168,1,80
112,144,38337,2,0,B|160:224,1,80,2|0
216,264,38845,2,0,B|296:264,1,80
344,200,39354,1,2
416,160,39608,1,0
416,80,39862,1,0
488,200,40371,5,0
344,200,40625,1,0
416,80,40879,1,4
256,64,41388,5,2
192,112,41642,1,0
256,160,41897,1,0
192,208,42151,1,0
64,208,42405,1,2
0,160,42660,1,0
64,112,42914,1,0
0,64,43168,1,0
128,64,43422,2,0,B|128:144,2,80,2|0|0
128,312,44440,5,0
256,224,44694,1,0
384,312,44948,1,4
488,192,45457,5,2
448,120,45711,1,0
368,120,45965,1,8
208,120,46474,1,2
128,120,46728,2,0,B|24:120|24:224,2,160,0|0|2
168,48,48000,1,8
240,80,48254,1,0
312,48,48508,1,0
456,112,49017,6,0,B|456:160|408:208|344:192|280:176|224:224|224:288,1,320,2|8
56,112,50543,1,0
56,112,50797,2,0,B|56:160|104:208|168:192|232:176|288:224|288:288,1,320,2|0
352,336,52068,1,8
480,240,52577,1,0
480,40,53085,6,0,B|400:40,1,80,2|0
352,104,53594,1,0
272,104,53848,2,0,B|248:104|196:184|132:184|80:104|56:104,1,240,2|0
164,76,54866,2,0,B|164:252,1,160,2|0
164,352,55628,1,0
256,264,55883,1,0
348,352,56137,1,4
496,200,56646,5,0
440,280,56900,1,0
384,200,57154,1,4
328,56,57663,6,0,B|408:56,2,80,2|0|8
256,96,58426,1,0
184,136,58680,2,0,B|104:136,2,80,2|0|0
256,176,59443,1,8
216,248,59697,1,0
296,248,59951,1,0
256,320,60206,1,8
176,344,60460,1,0
336,344,60714,1,4
256,96,61223,5,4
216,168,61477,2,0,B|192:200|148:224|104:200|80:168,1,160
148,128,62240,1,8
148,48,62494,1,0
296,168,63003,2,0,B|320:200|364:224|408:200|432:168,1,160
364,128,63766,1,0
364,48,64020,1,0
436,92,64274,1,8
500,48,64529,1,0
500,280,65037,5,0
424,280,65291,2,0,B|400:280|368:320|256:320|216:280|192:280,1,240,2|0
136,232,66309,1,8
200,184,66563,1,0
200,104,66817,1,0
120,96,67071,2,0,B|120:56|144:24|200:-8|256:24|280:56|280:96,1,240,2|0
200,104,68089,2,0,B|200:144|224:176|280:208|336:176|360:144|360:104,1,240,2|0
360,24,69106,1,0
200,24,69360,6,0,B|104:24,1,80,2|0
40,24,69869,1,0
40,104,70123,2,0,B|40:184,1,80,0|8
120,104,70632,2,0,B|120:192,1,80,0|0
200,104,71140,2,0,B|200:264,1,160,2|0
280,184,71903,2,0,B|280:104,1,80
336,48,72412,1,8
392,184,72666,2,0,B|392:104,1,80,0|8
448,48,73174,1,0
496,184,73429,6,0,B|504:224|496:272|448:296|408:288,1,160,4|0
336,264,74192,1,0
280,208,74446,1,8
256,128,74700,1,0
232,208,74955,1,0
176,264,75209,1,0
101,288,75463,6,0,B|64:296|16:272|8:224|16:184,1,160,2|0
80,136,76226,1,0
144,96,76480,2,0,B|192:80|208:48|208:48|224:80|272:96,1,160,8|0
336,136,77243,1,0
288,200,77497,6,0,B|272:184|216:144|160:184|144:200,1,160,2|0
216,248,78260,1,0
216,328,78515,2,0,B|264:336|328:312|352:264,1,160,8|0
352,263,79277,1,0
400,328,79532,2,0,B|352:336|288:312|264:264,1,160,2|0
192,192,80295,5,0
152,80,80549,1,8
256,8,80803,1,0
360,80,81057,1,8
320,192,81312,1,0
256,112,81566,6,0,B|256:272,1,160,4|0
216,344,82329,1,0
296,344,82583,1,8
160,344,82838,1,0
352,344,83092,1,0
396,280,83346,2,0,B|356:224|256:180|156:224|116:280,1,320,2|0
88,208,84618,2,0,B|112:168|88:128,1,80,8|0
80,32,85126,2,0,B|56:72|80:112,1,80,0|0
152,72,85635,6,0,B|224:72|272:120|272:168|272:216|312:264|384:264,1,320,4|8
440,208,86906,1,0
440,128,87160,1,0
440,48,87415,2,0,B|392:48|328:80|304:128,1,160,2|8
72,48,88432,2,0,B|120:48|184:80|208:128,1,160,2|0
320,224,89195,1,8
192,224,89449,1,0
180,304,89703,6,0,B|256:352|332:304,1,160,4|0
400,272,90466,2,0,B|472:240,1,80,0|8
472,160,90975,2,0,B|398:127,1,80,0|0
368,200,91483,2,0,B|320:184|352:88|256:48|160:88|192:184|144:200,1,320,2|0
112,272,92755,2,0,B|40:240,1,80,8|0
40,160,93263,2,0,B|113:127,1,80,0|0
256,144,93772,6,0,B|256:304,1,160,4|0
328,264,94535,2,0,B|352:184,1,80,0|8
392,304,95044,2,0,B|448:248,1,80
320,344,95552,1,2
256,200,96061,1,8
192,344,96569,1,0
184,264,96824,2,0,B|160:184,1,80,2|0
120,304,97332,2,0,B|64:248,1,80,8|0
56,80,97841,6,0,B|88:128|160:128|192:80,1,160,4|0
304,32,98604,1,0
208,32,98858,1,8
320,80,99112,2,0,B|352:128|424:128|456:80,1,160,2|0
388,36,99875,2,0,B|388:196,1,160,2|0
368,272,100638,1,0
312,328,100892,1,8
256,272,101146,1,0
200,328,101401,1,0
144,272,101655,1,0
88,192,101909,6,0,B|144:192|144:96|208:96,1,160,4|0
288,96,102672,1,0
368,96,102927,2,0,B|448:96,1,80,2|0
368,168,103435,1,0
288,168,103689,2,0,B|248:176|208:168|208:168|192:200|152:224,1,160,2|8
72,224,104452,2,0,B|72:144,1,80
72,64,104961,2,0,B|152:64,1,80,8|0
232,136,105469,2,0,B|152:136,1,80,8|0
232,64,105978,6,0,B|392:64,1,160,4|0
464,96,106741,1,0
392,136,106995,1,8
464,176,107249,1,0
392,208,107504,1,0
312,208,107758,1,0
344,280,108012,6,0,B|344:344|256:376|176:344|176:280,1,240,4|0
200,208,109030,1,8
120,208,109284,1,0
48,176,109538,1,2
120,136,109792,1,0
48,96,110047,1,4
160,48,110301,5,2
256,120,110555,1,0
352,48,110810,1,0
256,120,111064,1,8
256,224,111318,2,0,B|256:312,1,80
256,120,111827,1,8
176,64,114115,6,0,B|256:48|336:64,1,160,4|0
344,176,114878,1,0
456,136,115133,2,0,B|472:216|456:296,1,160,8|0
384,184,115895,1,0
312,296,116150,2,0,B|296:217|312:137,1,160,2|0
256,16,116913,1,0
199,137,117167,2,0,B|215:217|200:296,1,160,8|0
128,184,117930,1,0
56,296,118184,6,0,B|40:217|56:137,2,160,4|0|8
128,255,119455,2,0,B|164:176|256:176,1,160,0|2
384,255,120473,2,0,B|348:176|256:176,1,160,8|2
256,296,121235,1,8
256,176,121490,1,8
128,176,121744,1,2
192,56,121998,1,0
320,56,122253,6,0,B|352:136|448:136,1,160,4|0
432,56,123016,1,0
432,56,123270,2,0,B|392:128|320:176,1,160,8|0
256,224,124033,1,0
190,175,124287,2,0,B|120:128|100:48,1,160,2|0
192,56,125050,1,0
192,56,125304,2,0,B|160:136|64:136,1,160,8|0
64,216,126067,1,0
144,216,126321,6,0,B|152:152|280:144|272:208|264:272|400:264|408:208,1,320,4|8
464,80,127847,1,2
336,152,128101,1,0
464,224,128356,1,0
464,304,128610,2,0,B|432:352|360:352|328:304,1,160,8|0
184,232,129373,1,8
256,128,129627,1,8
328,232,129881,1,2
256,336,130136,1,0
183,304,130390,6,0,B|152:352|80:352|48:304,1,160,4|0
116,264,131153,2,0,B|116:184,1,80,0|8
176,76,131661,2,0,B|176:160,1,80
240,264,132170,2,0,B|240:184,2,80,0|2|0
296,328,132933,1,0
296,328,133441,2,0,B|312:240|408:232,1,160,8|0
408,152,134204,1,0
408,72,134459,6,0,B|248:72,1,160,4|0
168,72,135222,1,0
168,152,135476,2,0,B|328:152,1,160,8|0
408,152,136239,2,0,B|488:152,1,80
488,232,136747,2,0,B|328:232,1,160,8|0
184,232,137510,1,8
328,304,137764,1,8
184,304,138019,1,2
256,176,138273,1,0
176,168,138527,6,0,B|176:128|200:96|256:64|312:96|336:128|336:168,1,240,4|0
256,176,139544,2,0,B|256:16,1,160,8|0
184,56,140307,1,0
184,136,140562,1,8
328,56,140816,5,0
328,216,141070,1,8
184,280,141324,1,0
328,344,141579,1,8
368,336,141706,1,0
400,312,141833,1,0
424,280,141960,1,0
432,240,142087,1,8
432,160,142342,1,0
400,88,142596,6,0,B|376:40|312:40|256:232|200:40|128:40|112:96,1,320,4|8
160,160,143867,1,2
88,192,144122,1,0
96,272,144376,1,0
152,328,144630,2,0,B|216:320|248:280|256:224|256:224|264:280|296:320|360:328,1,320,2|8
432,296,145902,1,0
488,192,146156,5,0
488,64,146410,1,0
432,128,146665,2,0,B|272:128,2,160,4|0|8
432,208,147936,2,0,B|432:288,1,80,0|2
352,208,148445,2,0,B|352:288,1,80
272,208,148953,2,0,B|272:128,1,80,0|2
192,208,149462,2,0,B|192:128,1,80,0|8
112,208,149970,2,0,B|112:288,1,80,0|8
112,128,150479,1,0
112,48,150733,1,4
464,72,161922,5,4
48,312,162939,5,4
96,248,163194,1,0
152,192,163448,2,0,B|208:192|256:144|256:88,1,160,0|8
360,192,164211,2,0,B|304:192|256:240|256:296,1,160,2|0
352,280,164974,2,0,B|168:104,1,240,2|0
256,80,165991,1,8
336,80,166245,2,0,B|376:72|416:80,1,80,0|4
176,80,167008,6,0,B|176:152|120:224|16:224,1,240,4|0
16,304,168025,2,0,B|40:296|96:352|152:296|176:304,1,160,8|0
336,304,168788,2,0,B|356:311|412:255|468:311|492:303,1,160,2|0
412,216,169551,1,0
352,104,169805,2,0,B|328:160|256:192|184:160|160:104,1,240,2|0
100,212,170822,1,0
100,212,171077,6,0,B|120:304|208:320,1,160,2|0
307,319,171839,2,0,B|392:304|412:212,1,160,2|0
376,136,172602,1,0
376,136,172857,2,0,B|360:72|312:48|256:24|200:48|152:72|136:136,1,320,2|0
192,192,174128,2,0,B|232:176|256:144|256:144|280:176|328:192,1,160,8|0
448,96,175145,5,0
448,176,175400,1,0
376,136,175654,1,2
304,176,175908,1,0
376,216,176162,2,0,B|376:304,2,80,8|0|0
448,256,176925,2,0,B|448:320|448:320|448:368|416:384|376:384,1,160,2|0
312,384,177688,2,0,B|232:384,1,80
184,280,178197,1,8
128,384,178451,2,0,B|72:384|24:344|24:280,1,160,2|0
24,208,179214,6,0,B|8:168|24:120|72:96|112:104,1,160,4|0
184,128,179977,1,0
176,208,180231,2,0,B|256:192|336:208,1,160,8|0
328,128,180994,1,0
403,104,181248,6,0,B|440:96|488:120|504:168|488:208,1,160,2|0
408,184,182011,1,0
352,248,182265,2,0,B|192:248,1,160,8|0
112,248,183028,1,0
112,112,183283,6,0,B|184:64|264:112,1,160,2|0
340,176,184045,1,0
416,244,184300,2,0,B|344:292|264:244,1,160,8|0
256,32,185317,2,0,B|256:192,1,160,2|0
256,272,186080,1,2
416,176,186334,5,8
256,96,186588,1,8
104,176,186843,1,8
328,272,187351,6,0,B|416:272|480:208|480:120,1,239.999992847443,4|0
368,168,188114,1,0
256,72,188368,1,8
144,168,188623,1,0
144,24,188877,1,0
32,120,189131,6,0,B|32:207|96:271|184:271,1,239.999992847443,2|0
200,128,189894,2,0,B|256:88|312:128,1,119.999996423721,0|0
256,256,190403,2,0,B|256:376,2,119.999996423721,8|0|0
256,136,191166,1,0
376,136,191420,6,0,B|376:192|352:248|256:284|164:248|140:192|140:136,1,359.999989271164,4|0
200,32,192437,1,8
256,136,192691,1,0
312,32,192946,1,0
416,88,193200,2,0,B|416:168|416:168|416:240|384:272|320:272,1,239.999992847443,2|0
96,88,194217,2,0,B|96:168|96:168|96:240|128:272|192:272,1,239.999992847443,2|0
192,152,194980,1,2
320,152,195234,1,0
424,272,195489,6,0,B|392:312|288:312|256:264|224:216|120:216|88:264,1,359.999989271164,4|0
160,168,196506,1,8
256,96,196760,1,0
352,168,197014,1,0
408,56,197269,1,0
408,56,197523,2,0,B|320:88|272:152|256:232|256:232|240:152|192:88|96:56,1,479.999985694886,4|8
144,176,198794,2,0,B|136:248|208:280,1,119.999996423721,0|2
104,352,199303,2,0,B|168:328|224:352,1,119.999996423721,0|4
440,192,200066,5,0
432,312,200320,2,0,B|376:288|312:296,1,119.999996423721,0|8
197,295,200829,2,0,B|136:288|80:312,1,119.999996423721
48,200,201337,2,0,B|128:200|208:152|224:64,1,239.999992847443,2|8
256,240,202100,1,0
288,65,202354,2,0,B|304:152|384:200|464:200,1,239.999992847443,2|0
368,272,203117,1,8
256,320,203372,1,0
104,327,203626,6,0,B|192:296|240:232|256:152|256:152|272:232|320:296|403:323,1,479.999985694886,4|8
496,248,204897,1,0
392,184,205152,1,0
392,184,205406,2,0,B|392:112|256:32|120:112|120:184,1,359.999989271164,2|0
256,176,206423,1,0
256,24,206677,1,8
128,104,206932,1,0
128,256,207186,1,0
256,328,207440,6,0,B|344:328|416:272|440:200,1,239.999992847443,4|0
320,224,208203,1,0
256,328,208457,2,0,B|168:328|96:272|72:200,1,239.999992847443,4|0
192,224,209220,1,0
120,128,209475,2,0,B|120:56|256:-24|392:56|392:128,1,359.999989271164,2|0
392,248,210492,2,0,B|392:320|256:400|120:320|120:248,1,359.999989271164,2|4
256,8,211763,6,0,B|256:248,1,239.999992847443,4|0
256,248,212526,1,0
200,352,212780,2,0,B|256:392|312:352,1,119.999996423721,8|0
400,272,213289,1,0
424,152,213543,6,0,B|393:106|289:106|257:154|225:202|121:202|89:162,1,359.999989271164,4|0
88,40,214560,1,0
90,163,214815,1,8
88,280,215069,2,0,B|200:360|312:280,1,239.999992847443,2|0
200,224,215832,2,0,B|312:144|424:224,1,239.999992847443,4|0
256,192,216468,12,4,217612
256,116,218120,5,0
184,180,218375,1,2
212,260,218629,1,0
300,260,218883,1,0
328,180,219138,1,2
256,192,219646,5,0
