osu file format v5

[General]
AudioFilename: Even In Death Modif.mp3
AudioLeadIn: 0
PreviewTime: -1
Countdown: 1
SampleSet: Normal
EditorBookmarks: 4813,16905,55403,57845,59510,86118

[Metadata]
Title:Even In Death
Artist:Evanescence
Creator:LeMoonwalker
Version:Hard

[Difficulty]
HPDrainRate:5
CircleSize:6
OverallDifficulty:3
SliderMultiplier:1.3
SliderTickRate:2

[Events]
//Background and Video events
0,0,"Even in Death.jpg"
1,-700,"Even in Death.avi"
//Break Periods
2,53471,57377
2,76136,87103
//Storyboard Layer 0 (Background)
//Storyboard Layer 1 (Failing)
//Storyboard Layer 2 (Passing)
//Storyboard Layer 3 (Foreground)
//Storyboard Sound Samples
//Background Colour Transformations
3,100,163,162,255

[TimingPoints]
6118,727.272727272727,4,1,0,100

[Colours]
Combo1 : 185,81,11
Combo2 : 0,0,0
Combo3 : 255,0,0
Combo4 : 125,23,23

[HitObjects]
128,128,6118,1,0
288,128,7208,1,0
384,128,7936,1,0
384,224,8663,5,0
320,224,9027,1,0
256,224,9390,1,0
192,224,9754,1,0
192,160,10118,2,0,B|64:96,1,130
32,64,11208,5,0
32,64,11390,1,4
32,128,11936,5,0
96,128,12299,1,0
160,128,13027,2,0,B|224:96,2,65
160,192,14481,5,0
256,192,15208,1,0
352,192,15936,1,0
448,192,16663,1,4
96,128,17754,5,4
160,128,18118,1,2
224,128,18481,1,2
288,128,18845,1,0
384,64,19572,5,0
384,128,19936,1,0
384,192,20299,1,2
384,256,20663,1,2
384,320,21027,1,2
160,256,21754,5,0
224,256,22117,1,0
288,256,22481,1,0
352,256,22845,1,4
256,320,23572,6,2,B|96:320,1,130
128,256,24663,5,6
192,256,25027,1,0
256,256,25390,1,6
320,256,25754,1,0
256,192,26481,5,2
192,192,26845,1,0
192,192,27208,1,2
192,32,28299,5,0
256,32,28663,1,2
256,96,29027,5,0
256,160,29390,1,0
256,224,29754,1,0
256,288,30117,1,0
256,352,30481,2,0,B|326:352,2,65
192,352,31572,5,4
128,352,31936,1,2
64,352,32299,1,2
0,352,32663,1,2
0,288,33027,1,0
0,224,33390,1,0
0,160,33754,1,0
0,96,34117,1,0
0,32,34481,1,2
96,32,35208,5,0
96,96,35572,1,0
96,160,35936,1,0
96,224,36299,1,0
192,224,37027,1,0
256,224,37390,1,4
320,224,37754,1,0
416,160,38481,5,6
384,192,38845,1,6
352,224,39208,1,6
320,256,39572,1,0
256,256,39936,1,0
224,224,40299,1,0
192,192,40663,1,6
160,160,41027,1,4
64,288,42117,5,2
128,288,42481,1,2
192,288,42845,1,2
288,288,43572,1,2
352,288,44125,1,2
352,288,44308,1,6
256,96,45754,5,0
192,96,46117,1,2
128,96,46481,1,2
64,96,46845,1,4
32,192,47936,5,0
32,192,48299,1,4
96,192,48663,1,0
160,192,49027,1,0
224,192,49390,1,4
287,79,51208,6,0,B|287:175,1,81.25
288,160,51936,6,0,B|192:160,1,65
224,160,52481,6,4,B|224:197,1,32.5
160,224,58481,5,0
256,224,59208,1,0
288,224,59390,1,0
320,224,59572,1,0
288,128,60299,5,0
352,128,60481,1,0
352,128,60663,1,0
448,128,61027,5,0
448,128,61208,1,0
448,128,61390,1,0
448,224,62052,5,0
448,224,62235,1,0
448,224,62481,1,0
352,224,63208,5,0
352,224,63572,1,0
352,128,64299,1,0
288,32,65027,5,0
288,96,65390,6,0,B|288:256,1,130
288,210,66481,1,4
288,160,66845,1,0
320,96,67208,5,0
416,96,67936,1,0
416,96,68481,1,0
352,160,69027,6,4,B|256:160,2,81.25
288,64,70845,5,0
288,128,71390,1,0
288,192,71936,1,0
288,256,72299,1,4
288,192,72845,1,4
288,128,73390,1,0
224,128,73754,5,0
160,128,74299,1,0
288,128,75208,5,2
288,128,75572,1,4
288,192,75936,1,4
160,160,87572,5,0
224,160,87936,1,0
288,160,88299,5,0
288,160,88663,1,0
352,160,89027,2,0,B|480:128,1,130
480,192,90118,5,2
416,192,90481,1,2
352,192,90845,5,0
256,192,91451,1,0
256,256,91936,1,0
256,320,92421,1,0
160,288,93027,5,2
160,224,93390,1,2
160,160,93754,5,0
160,160,93936,1,0
224,160,94299,1,0
288,160,94845,1,0
416,160,95390,5,0
416,96,95754,1,0
352,96,96299,1,0
288,96,96663,1,2
224,96,97027,1,4
128,96,97754,5,2
128,160,98117,1,0
128,224,98481,1,0
224,160,99208,5,4
224,224,99572,1,0
224,288,99936,1,0
224,352,100299,5,2
288,352,100663,1,2
352,352,101027,1,2
416,352,101390,1,0
416,288,101754,1,0
416,224,102118,1,0
416,160,102481,1,4
352,224,103208,5,2
288,224,103572,1,0
224,224,103936,1,0
160,224,104299,1,0
96,224,104663,1,0
32,224,105027,1,4
160,128,106118,5,0
256,128,106845,1,0
352,128,107572,1,2
416,128,107936,1,0
480,128,108299,1,0
480,128,108663,1,4
256,32,109390,5,0
256,96,109754,1,2
256,160,110118,1,2
256,224,110481,1,2
256,288,110845,1,6
320,288,111208,1,4
256,224,111936,5,0
352,224,112663,1,0
448,224,113390,1,0
448,160,113754,1,0
448,96,114118,1,0
352,96,114845,1,2
256,96,115572,1,2
192,96,115936,1,4
96,96,116663,6,4,B|96:192,3,65
96,224,118117,1,2
192,224,118845,1,4
192,128,119572,5,4
224,96,119936,1,2
256,64,120299,1,2
288,96,120663,1,0
320,128,121027,1,0
352,160,121390,1,2
384,192,121754,1,6
352,224,122118,5,0
416,224,122481,1,0
384,256,122845,1,0
384,160,123572,5,0
288,160,124299,1,0
224,160,124663,1,0
224,96,125027,1,0
288,96,125390,1,0
288,96,125754,1,0
288,160,126117,1,0
288,224,126481,1,0
288,320,127208,1,4
352,320,127572,1,0
352,224,128299,5,0
288,224,128663,1,0
224,224,129027,1,2
160,224,129390,1,2
96,224,129754,1,2
32,224,130118,1,0
32,160,130481,5,0
96,160,130845,1,0
192,160,131572,1,2
256,160,131936,1,2
320,160,132299,1,2
384,160,132663,1,0
448,160,133027,1,0
448,256,133754,1,0
448,256,134118,1,4
352,256,134845,5,6
288,256,135208,5,2
256,224,135572,1,2
224,256,135936,1,2
192,224,136299,1,0
192,160,136663,5,0
288,160,137256,1,0
288,160,137442,1,6
96,192,138845,5,0
64,160,139208,1,0
128,160,139572,1,0
96,128,139936,1,0
256,128,141027,5,4
352,128,141754,1,0
448,128,142481,1,6
448,128,142845,1,0
256,96,144299,5,4
224,128,144663,1,0
160,128,145027,1,0
128,96,145390,1,0
192,96,145754,1,6
