osu file format v5

[General]
AudioFilename: Even In Death Modif.mp3
AudioLeadIn: 0
PreviewTime: -1
Countdown: 1
SampleSet: Normal
EditorBookmarks: 4813,55403,57845,59510,86118

[Metadata]
Title:Even In Death
Artist:Evanescence
Creator:LeMoonwalker
Version:Easy

[Difficulty]
HPDrainRate:3
CircleSize:4
OverallDifficulty:1
SliderMultiplier:1.3
SliderTickRate:1

[Events]
//Background and Video events
0,0,"Even in Death.jpg"
//Break Periods
2,52136,56921
2,75789,87418
//Storyboard Layer 0 (Background)
//Storyboard Layer 1 (Failing)
//Storyboard Layer 2 (Passing)
//Storyboard Layer 3 (Foreground)
//Storyboard Sound Samples
//Background Colour Transformations
3,100,163,162,255

[TimingPoints]
6118,727.272727272727,4,1,0,100

[Colours]
Combo1 : 185,81,11
Combo2 : 0,0,0
Combo3 : 255,0,0
Combo4 : 125,23,23

[HitObjects]
128,192,6118,1,0
288,192,7208,1,0
384,192,7936,1,0
384,288,8663,1,0
288,288,9390,1,0
192,288,10118,2,0,B|64:256,1,130
64,96,11936,5,0
224,96,13027,2,0,B|352:64,1,130
416,128,14481,5,0
416,224,15208,1,0
416,320,15936,1,0
320,320,16663,1,4
160,320,17754,5,4
160,224,18481,1,0
160,128,19208,1,0
288,64,20299,5,0
288,160,21027,1,0
288,256,21754,1,0
288,352,22481,1,0
160,256,23572,6,0,B|32:288,6,130
64,64,29390,5,0
128,64,29754,1,0
128,160,30481,1,0
320,64,31936,5,0
320,160,32663,1,0
320,256,33390,1,0
224,256,34118,1,4
224,96,35208,5,0
384,96,36299,1,0
384,192,37027,1,0
384,288,37754,1,0
288,288,38481,1,0
192,288,39208,1,0
192,192,39936,1,0
192,96,40663,1,4
128,288,42117,5,2
224,288,42845,1,2
320,288,43572,1,2
416,288,44299,1,6
352,96,45754,5,0
256,96,46481,1,0
128,256,47936,5,0
128,160,48663,1,0
128,64,49390,1,4
384,96,51208,5,0
384,192,51936,1,0
160,224,58481,5,0
256,224,59208,2,0,B|320:192,1,65
288,96,60299,5,0
352,96,60663,1,0
352,288,62117,5,0
352,128,63208,5,4
96,128,65027,2,0,B|192:96,2,97.5
96,192,66481,1,0
192,128,67208,5,0
288,128,67936,1,0
416,224,69027,6,4,B|256:224,1,130
288,96,70845,5,0
288,160,71390,1,0
288,288,72299,1,4
160,96,73754,5,0
160,96,74299,1,0
352,96,75572,5,4
160,160,87572,5,2
224,224,90117,5,2
288,224,90481,1,2
416,64,91936,5,0
256,64,93027,5,2
192,64,93390,1,2
384,32,94845,5,2
384,224,96299,1,2
160,224,97754,1,2
160,32,99208,1,6
192,160,100299,5,2
288,160,101027,1,0
384,160,101754,1,4
384,352,103208,5,0
320,352,103572,1,0
160,352,104663,1,6
352,256,106117,5,0
352,160,106845,1,0
352,64,107572,1,4
352,320,109390,5,2
352,224,110118,1,2
352,160,110481,1,2
352,160,110845,1,4
224,96,111936,5,0
128,96,112663,1,0
224,256,114118,5,0
128,256,114845,1,2
224,192,115572,5,2
288,192,115936,1,4
384,192,116663,2,4,B|384:288,4,65
192,128,119572,6,2,B|448:192,1,260
320,288,122118,5,0
224,288,122845,1,0
224,192,123572,5,0
320,192,124299,1,0
320,96,125027,1,0
224,96,125754,1,0
0,96,127208,1,4
128,192,128299,5,0
288,192,129390,5,0
384,192,130118,1,0
384,288,130845,1,0
288,288,131572,1,2
192,288,132299,1,2
96,288,133027,1,0
0,288,133754,1,4
160,160,135208,5,2
256,160,135936,1,2
352,160,136663,5,0
352,224,137208,1,0
352,224,137390,1,2
128,224,138845,5,0
128,128,139572,1,0
320,128,141027,5,4
320,224,141754,1,0
416,224,142481,1,6
288,64,144299,5,4
288,160,145027,1,0
288,224,145390,1,0
288,288,145754,1,6
