osu file format v5

[General]
AudioFilename: Bring Me To Life.mp3
AudioLeadIn: 0
PreviewTime: 51082
Countdown: 2
SampleSet: Normal
EditorBookmarks: 31000

[Metadata]
Title:Bring Me to Life
Artist:Evanescence
Creator:GuardianHX
Version:Hard

[Difficulty]
HPDrainRate:8
CircleSize:6
OverallDifficulty:6
SliderMultiplier:1.4
SliderTickRate:2

[Events]
//Background and Video events
1,0,"AMGAMV.AVI"
//Break Periods
2,75420,90438
2,95310,96753
2,168717,173789
//Storyboard Layer 0 (Background)
//Storyboard Layer 1 (Failing)
//Storyboard Layer 2 (Passing)
//Storyboard Layer 3 (Foreground)
//Storyboard Sound Samples
//Background Colour Transformations
3,100,0,0,0

[TimingPoints]
31050,631.578947368421,4,1,0,100

[HitObjects]
128,96,31997,1,0
96,160,32313,1,0
128,224,32628,1,0
224,288,33260,2,4,B|480:160,1,280
256,192,35155,5,0
256,192,35471,1,0
256,288,35786,2,4,B|0:128,1,280
32,64,37365,5,0
96,64,37681,1,0
192,64,38313,1,0
288,64,38944,1,0
384,64,39576,1,0
480,64,40207,2,4,B|480:224,1,140
480,256,41155,1,0
128,96,42102,5,0
96,160,42418,1,0
128,224,42734,1,0
224,288,43365,2,4,B|448:192,1,210
480,160,44628,1,0
480,32,45260,1,0
352,32,45892,6,4,B|296:140|256:237|408:304|320:384,1,350
256,192,48576,12,0,49997
256,192,51260,1,4
256,32,52523,5,4
256,96,52839,1,4
256,160,53155,1,4
288,224,53628,2,0,B|192:192,4,70
288,224,55050,1,4
288,224,55365,1,4
288,224,55681,1,4
288,128,56155,6,0,B|192:160,4,70
288,128,57576,1,4
288,128,58207,1,4
288,224,58681,6,0,B|192:256,2,70
288,128,59786,2,0,B|192:96,1,70
224,224,60734,2,0,B|384:192,1,140
352,96,61997,2,0,B|192:64,1,140
224,64,62944,5,4
224,64,63260,1,4
224,224,63734,6,0,B|320:192,4,70
224,224,65155,1,4
224,224,65471,1,4
224,224,65786,1,4
224,128,66260,6,0,B|320:160,4,70
224,128,67681,1,4
224,128,68313,1,4
224,224,68786,6,0,B|320:256,2,70
224,128,69892,2,0,B|320:96,1,70
288,224,70839,2,0,B|128:192,1,140
160,96,72102,2,0,B|320:64,1,140
320,64,72892,5,0
320,128,73207,1,0
320,128,73365,1,0
320,192,73681,1,0
320,192,73839,1,0
256,192,74155,1,0
256,192,74313,1,0
192,192,74628,1,0
192,192,74786,1,0
192,192,74944,2,4,B|96:192,1,70
256,64,91681,6,0,B|-29:65|-52:386|528:385|510:80|288:64,1,770
256,32,97997,5,4
256,96,98313,1,4
256,160,98628,1,4
224,224,99102,2,0,B|320:192,4,70
224,224,100523,1,4
224,224,100839,1,4
224,224,101155,1,4
224,128,101628,6,0,B|320:160,4,70
224,128,103050,1,4
224,128,103681,1,4
224,224,104155,6,0,B|320:256,2,70
224,128,105260,2,0,B|320:96,1,70
288,224,106207,2,0,B|128:192,1,140
160,96,107471,2,0,B|320:64,1,140
288,64,108418,5,4
288,64,108734,1,4
224,224,109207,6,0,B|320:192,4,70
224,224,110628,1,4
224,224,110944,1,4
224,224,111260,1,4
224,128,111734,6,0,B|320:160,4,70
224,128,113155,1,4
224,128,113786,1,4
224,224,114260,6,0,B|320:256,2,70
224,128,115365,2,0,B|320:96,1,70
288,224,116313,2,0,B|128:192,1,140
160,96,117576,1,0
256,96,118207,2,0,B|436:94|416:288,1,280
128,288,120734,2,0,B|416:288,2,280
256,96,124207,5,0
256,96,124365,1,0
256,96,124523,1,0
256,96,124681,1,0
256,96,124839,1,0
256,96,124997,2,0,B|256:224,1,105
256,320,126576,5,0
256,320,126892,1,0
256,320,127207,1,0
256,320,127523,1,0
256,320,127839,2,0,B|256:192,1,105
128,160,129576,6,0,B|245:233|416:160,3,280
416,160,133523,5,0
448,128,133839,1,0
448,128,133997,1,0
448,64,134313,1,0
448,64,134471,1,0
416,32,134786,1,0
416,32,134944,1,0
352,32,135260,1,0
352,32,135418,1,0
352,32,135576,1,0
352,32,135734,1,0
352,32,135892,2,0,B|355:127|256:160,2,140
224,32,137786,5,0
224,128,138418,2,0,B|224:352,1,210
256,224,139997,1,0
256,224,140313,1,0
288,128,140628,2,0,B|288:352,1,210
256,288,141892,1,0
256,160,142523,1,0
256,32,143155,1,0
160,160,144102,5,0
160,160,144418,1,0
256,160,145050,1,0
352,160,145681,1,0
352,224,145997,2,0,B|256:224,1,70
160,224,146944,5,0
160,96,147576,1,0
256,96,148207,2,0,B|448:352,1,315
448,224,150260,2,0,B|352:96,1,140
320,64,151207,1,0
192,32,151997,5,0
192,128,152628,1,0
192,224,153260,1,0
352,32,154207,1,0
352,32,154523,1,0
352,192,155471,1,0
256,192,155786,12,0,158155
256,352,158628,5,0
256,352,158944,1,0
256,352,159102,1,0
256,352,159418,1,0
224,288,159734,5,0
224,288,159892,1,0
224,288,160050,1,0
224,288,160207,1,0
224,288,160365,1,0
224,288,160523,1,0
224,288,160681,1,0
224,288,160839,1,0
288,224,161313,5,0
288,224,161471,1,0
288,224,161628,1,0
288,224,161786,1,0
224,160,162260,5,0
224,160,162418,1,0
224,160,162576,1,0
224,160,162734,1,0
224,160,162892,1,0
224,160,163050,1,0
224,160,163207,1,0
224,160,163365,1,0
256,96,163839,5,0
192,96,164155,2,0,B|128:96,1,35
96,96,164628,2,0,B|32:96,1,35
64,128,164944,1,0
64,192,165260,2,0,B|64:256,1,35
64,288,165734,1,0
64,320,165892,1,0
256,288,166365,5,0
320,288,166681,2,0,B|384:288,1,35
416,288,167155,2,0,B|480:288,1,35
448,256,167471,1,0
448,192,167786,2,0,B|448:128,1,35
448,96,168260,1,0
448,32,168576,1,0
256,96,175050,6,6,B|682:102|564:418|-16:417|-4:122|96:128,1,840
128,128,179155,1,4
192,128,179471,1,4
224,224,179944,6,0,B|320:192,4,70
224,224,181365,1,4
224,224,181681,1,4
224,224,181997,1,4
224,128,182471,6,0,B|320:160,4,70
224,128,183892,1,4
224,128,184523,1,4
224,224,184997,6,0,B|320:256,2,70
224,128,186102,2,0,B|320:96,1,70
288,224,187050,2,0,B|128:192,1,140
160,96,188313,2,0,B|320:64,1,140
288,64,189260,5,4
288,64,189576,1,4
288,224,190050,6,0,B|192:192,4,70
288,224,191471,1,4
288,224,191786,1,4
288,224,192102,1,4
288,128,192576,6,0,B|192:160,4,70
288,128,193997,1,4
288,128,194628,1,4
288,224,195102,6,0,B|192:256,2,70
288,128,196207,2,0,B|192:96,1,70
224,224,197155,2,0,B|384:192,1,140
352,96,198418,2,0,B|192:64,1,140
128,288,200313,2,0,B|416:288,2,280
256,96,205050,5,4
256,96,205207,1,4
256,96,205365,1,4
256,96,205523,1,4
256,96,205681,1,4
256,96,205839,2,4,B|256:224,1,105
256,320,207418,5,4
256,320,207734,1,4
256,320,208050,1,4
256,320,208365,1,4
256,320,208681,2,4,B|256:192,1,105
384,160,210418,6,0,B|267:233|96:160,2,280
256,192,214207,12,0,223365
