osu file format v14

[General]
AudioFilename: Evan Beigel, Scott Emerson - A Running Chip.mp3
AudioLeadIn: 0
PreviewTime: 27139
Countdown: 0
SampleSet: Soft
StackLeniency: 0.7
Mode: 0
LetterboxInBreaks: 0
WidescreenStoryboard: 0

[Editor]
DistanceSpacing: 1.2
BeatDivisor: 4
GridSize: 4
TimelineZoom: 1

[Metadata]
Title:A Running Chip
TitleUnicode:A Running Chip
Artist:Evan Beigel [BMI], Scott Emerson [BMI]
ArtistUnicode:Evan Beigel [BMI], Scott Emerson [BMI]
Creator:Nozhomi
Version:Insane
Source:
Tags:lol league of legends all stars paris 2014 synthesizer retro okoratu
BeatmapID:620103
BeatmapSetID:246679

[Difficulty]
HPDrainRate:7
CircleSize:4
OverallDifficulty:7
ApproachRate:8.8
SliderMultiplier:1.8
SliderTickRate:1

[Events]
//Background and Video events
0,0,"bg.jpg",0,0
//Break Periods
//Storyboard Layer 0 (Background)
//Storyboard Layer 1 (Fail)
//Storyboard Layer 2 (Pass)
//Storyboard Layer 3 (Foreground)
//Storyboard Sound Samples

[TimingPoints]
190,363.636363636364,4,2,1,40,1,0
1644,-100,4,2,1,60,0,0
12735,-100,4,2,1,55,0,0
24735,-100,4,2,1,60,0,0
24917,370.37037037037,4,2,1,70,1,0
27826,363.636363636364,4,2,1,80,1,0
51099,-125,4,2,1,70,0,0
53280,-200,4,2,1,70,0,0
54008,-125,4,2,1,70,0,0
56189,-200,4,2,1,70,0,0
56553,-125,4,2,1,70,0,0
61644,-100,4,2,1,80,0,0
62735,-100,4,2,1,80,0,0
86007,-80,4,2,1,80,0,1
97462,-80,4,2,1,80,0,0
97644,-80,4,2,1,80,0,1
109280,-100,4,2,1,60,0,0
110826,-100,4,2,0,40,0,0
111583,-100,4,2,0,30,0,0
112310,-100,4,2,0,20,0,0
113038,-100,4,2,0,10,0,0
113522,-100,4,2,0,5,0,0

[Colours]
Combo1 : 234,206,231
Combo2 : 15,153,125
Combo3 : 28,65,176
Combo4 : 170,85,160
Combo5 : 104,217,194
Combo6 : 68,109,238
Combo7 : 227,107,213
Combo8 : 156,190,215

[HitObjects]
132,104,190,5,0,0:0:0:0:
396,156,553,1,0,0:0:0:0:
124,220,917,1,0,0:0:0:0:
404,264,1280,1,0,0:0:0:0:
112,332,1644,6,0,B|168:352|168:352|292:316,1,180,2|8,0:0|0:0,0:0:0:0:
488,248,2371,2,0,P|476:290|486:334,1,90
404,264,2735,2,0,P|415:221|405:177,1,90,8|0,0:0|0:0,0:0:0:0:
332,100,3099,1,2,0:0:0:0:
256,176,3280,1,0,0:0:0:0:
156,220,3462,2,0,P|144:177|154:133,1,90,8|0,0:0|0:0,0:0:0:0:
404,344,4190,1,8,0:0:0:0:
188,324,4553,5,2,0:0:0:0:
156,220,4735,1,0,0:0:0:0:
124,116,4917,2,0,B|168:136|168:136|298:117,1,180,8|0,0:0|0:0,0:0:0:0:
404,96,5462,1,0,0:0:0:0:
508,68,5644,2,0,P|511:112|495:154,1,90,8|0,0:0|0:0,0:0:0:0:
412,224,6008,1,2,0:0:0:0:
328,292,6190,2,0,P|311:333|315:378,2,90,0|8|0,0:0|0:0|0:0,0:0:0:0:
20,192,7099,1,8,0:0:0:0:
204,300,7462,85,2,0:0:0:0:
204,84,7826,1,8,0:0:0:0:
416,52,8189,2,0,P|392:88|344:112,1,90
252,148,8553,2,0,P|237:189|251:231,1,90,8|0,0:0|0:0,0:0:0:0:
304,324,8917,1,2,0:0:0:0:
358,231,9098,1,0,0:0:0:0:
402,132,9280,2,0,P|439:156|460:195,1,90,8|0,0:0|0:0,0:0:0:0:
416,324,9644,1,0,0:0:0:0:
359,231,9826,1,0,0:0:0:0:
308,136,10008,1,8,0:0:0:0:
252,44,10190,1,0,0:0:0:0:
196,136,10371,6,0,P|155:152|113:137,1,90,2|0,0:0|0:0,0:0:0:0:
151,36,10735,1,8,0:0:0:0:
196,136,10917,1,0,0:0:0:0:
88,324,11280,1,0,0:0:0:0:
45,224,11462,2,0,P|89:216|147:232,1,90,8|0,0:0|0:0,0:0:0:0:
232,268,11826,2,0,P|220:225|233:182,1,90,2|0,0:0|0:0,0:0:0:0:
292,92,12190,2,0,L|292:-8,2,90,8|0|0,0:0|0:0|0:0,0:0:0:0:
360,176,12735,1,8,0:0:0:0:
292,260,12917,1,8,0:0:0:0:
224,176,13099,1,8,0:0:0:0:
360,176,13280,6,0,P|400:258|368:338,1,180,2|8,0:0|0:0,0:0:0:0:
164,264,14008,1,0,0:0:0:0:
260,216,14190,1,0,0:0:0:0:
360,176,14371,2,0,B|404:160|404:160|444:176,1,90,8|0,0:0|0:0,0:0:0:0:
388,84,14735,2,0,B|344:100|344:100|220:50,1,180,2|8,0:0|0:0,0:0:0:0:
4,36,15462,2,0,P|40:115|4:195,1,180,0|8,0:0|0:0,0:0:0:0:
172,332,16190,85,2,0:0:0:0:
256,132,16553,1,8,0:0:0:0:
340,332,16917,2,0,P|298:345|256:332,1,90
176,260,17280,2,0,P|134:246|92:260,1,90,8|0,0:0|0:0,0:0:0:0:
172,332,17644,1,2,0:0:0:0:
256,264,17826,1,0,0:0:0:0:
340,196,18008,2,0,P|361:241|361:288,1,90,8|0,0:0|0:0,0:0:0:0:
256,264,18371,2,0,P|234:177|283:103,1,180,0|8,0:0|0:0,0:0:0:0:
372,44,18917,1,8,0:0:0:0:
340,196,19099,5,2,0:0:0:0:
172,332,19462,2,0,B|108:312|108:312|56:292|43:219,1,180,8|0,0:0|0:0,0:0:0:0:
44,116,20008,1,0,0:0:0:0:
76,12,20190,2,0,P|116:35|142:71,1,90,8|0,0:0|0:0,0:0:0:0:
176,172,20553,1,2,0:0:0:0:
372,44,20917,1,8,0:0:0:0:
436,252,21280,2,0,P|446:298|435:340,2,90,0|0|8,0:0|0:0|0:0,0:0:0:0:
360,172,21826,1,0,0:0:0:0:
288,88,22008,6,0,P|278:42|289:0,1,90,2|0,0:0|0:0,0:0:0:0:
196,100,22371,1,8,0:0:0:0:
196,100,22553,2,0,P|206:146|195:188,1,90
100,328,22917,1,0,0:0:0:0:
100,328,23099,2,0,B|140:320|140:320|200:328,1,90,8|0,0:0|0:0,0:0:0:0:
296,344,23462,1,2,0:0:0:0:
265,230,23644,1,0,0:0:0:0:
236,116,23826,2,0,B|216:64|216:64|272:88|344:72,1,180,8|0,0:0|0:0,0:0:0:0:
488,44,24371,1,0,0:0:0:0:
488,44,24462,1,0,0:0:0:0:
488,44,24553,85,8,0:0:0:0:
384,192,24735,1,0,0:0:0:0:
256,192,24917,12,0,26398,0:0:0:0:
384,288,27139,5,0,0:0:0:0:
256,50,27509,1,0,0:0:0:0:
128,288,27826,6,0,B|184:320|184:320|312:288,1,180,4|8,0:0|0:0,0:0:0:0:
166,115,28553,1,0,0:0:0:0:
309,217,28735,1,0,0:0:0:0:
256,50,28917,1,8,0:0:0:0:
201,217,29099,1,0,0:0:0:0:
343,115,29280,2,0,P|408:180|381:297,1,180,2|8,0:0|0:0,0:0:0:0:
167,319,30008,2,0,P|102:254|129:137,1,180,0|8,0:0|0:0,0:0:0:0:
272,36,30735,86,0,B|312:12|312:12|312:84|360:136,1,180,2|8,0:0|0:0,0:0:0:0:
488,308,31462,2,0,B|456:320|456:320|401:309,1,90
296,280,31826,1,8,0:0:0:0:
191,310,32008,1,0,0:0:0:0:
88,345,32190,2,0,P|82:300|95:258,1,90,2|0,0:0|0:0,0:0:0:0:
132,156,32553,2,0,P|137:111|124:69,1,90,8|0,0:0|0:0,0:0:0:0:
232,152,32917,2,0,B|284:168|328:208|328:208|352:176|382:168,1,180,0|8,0:0|0:0,0:0:0:0:
452,372,33644,5,2,0:0:0:0:
256,280,34008,1,8,0:0:0:0:
60,372,34371,2,0,P|100:355|123:317,1,90
104,208,34735,2,0,P|147:218|188:202,1,90,8|0,0:0|0:0,0:0:0:0:
236,72,35099,2,0,P|312:139|306:229,1,180,2|8,0:0|0:0,0:0:0:0:
156,372,35826,1,0,0:0:0:0:
264,380,36008,1,0,0:0:0:0:
224,280,36190,1,8,0:0:0:0:
329,299,36371,1,0,0:0:0:0:
286,200,36553,5,2,0:0:0:0:
394,203,36735,2,0,L|457:278,2,90,0|8|0,0:0|0:0|0:0,0:0:0:0:
336,112,37280,1,0,0:0:0:0:
243,55,37462,2,0,P|200:47|156:57,2,90,0|8|0,0:0|0:0|0:0,0:0:0:0:
202,156,38008,1,2,0:0:0:0:
172,260,38190,1,0,0:0:0:0:
144,364,38371,2,0,B|212:356|212:356|300:288,1,180,8|0,0:0|0:0,0:0:0:0:
384,220,38917,1,8,0:0:0:0:
400,328,39099,1,8,0:0:0:0:
300,288,39280,1,8,0:0:0:0:
148,192,39462,86,0,P|227:228|304:189,1,180,4|8,0:0|0:0,0:0:0:0:
424,8,40190,2,0,L|344:100,1,90
443,152,40553,2,0,L|384:220,1,90,8|0,0:0|0:0,0:0:0:0:
300,288,40917,1,2,0:0:0:0:
256,76,41280,1,8,0:0:0:0:
212,288,41644,1,0,0:0:0:0:
44,152,42008,1,8,0:0:0:0:
256,192,42371,6,0,B|304:212|304:212|432:168,1,180,2|8,0:0|0:0,0:0:0:0:
256,308,43099,1,0,0:0:0:0:
155,344,43280,1,0,0:0:0:0:
160,237,43462,2,0,P|171:193|161:147,1,90,8|0,0:0|0:0,0:0:0:0:
31,54,43826,2,0,P|63:87|107:99,1,90,2|0,0:0|0:0,0:0:0:0:
256,34,44189,2,0,P|210:45|177:77,1,90,8|0,0:0|0:0,0:0:0:0:
161,238,44553,1,0,0:0:0:0:
376,188,44917,1,8,0:0:0:0:
448,268,45099,1,8,0:0:0:0:
307,305,45280,6,0,B|251:320|251:320|216:276|158:236,1,180,2|8,0:0|0:0,0:0:0:0:
4,88,46008,2,0,P|44:104|86:89,1,90,0|0,0:0|0:0,0:0:0:0:
172,20,46371,2,0,P|213:5|254:21,1,90,8|0,0:0|0:0,0:0:0:0:
320,108,46735,2,0,B|344:144|344:144|268:136|196:172,1,180,2|8,0:0|0:0,0:0:0:0:
24,276,47462,1,0,0:0:0:0:
108,344,47644,1,0,0:0:0:0:
125,236,47826,1,8,0:0:0:0:
144,130,48008,1,0,0:0:0:0:
164,24,48190,86,0,P|212:48|248:103,1,90,2|0,0:0|0:0,0:0:0:0:
268,180,48553,2,0,P|309:177|352:149,1,90,8|0,0:0|0:0,0:0:0:0:
416,64,48917,1,0,0:0:0:0:
308,52,49099,1,0,0:0:0:0:
350,152,49280,2,0,B|368:184|368:184|420:224,1,90,8|0,0:0|0:0,0:0:0:0:
492,288,49644,2,0,P|442:321|394:323,1,90,2|0,0:0|0:0,0:0:0:0:
305,313,50007,2,0,B|257:305|257:305|297:245|268:180,1,180,8|0,0:0|0:0,0:0:0:0:
224,84,50553,1,8,0:0:0:0:
160,172,50735,1,8,0:0:0:0:
268,180,50917,1,8,0:0:0:0:
372,188,51099,86,0,B|388:156|388:156|440:124,2,72,4|0|0,3:0|0:0|0:0,0:0:0:0:
348,257,51644,1,0,0:0:0:0:
320,324,51826,2,0,B|304:356|304:356|252:388,2,72,2|0|0,0:0|0:0|0:0,0:0:0:0:
250,308,52371,1,0,0:0:0:0:
180,290,52553,1,4,3:0:0:0:
44,252,52917,2,0,P|80:224|92:188,1,72
104,116,53280,6,0,P|146:103|189:114,1,90,2|0,0:0|0:0,0:0:0:0:
312,252,54008,102,0,L|360:320,1,72,4|0,3:0|0:0,0:0:0:0:
388,240,54371,2,0,L|346:181,1,72
428,176,54735,2,0,L|469:234,1,72,2|0,0:0|0:0,0:0:0:0:
504,164,55098,2,0,L|462:105,1,72
412,40,55462,2,0,B|384:52|384:52|272:32,1,144,4|0,3:0|0:0,0:0:0:0:
188,12,56008,1,0,0:0:0:0:
196,96,56189,6,0,L|300:114,1,90,2|4,0:0|3:0,0:0:0:0:
372,128,56735,1,0,0:0:0:0:
316,192,56917,1,4,3:0:0:0:
256,192,57008,12,0,61280,0:0:0:0:
256,176,61644,6,0,L|276:216,3,45,2|0|0|0,0:0|0:0|0:0|0:0,0:0:0:0:
324,292,62007,2,0,L|344:252,3,45
360,220,62371,1,8,0:0:0:0:
376,188,62462,1,0,0:0:0:0:
392,156,62553,1,8,0:0:0:0:
408,124,62644,1,0,0:0:0:0:
424,92,62735,6,0,P|340:119|256:92,1,180,4|8,0:0|0:0,0:0:0:0:
56,12,63462,2,0,P|44:54|54:98,1,90,2|0,0:0|0:0,0:0:0:0:
92,200,63826,2,0,P|103:242|93:286,1,90,8|0,0:0|0:0,0:0:0:0:
180,220,64190,2,0,B|160:160|160:160|180:40,1,180,2|8,0:0|0:0,0:0:0:0:
356,164,64916,2,0,B|376:224|376:224|356:344,1,180,2|8,0:0|0:0,0:0:0:0:
266,282,65462,1,0,0:0:0:0:
180,220,65644,5,2,0:0:0:0:
332,64,66007,1,8,0:0:0:0:
503,192,66371,2,0,P|461:203|417:193,1,90,2|0,0:0|0:0,0:0:0:0:
324,140,66735,1,8,0:0:0:0:
228,92,66917,1,0,0:0:0:0:
132,44,67098,2,0,L|140:136,1,90,2|0,0:0|0:0,0:0:0:0:
152,240,67462,1,8,0:0:0:0:
412,188,67826,1,2,0:0:0:0:
176,320,68189,1,8,0:0:0:0:
440,256,68553,86,0,B|388:280|388:280|256:256,1,180,2|8,0:0|0:0,0:0:0:0:
84,144,69280,2,0,P|126:131|168:145,1,90,2|0,0:0|0:0,0:0:0:0:
264,196,69644,2,0,P|306:209|348:197,1,90,8|0,0:0|0:0,0:0:0:0:
424,116,70008,2,0,P|461:198|421:281,1,180,2|8,0:0|0:0,0:0:0:0:
256,144,70735,1,2,0:0:0:0:
203,49,70917,1,0,0:0:0:0:
310,50,71098,1,8,0:0:0:0:
256,324,71462,6,0,L|256:132,1,180,2|8,0:0|0:0,0:0:0:0:
396,308,72190,1,2,0:0:0:0:
334,220,72371,1,0,0:0:0:0:
256,144,72553,1,8,0:0:0:0:
178,220,72735,1,0,0:0:0:0:
116,308,72916,2,0,P|156:326|201:326,1,90,2|0,0:0|0:0,0:0:0:0:
304,292,73280,2,0,B|344:276|344:276|399:320|476:332,1,180,8|2,0:0|0:0,0:0:0:0:
456,116,74008,1,4,0:0:0:0:
256,192,74371,5,2,0:0:0:0:
56,116,74735,1,8,0:0:0:0:
248,16,75098,2,0,P|292:24|336:15,1,90,2|0,0:0|0:0,0:0:0:0:
264,96,75462,2,0,P|219:87|175:96,1,90,8|0,0:0|0:0,0:0:0:0:
248,178,75826,1,2,0:0:0:0:
460,132,76190,2,0,B|505:121|505:121|472:192|499:250,1,180,8|2,0:0|0:0,0:0:0:0:
256,336,76917,1,8,0:0:0:0:
13,250,77280,85,2,0:0:0:0:
128,20,77644,1,8,0:0:0:0:
368,112,78008,1,2,0:0:0:0:
448,184,78189,1,0,0:0:0:0:
345,220,78371,1,8,0:0:0:0:
262,151,78553,1,0,0:0:0:0:
282,44,78735,1,2,0:0:0:0:
383,8,78916,1,0,0:0:0:0:
466,77,79098,2,0,P|364:115|340:194,1,180,8|2,0:0|0:0,0:0:0:0:
456,360,79826,1,8,0:0:0:0:
260,268,80190,6,0,B|200:248|200:248|76:268,1,180,2|8,0:0|0:0,0:0:0:0:
288,196,80916,2,0,L|384:182,1,90,2|0,0:0|0:0,0:0:0:0:
444,100,81280,2,0,L|354:112,1,90,8|0,0:0|0:0,0:0:0:0:
248,132,81644,1,2,0:0:0:0:
52,43,82008,2,0,P|23:127|50:212,1,180,8|2,0:0|0:0,0:0:0:0:
124,292,82553,1,0,0:0:0:0:
197,212,82735,1,8,0:0:0:0:
324,16,83099,6,0,B|296:72|296:72|348:212,1,180,2|8,0:0|0:0,0:0:0:0:
472,348,83826,2,0,L|440:258,1,90,2|0,0:0|0:0,0:0:0:0:
408,160,84190,1,8,0:0:0:0:
352,252,84371,1,0,0:0:0:0:
296,344,84553,1,2,0:0:0:0:
240,252,84735,1,0,0:0:0:0:
172,168,84917,2,0,P|215:176|259:164,1,90,8|0,0:0|0:0,0:0:0:0:
348,104,85280,1,2,0:0:0:0:
136,60,85644,1,8,0:0:0:0:
296,280,86008,5,4,0:0:0:0:
286,318,86099,1,0,0:0:0:0:
262,349,86190,1,0,0:0:0:0:
227,366,86280,1,0,0:0:0:0:
188,373,86371,2,0,P|163:367|133:349,3,56.25,8|0|0|0,0:0|0:0|0:0|0:0,0:0:0:0:
103,330,86735,2,0,P|107:299|102:260,3,56.25,2|0|0|0,0:0|0:0|0:0|0:0,0:0:0:0:
89,237,87099,1,8,0:0:0:0:
80,198,87190,1,0,0:0:0:0:
90,160,87280,1,0,0:0:0:0:
201,33,87462,5,2,0:0:0:0:
231,57,87553,1,0,0:0:0:0:
269,65,87644,1,0,0:0:0:0:
307,57,87735,1,0,0:0:0:0:
343,42,87826,2,0,P|370:32|415:42,3,56.25,8|0|0|0,0:0|0:0|0:0|0:0,0:0:0:0:
434,46,88190,2,0,P|441:74|477:122,3,56.25,2|0|0|0,0:0|0:0|0:0|0:0,0:0:0:0:
474,131,88553,1,8,0:0:0:0:
485,168,88644,1,0,0:0:0:0:
481,207,88735,1,0,0:0:0:0:
466,243,88826,1,0,0:0:0:0:
446,277,88917,6,0,L|396:304,3,56.25,2|0|0|0,0:0|0:0|0:0|0:0,0:0:0:0:
358,314,89280,2,0,L|308:259,3,56.25,8|0|0|0,0:0|0:0|0:0|0:0,0:0:0:0:
292,244,89644,2,0,P|304:188|288:124,1,112.5,2|0,0:0|0:0,0:0:0:0:
228,16,90008,1,8,0:0:0:0:
132,220,90190,1,0,0:0:0:0:
236,312,90371,86,0,P|287:332|341:319,1,112.5,2|0,0:0|0:0,0:0:0:0:
404,200,90735,2,0,P|352:179|298:192,1,112.5,8|0,0:0|0:0,0:0:0:0:
184,266,91099,1,2,0:0:0:0:
56,28,91462,1,8,0:0:0:0:
256,212,91826,6,0,P|284:217|312:212,3,56.25,4|0|0|0,0:0|0:0|0:0|0:0,0:0:0:0:
350,203,92190,1,8,0:0:0:0:
386,189,92280,1,0,0:0:0:0:
416,163,92371,1,0,0:0:0:0:
432,127,92462,1,0,0:0:0:0:
442,89,92553,2,0,L|461:35,1,56.25,2|0,0:0|0:0,0:0:0:0:
380,44,92735,2,0,L|361:98,1,56.25,2|0,0:0|0:0,0:0:0:0:
282,106,92916,2,0,L|301:52,1,56.25,8|0,0:0|0:0,0:0:0:0:
221,65,93098,2,0,L|202:119,1,56.25,2|0,0:0|0:0,0:0:0:0:
172,192,93280,6,0,L|153:246,3,56.25,2|0|0|0,0:0|0:0|0:0|0:0,0:0:0:0:
142,283,93644,1,8,0:0:0:0:
113,309,93735,1,0,0:0:0:0:
73,312,93826,1,0,0:0:0:0:
38,293,93917,1,0,0:0:0:0:
22,256,94008,2,0,P|17:228|23:200,1,56.25,2|0,0:0|0:0,0:0:0:0:
64,132,94189,2,0,P|68:104|62:76,1,56.25,2|0,0:0|0:0,0:0:0:0:
100,196,94371,2,0,P|127:200|155:194,1,56.25,8|0,0:0|0:0,0:0:0:0:
228,164,94553,2,0,P|255:159|283:165,1,56.25,2|0,0:0|0:0,0:0:0:0:
356,196,94735,85,2,0:0:0:0:
392,212,94826,1,0,0:0:0:0:
428,228,94917,2,0,B|453:285|453:285|428:328,1,112.5,0|8,0:0|0:0,0:0:0:0:
283,275,95280,1,0,0:0:0:0:
283,275,95371,1,0,0:0:0:0:
283,275,95462,1,2,0:0:0:0:
156,188,95644,1,0,0:0:0:0:
120,172,95735,1,0,0:0:0:0:
84,156,95826,2,0,B|59:99|59:99|84:56,1,112.5,8|0,0:0|0:0,0:0:0:0:
256,20,96190,6,0,L|256:136,1,112.5,2|0,0:0|0:0,0:0:0:0:
168,276,96553,2,0,P|255:336|343:277,1,225,8|2,0:0|0:0,0:0:0:0:
256,239,97280,1,8,0:0:0:0:
256,239,97644,5,4,0:0:0:0:
249,200,97735,1,0,0:0:0:0:
250,160,97826,1,0,0:0:0:0:
264,123,97916,1,0,0:0:0:0:
293,96,98008,1,8,0:0:0:0:
332,93,98099,1,0,0:0:0:0:
370,102,98190,1,0,0:0:0:0:
395,131,98280,1,0,0:0:0:0:
406,168,98371,1,2,0:0:0:0:
394,205,98462,1,0,0:0:0:0:
370,236,98553,1,0,0:0:0:0:
354,272,98644,1,0,0:0:0:0:
359,310,98735,1,8,0:0:0:0:
382,341,98826,1,0,0:0:0:0:
418,354,98916,1,0,0:0:0:0:
251,332,99098,85,2,0:0:0:0:
217,311,99189,1,0,0:0:0:0:
178,317,99280,1,0,0:0:0:0:
144,337,99371,1,0,0:0:0:0:
106,348,99462,1,8,0:0:0:0:
67,339,99553,1,0,0:0:0:0:
42,308,99644,1,0,0:0:0:0:
38,268,99735,1,0,0:0:0:0:
45,229,99826,2,0,P|60:201|64:171,3,56.25,2|0|0|0,0:0|0:0|0:0|0:0,0:0:0:0:
63,137,100189,1,8,0:0:0:0:
55,98,100280,1,0,0:0:0:0:
48,59,100371,1,0,0:0:0:0:
87,62,100462,1,0,0:0:0:0:
126,63,100553,6,0,P|154:66|194:58,3,56.25,2|0|0|0,0:0|0:0|0:0|0:0,0:0:0:0:
219,50,100917,2,0,P|246:45|291:50,3,56.25,8|0|0|0,0:0|0:0|0:0|0:0,0:0:0:0:
312,56,101280,2,0,B|320:104|320:104|388:172,1,112.5,2|0,0:0|0:0,0:0:0:0:
392,316,101644,2,0,B|384:268|384:268|316:200,1,112.5,8|0,0:0|0:0,0:0:0:0:
204,120,102008,5,2,0:0:0:0:
52,192,102190,1,0,0:0:0:0:
204,356,102371,2,0,P|219:302|204:249,1,112.5,8|0,0:0|0:0,0:0:0:0:
96,120,102735,2,0,B|152:152|152:152|321:120,1,225,2|8,0:0|0:0,0:0:0:0:
512,76,103462,85,4,0:0:0:0:
479,98,103553,1,0,0:0:0:0:
450,125,103644,1,0,0:0:0:0:
440,163,103735,1,0,0:0:0:0:
445,201,103826,1,8,0:0:0:0:
451,239,103916,1,0,0:0:0:0:
439,276,104007,1,0,0:0:0:0:
408,300,104098,1,0,0:0:0:0:
370,313,104189,2,0,L|313:308,1,56.25,2|0,0:0|0:0,0:0:0:0:
352,239,104371,2,0,L|295:234,1,56.25,2|0,0:0|0:0,0:0:0:0:
336,166,104553,2,0,L|270:161,1,56.25,8|0,0:0|0:0,0:0:0:0:
320,93,104735,2,0,L|263:88,1,56.25,2|0,0:0|0:0,0:0:0:0:
224,84,104916,5,2,0:0:0:0:
186,73,105007,1,0,0:0:0:0:
156,47,105098,1,0,0:0:0:0:
119,33,105189,1,0,0:0:0:0:
81,43,105280,1,8,0:0:0:0:
58,75,105371,1,0,0:0:0:0:
60,114,105462,1,0,0:0:0:0:
81,147,105553,1,0,0:0:0:0:
102,180,105644,2,0,P|122:211|133:247,1,56.25,2|0,0:0|0:0,0:0:0:0:
181,171,105826,2,0,P|192:196|208:220,1,56.25,2|0,0:0|0:0,0:0:0:0:
259,160,106007,2,0,P|279:191|290:227,1,56.25,8|0,0:0|0:0,0:0:0:0:
338,149,106189,2,0,P|348:174|364:197,1,56.25,2|0,0:0|0:0,0:0:0:0:
397,220,106371,5,2,0:0:0:0:
428,244,106462,1,0,0:0:0:0:
460,268,106553,1,0,0:0:0:0:
296,289,106735,2,0,L|208:220,1,112.5,8|0,0:0|0:0,0:0:0:0:
208,220,107007,1,0,0:0:0:0:
208,220,107098,1,2,0:0:0:0:
88,100,107280,1,0,0:0:0:0:
88,100,107371,1,0,0:0:0:0:
88,100,107462,2,0,P|141:116|194:100,1,112.5,8|0,0:0|0:0,0:0:0:0:
356,52,107826,86,0,P|302:36|249:52,1,112.5,2|0,0:0|0:0,0:0:0:0:
208,220,108189,2,0,B|228:283|228:283|256:200|307:140,1,225,8|2,0:0|0:0,0:0:0:0:
492,336,108916,1,8,0:0:0:0:
256,320,109280,6,2,B|196:296|196:296|76:320,1,180
256,64,110007,2,2,B|316:88|316:88|429:65,1,180
256,192,110735,1,2,0:0:0:0:
256,192,110826,12,0,113644,0:0:0:0:
