osu file format v5

[General]
AudioFilename: Eurythmics - Sweet Dreams (Are Made Of This).MP3
AudioLeadIn: 0
PreviewTime: -1
Countdown: 1
SampleSet: Normal
StackLeniency: 0.7
Mode: 0
LetterboxInBreaks: 1

[Editor]
DistanceSpacing: 0.800000011920929
BeatDivisor: 6
GridSize: 64

[Metadata]
Title:Sweet Dreams (Are Made of This)
Artist:Eurythmics
Creator:CharmyBee123
Version:Normal
Source:
Tags:eurythmics sweet dreams are made of this

[Difficulty]
HPDrainRate:5
CircleSize:5
OverallDifficulty:5
SliderMultiplier:1.4
SliderTickRate:1

[Events]
//Background and Video events
Video,0,"Eurythmics - Sweet Dreams (Are Made Of This).flv"
//Break Periods
2,39441,50009
2,66248,76816
2,124091,134180
//Storyboard Layer 0 (Background)
//Storyboard Layer 1 (Fail)
//Storyboard Layer 2 (Pass)
//Storyboard Layer 3 (Foreground)
//Storyboard Sound Samples
//Background Colour Transformations
3,100,163,162,255

[TimingPoints]
-11.4514105201415,478.697941598851,4,1,0,100,1,0

[HitObjects]
128,128,1504,1,0
128,192,1983,1,0
256,192,2461,1,0
320,192,2940,1,0
384,128,3419,1,0
320,128,3897,1,0
256,128,4376,1,0
192,128,4855,1,0
128,128,5334,1,0
128,256,5812,5,0
256,256,6291,1,0
320,192,6770,1,0
384,192,7248,1,0
384,128,7727,1,0
256,128,8206,1,0
192,128,8684,1,0
128,128,9163,1,0
128,192,9642,5,0
128,192,10120,1,0
128,192,10599,1,0
128,192,11078,1,0
128,192,11557,1,0
128,192,12035,1,0
128,192,12514,1,0
128,192,12993,1,0
192,192,13471,1,0
256,192,13950,1,0
320,192,14429,1,0
384,192,14907,1,0
384,128,15386,1,0
320,128,15865,1,0
192,128,16822,6,0,B|0:128|0:192,1,210
128,256,18258,1,0
192,256,18737,1,0
256,256,19216,1,0
320,256,19694,1,0
384,256,20173,1,0
453,261,20652,6,0,B|494:25|221:57|222:55,1,350
161,152,22487,1,0
157,224,22966,1,0
204,279,23444,1,0
338,295,23923,1,0
242,195,24402,1,0
401,165,24880,1,0
293,92,25359,1,0
199,120,25838,1,0
112,174,26316,1,0
146,236,26795,1,0
259,241,27274,1,0
358,233,27753,1,0
209,149,28311,5,0
139,194,28790,1,0
124,264,29268,1,0
216,297,29747,1,0
321,287,30226,1,0
419,250,30705,1,0
237,198,31183,1,0
356,197,31662,1,0
485,58,32141,6,0,B|24:344,1,536.666666666667
15,232,34534,5,0
99,224,35013,1,0
209,232,35492,1,0
284,296,35970,1,0
180,311,36449,1,0
310,252,36928,1,0
187,221,37406,1,0
260,207,37885,1,0
260,207,38364,1,0
260,207,38842,1,0
260,207,39321,1,0
70,116,51209,5,0
65,182,51687,1,0
122,237,52166,1,0
246,252,52645,1,0
356,247,53124,1,0
222,187,53602,1,0
374,158,54081,1,0
201,84,54560,1,0
101,132,55038,1,0
24,59,56953,6,0,B|481:341|490:52,1,583.333333333333
304,71,59825,1,0
212,96,60304,1,0
219,159,60783,1,0
345,172,61261,1,0
143,224,61740,1,0
85,134,62219,1,0
313,63,62697,1,0
249,130,63176,1,0
345,170,63655,1,0
210,224,64134,1,0
81,223,64612,1,0
81,223,65091,1,0
81,223,65570,1,0
81,223,66048,1,0
75,235,77936,5,0
75,235,78415,1,0
75,235,78893,1,0
75,235,79372,1,0
75,235,79931,1,0
75,235,80409,1,0
75,235,80888,1,0
75,235,81367,1,0
204,265,81845,5,0
204,265,82324,1,0
204,265,82803,1,0
204,265,83281,1,0
204,265,83760,1,0
204,265,84239,1,0
204,265,84718,1,0
204,265,85196,1,0
349,242,85675,5,0
349,242,86154,1,0
349,242,86632,1,0
349,242,87111,1,0
195,206,87590,5,0
195,206,88068,1,0
195,206,88547,1,0
195,206,89026,1,0
403,252,89505,5,0
403,252,89983,1,0
403,252,90462,1,0
403,252,90941,1,0
5,20,92377,6,0,B|489:17|99:226|558:378|-39:351,1,816.666666666667
5,15,97164,6,0,B|468:308,1,536.666666666667
72,125,100993,1,0
351,179,101871,1,0
122,193,102828,1,0
122,193,103307,1,0
122,193,103786,1,0
122,193,104264,1,0
409,195,104743,1,0
174,251,105701,1,0
286,60,106658,1,0
286,60,107137,1,0
286,60,107615,1,0
286,60,108094,1,0
286,60,108573,1,0
47,116,110487,5,0
230,139,110966,1,0
94,236,111445,1,0
284,257,111924,1,0
112,137,112402,1,0
367,110,114397,5,0
356,155,114876,1,0
348,205,115354,1,0
318,254,115833,1,0
186,313,116312,1,0
112,90,118147,1,0
112,90,118625,1,0
112,90,119104,1,0
112,90,119583,1,0
354,83,121976,5,0
268,141,122455,1,0
359,188,122934,1,0
229,210,123412,1,0
153,90,123891,1,0
62,94,135380,5,0
153,139,135858,1,0
86,201,136337,1,0
215,228,136816,1,0
424,156,137295,1,0
236,77,137773,1,0
323,128,138252,1,0
159,154,138731,1,0
236,228,139209,1,0
127,241,139688,1,0
303,164,140167,1,0
175,93,140645,1,0
311,59,141123,1,0
234,148,141602,1,0
366,157,142082,1,0
109,174,142559,1,0
325,229,143039,5,0
141,245,143518,1,0
260,151,143997,1,0
132,104,144476,1,0
291,70,144955,1,0
389,159,145433,1,0
253,226,145912,1,0
341,254,146391,1,0
126,182,146869,1,0
267,156,147348,1,0
99,124,147827,1,0
347,102,148305,1,0
286,219,148783,1,0
154,236,149262,1,0
254,154,149741,1,0
67,174,150219,1,0
341,109,150698,5,0
272,191,151177,1,0
386,198,151656,1,0
164,204,152134,1,0
217,139,152613,1,0
112,135,153092,1,0
346,101,153570,1,0
249,222,154049,1,0
197,67,154528,1,0
381,176,155006,1,0
166,196,155485,1,0
330,256,155964,1,0
259,136,156442,1,0
73,144,156921,1,0
269,219,157400,1,0
124,259,157879,1,0
223,176,158357,5,0
223,176,158835,1,0
223,176,159314,1,0
223,176,159793,1,0
223,176,160271,1,0
223,176,160750,1,0
223,176,161229,1,0
223,176,161707,1,0
223,176,162187,1,0
223,176,162666,1,0
223,176,163144,1,0
223,176,163623,1,0
223,176,164102,1,0
223,176,164580,1,0
223,176,165059,1,0
223,176,165538,1,0
56,121,166016,5,0
160,153,166495,1,0
56,121,166974,1,0
136,144,167453,1,0
281,186,167931,1,0
145,236,168410,1,0
271,277,168889,1,0
145,236,169367,1,0
330,105,169846,1,0
141,132,170325,1,0
293,167,170803,1,0
141,132,171282,1,0
24,82,172160,5,0
193,227,172638,1,0
128,157,173117,1,0
343,126,173596,1,0
128,157,174075,1,0
343,126,174553,1,0
128,157,175032,1,0
139,46,175511,5,0
254,123,175989,1,0
70,109,176468,1,0
254,123,176947,1,0
53,230,177425,5,0
294,276,177904,1,0
132,240,178383,1,0
370,214,178862,1,0
286,126,179819,5,0
73,109,180298,1,0
209,80,180776,1,0
134,196,181255,1,0
