osu file format v12

[General]
AudioFilename: The Final Countdown.mp3
AudioLeadIn: 0
PreviewTime: -1
Countdown: 0
SampleSet: None
StackLeniency: 0.7
Mode: 0
LetterboxInBreaks: 1

[Editor]
DistanceSpacing: 1
BeatDivisor: 4
GridSize: 4

[Metadata]
Title:The Final Countdown
TitleUnicode:The Final Countdown
Artist:Europe
ArtistUnicode:Europe
Creator:batwoman3
Version:Insane
Source:
Tags:
BeatmapID:242227
BeatmapSetID:88988

[Difficulty]
HPDrainRate:5
CircleSize:5
OverallDifficulty:5
ApproachRate:5
SliderMultiplier:1.30000000596046
SliderTickRate:1

[Events]
//Background and Video events
//Break Periods
2,196811,228054
//Storyboard Layer 0 (Background)
//Storyboard Layer 1 (Fail)
//Storyboard Layer 2 (Pass)
//Storyboard Layer 3 (Foreground)
//Storyboard Sound Samples
//Background Colour Transformations
3,100,0,255,0

[TimingPoints]
17071.5728975448,510.055683269476,4,2,0,100,1,0

[Colours]
Combo1 : 115,113,164
Combo2 : 0,202,0
Combo3 : 18,124,255
Combo4 : 242,24,57
Combo5 : 255,192,0
Combo6 : 0,255,255

[HitObjects]
396,56,13018,2,0,L|384:192,1,130.000000596046
324,128,13784,1,0,0:0:0:0:
288,160,13912,1,0,0:0:0:0:
260,200,14040,2,0,P|240:292|200:296,1,130.000000596046
144,192,15062,2,0,P|136:280|188:284,1,130.000000596046
272,292,15828,1,0,0:0:0:0:
340,296,15956,1,0,0:0:0:0:
304,236,16084,1,0,0:0:0:0:
368,232,16339,1,0,0:0:0:0:
236,236,16594,2,0,B|240:88,1,130.000000596046
212,192,17326,1,0,0:0:0:0:
172,192,17581,1,0,0:0:0:0:
200,120,17836,1,0,0:0:0:0:
156,116,17964,1,0,0:0:0:0:
176,148,18091,2,0,L|176:284,1,130.000000596046
368,160,19111,1,0,0:0:0:0:
328,132,19366,1,0,0:0:0:0:
368,120,19621,1,0,0:0:0:0:
288,212,19876,1,0,0:0:0:0:
288,212,20004,1,0,0:0:0:0:
288,212,20131,2,0,L|248:152,3,65.0000002980232
132,116,21152,5,0,0:0:0:0:
132,116,21407,1,0,0:0:0:0:
132,116,21662,1,0,0:0:0:0:
192,152,21917,1,0,0:0:0:0:
192,112,22044,1,0,0:0:0:0:
192,72,22172,2,0,L|328:76,2,130.000000596046
152,72,23447,1,0,0:0:0:0:
176,112,23702,1,0,0:0:0:0:
204,152,23957,1,0,0:0:0:0:
156,144,24084,1,0,0:0:0:0:
168,184,24212,2,0,L|212:244,4,65.000000298023
344,176,25487,1,0,0:0:0:0:
272,176,25742,1,0,0:0:0:0:
204,176,25997,1,0,0:0:0:0:
164,176,26125,1,0,0:0:0:0:
120,176,26252,2,0,L|124:328,2,130.000000596046
184,264,27527,1,0,0:0:0:0:
184,264,27655,1,0,0:0:0:0:
184,264,27782,1,0,0:0:0:0:
216,264,28037,1,0,0:0:0:0:
216,264,28165,1,0,0:0:0:0:
216,264,28292,1,0,0:0:0:0:
268,188,28547,1,0,0:0:0:0:
80,152,28802,2,0,L|88:244,1,65.000000298023
44,40,29312,6,0,B|180:40|220:148|440:36|8:276,1,520.000002384184
84,312,31608,1,0,0:0:0:0:
184,312,31863,1,0,0:0:0:0:
128,232,32118,1,0,0:0:0:0:
228,232,32373,1,0,0:0:0:0:
276,312,32628,1,0,0:0:0:0:
364,312,32883,1,0,0:0:0:0:
320,232,33138,1,0,0:0:0:0:
36,28,33393,1,0,0:0:0:0:
232,156,33903,1,0,0:0:0:0:
144,64,34413,1,0,0:0:0:0:
48,264,34923,1,0,0:0:0:0:
116,152,35433,1,0,0:0:0:0:
116,152,35561,1,0,0:0:0:0:
116,152,35688,1,0,0:0:0:0:
116,152,35816,1,0,0:0:0:0:
116,152,35943,1,0,0:0:0:0:
116,152,36071,1,0,0:0:0:0:
116,152,36198,1,0,0:0:0:0:
116,152,36326,1,0,0:0:0:0:
116,152,36453,1,0,0:0:0:0:
116,152,36581,1,0,0:0:0:0:
116,152,36708,1,0,0:0:0:0:
116,152,36836,1,0,0:0:0:0:
116,152,36963,1,0,0:0:0:0:
116,152,37091,1,0,0:0:0:0:
116,152,37218,1,0,0:0:0:0:
116,152,37346,5,0,0:0:0:0:
116,152,37473,2,0,L|248:164,2,130.000000596046
80,156,38621,5,0,0:0:0:0:
80,200,38748,1,0,0:0:0:0:
128,204,39003,1,0,0:0:0:0:
128,204,39258,1,0,0:0:0:0:
96,244,39514,1,0,0:0:0:0:
232,168,39769,1,0,0:0:0:0:
280,96,40024,1,0,0:0:0:0:
312,176,40279,1,0,0:0:0:0:
264,244,40534,1,0,0:0:0:0:
264,244,40661,1,0,0:0:0:0:
264,244,40789,1,0,0:0:0:0:
264,244,40916,1,0,0:0:0:0:
264,244,41044,1,0,0:0:0:0:
264,244,41171,1,0,0:0:0:0:
264,244,41299,1,0,0:0:0:0:
264,244,41426,1,0,0:0:0:0:
220,192,41554,2,0,B|64:100|-8:112|84:272|344:380,2,520.000002384184
232,160,45889,1,0,0:0:0:0:
160,180,46144,1,0,0:0:0:0:
224,240,46399,1,0,0:0:0:0:
264,248,46527,1,0,0:0:0:0:
300,232,46654,1,0,0:0:0:0:
324,176,46909,1,0,0:0:0:0:
376,176,47164,1,0,0:0:0:0:
368,256,47419,1,0,0:0:0:0:
332,296,47547,1,0,0:0:0:0:
288,312,47674,1,0,0:0:0:0:
240,320,47929,1,0,0:0:0:0:
164,292,48184,1,0,0:0:0:0:
120,236,48439,1,0,0:0:0:0:
104,164,48695,2,0,L|248:164,1,130.000000596046
196,76,49715,2,0,L|264:196,2,130.000000596046
164,144,51117,1,0,0:0:0:0:
232,152,51500,1,0,0:0:0:0:
264,128,51627,1,0,0:0:0:0:
236,84,51755,1,0,0:0:0:0:
236,84,51882,2,0,L|300:88,1,65.000000298023
300,88,52265,1,0,0:0:0:0:
300,88,52392,2,0,L|300:168,1,65.000000298023
300,153,52775,1,0,0:0:0:0:
300,153,52902,2,0,L|280:220,1,65.000000298023
180,208,53285,1,0,0:0:0:0:
152,80,53795,5,0,0:0:0:0:
92,188,54305,1,0,0:0:0:0:
124,244,54560,1,0,0:0:0:0:
164,264,54688,1,0,0:0:0:0:
208,248,54815,2,0,L|224:104,2,130.000000596046
256,268,56090,1,0,0:0:0:0:
284,276,56218,1,0,0:0:0:0:
276,248,56345,1,0,0:0:0:0:
232,236,56600,1,0,0:0:0:0:
264,212,56728,1,0,0:0:0:0:
224,192,56855,1,0,0:0:0:0:
196,228,57110,1,0,0:0:0:0:
212,268,57365,2,0,L|72:268,1,130.000000596046
124,272,58131,1,0,0:0:0:0:
112,216,58386,1,0,0:0:0:0:
104,160,58641,1,0,0:0:0:0:
132,136,58768,1,0,0:0:0:0:
160,108,58896,1,0,0:0:0:0:
240,100,59406,1,0,0:0:0:0:
308,144,59916,1,0,0:0:0:0:
320,200,60171,1,0,0:0:0:0:
296,244,60426,1,0,0:0:0:0:
244,260,60681,1,0,0:0:0:0:
208,256,60808,1,0,0:0:0:0:
164,256,60936,1,0,0:0:0:0:
120,232,61191,1,0,0:0:0:0:
112,184,61446,1,0,0:0:0:0:
128,128,61701,1,0,0:0:0:0:
176,88,61956,2,0,L|216:100,4,32.5000001490115
192,132,62721,1,0,0:0:0:0:
192,132,62849,1,0,0:0:0:0:
192,132,62976,1,0,0:0:0:0:
200,200,63486,1,0,0:0:0:0:
232,208,63996,2,0,L|268:212,16,32.5000001490115
172,140,66546,1,0,0:0:0:0:
256,176,66802,1,0,0:0:0:0:
224,216,66929,1,0,0:0:0:0:
272,232,67057,1,0,0:0:0:0:
120,180,67567,2,0,P|112:132|144:128,2,65.000000298023
64,100,68332,1,0,0:0:0:0:
116,88,68587,1,0,0:0:0:0:
168,68,68842,1,0,0:0:0:0:
184,96,68969,1,0,0:0:0:0:
196,72,69097,1,0,0:0:0:0:
264,80,69352,1,0,0:0:0:0:
328,96,69607,1,0,0:0:0:0:
384,136,69862,1,0,0:0:0:0:
320,192,70117,2,0,L|252:148,1,65.000000298023
224,196,70627,2,0,L|172:144,1,65.000000298023
124,144,71009,1,0,0:0:0:0:
72,180,71137,2,0,L|96:240,1,65.000000298023
140,276,71647,2,0,L|208:284,1,65.000000298023
260,280,72030,1,0,0:0:0:0:
340,240,72157,1,0,0:0:0:0:
372,176,72412,1,0,0:0:0:0:
344,120,72667,1,0,0:0:0:0:
292,72,72922,1,0,0:0:0:0:
224,80,73177,2,0,B|224:136|152:128|176:196,2,130.000000596046
176,68,74452,1,0,0:0:0:0:
128,72,74707,1,0,0:0:0:0:
88,104,74962,1,0,0:0:0:0:
60,144,75217,1,0,0:0:0:0:
52,200,75727,1,0,0:0:0:0:
56,236,75855,1,0,0:0:0:0:
68,264,75983,1,0,0:0:0:0:
92,292,76110,1,0,0:0:0:0:
168,304,76238,2,0,B|244:296|240:176|400:232|440:128|312:40,1,390.000001788138
288,120,78023,1,0,0:0:0:0:
244,132,78150,1,0,0:0:0:0:
192,136,78278,5,0,0:0:0:0:
128,192,78788,1,0,0:0:0:0:
192,272,79298,1,0,0:0:0:0:
288,268,79808,1,0,0:0:0:0:
384,232,80318,1,0,0:0:0:0:
332,256,80828,1,0,0:0:0:0:
228,280,81338,1,0,0:0:0:0:
284,272,81848,1,0,0:0:0:0:
248,312,82358,1,0,0:0:0:0:
168,224,82868,1,0,0:0:0:0:
184,304,83378,1,0,0:0:0:0:
320,256,83888,1,0,0:0:0:0:
280,324,84398,1,0,0:0:0:0:
248,192,84908,1,0,0:0:0:0:
216,276,85419,1,0,0:0:0:0:
356,328,85929,1,0,0:0:0:0:
180,168,86184,1,0,0:0:0:0:
220,176,86311,1,0,0:0:0:0:
256,172,86439,2,0,B|308:172|312:152|344:204|268:248|272:240,1,130.000000596046
244,256,87204,1,0,0:0:0:0:
188,248,87459,1,0,0:0:0:0:
112,188,87841,1,0,0:0:0:0:
176,160,88224,1,0,0:0:0:0:
176,160,88479,2,0,B|216:160|220:116|176:104|156:144|224:176|244:188,1,130.000000596046
280,188,89244,1,0,0:0:0:0:
360,168,89499,2,0,P|336:192|344:232,2,65.000000298023
444,148,90264,1,0,0:0:0:0:
388,96,90519,5,0,0:0:0:0:
312,136,91029,1,0,0:0:0:0:
284,188,91284,1,0,0:0:0:0:
256,240,91539,1,0,0:0:0:0:
196,276,91922,1,0,0:0:0:0:
184,204,92304,1,0,0:0:0:0:
136,208,92559,2,0,B|156:136|100:128|48:228|20:60|80:8|292:48,1,390.000001788138
284,48,94345,1,0,0:0:0:0:
272,88,94472,1,0,0:0:0:0:
276,120,94600,1,0,0:0:0:0:
264,188,95110,1,0,0:0:0:0:
312,176,95365,1,0,0:0:0:0:
352,192,95492,1,0,0:0:0:0:
364,224,95620,1,0,0:0:0:0:
340,268,96002,1,0,0:0:0:0:
296,292,96385,1,0,0:0:0:0:
248,276,96640,2,0,B|152:260|128:204|268:212,1,195.000000894069
308,256,97660,1,0,0:0:0:0:
296,204,98170,1,0,0:0:0:0:
268,144,98425,1,0,0:0:0:0:
228,156,98552,1,0,0:0:0:0:
188,176,98680,2,0,L|96:168,2,65.000000298023
172,216,99445,1,0,0:0:0:0:
152,252,99573,1,0,0:0:0:0:
112,256,99700,1,0,0:0:0:0:
68,212,99955,1,0,0:0:0:0:
64,144,100210,1,0,0:0:0:0:
88,108,100465,1,0,0:0:0:0:
112,96,100593,1,0,0:0:0:0:
156,92,100720,2,0,L|192:88,16,32.5000001490115
152,76,103015,5,0,0:0:0:0:
152,144,103270,1,0,0:0:0:0:
204,188,103526,1,0,0:0:0:0:
244,184,103653,1,0,0:0:0:0:
288,184,103781,1,0,0:0:0:0:
240,228,104036,1,0,0:0:0:0:
184,232,104291,1,0,0:0:0:0:
140,216,104546,1,0,0:0:0:0:
104,188,104673,1,0,0:0:0:0:
96,136,104801,2,0,L|136:128,4,32.5000001490115
168,120,105438,1,0,0:0:0:0:
204,104,105566,1,0,0:0:0:0:
244,120,105693,1,0,0:0:0:0:
240,160,105821,2,0,L|240:196,4,32.5000001490115
268,216,106458,1,0,0:0:0:0:
304,200,106586,1,0,0:0:0:0:
324,156,106713,1,0,0:0:0:0:
296,120,106841,1,0,0:0:0:0:
196,100,107351,1,0,0:0:0:0:
128,104,107606,1,0,0:0:0:0:
124,144,107733,1,0,0:0:0:0:
120,188,107861,2,0,P|124:256|172:248,1,130.000000596046
208,232,108626,1,0,0:0:0:0:
256,232,108754,1,0,0:0:0:0:
308,232,108881,2,0,L|364:152,1,97.5000004470345
400,172,109391,1,0,0:0:0:0:
312,168,109646,1,0,0:0:0:0:
236,160,109901,2,0,L|100:140,2,130.000000596046
232,224,111304,1,0,0:0:0:0:
276,236,111431,1,0,0:0:0:0:
352,224,111686,1,0,0:0:0:0:
316,292,111941,1,0,0:0:0:0:
384,288,112324,1,0,0:0:0:0:
432,248,112707,1,0,0:0:0:0:
424,176,112962,2,0,L|216:144,1,195.000000894069
352,168,113982,1,0,0:0:0:0:
272,168,114492,1,0,0:0:0:0:
216,164,114747,1,0,0:0:0:0:
232,244,115257,1,0,0:0:0:0:
304,252,115512,1,0,0:0:0:0:
384,236,116022,1,0,0:0:0:0:
368,200,116149,1,0,0:0:0:0:
340,168,116277,1,0,0:0:0:0:
88,132,116787,2,0,B|100:228|252:208|148:48|340:160|448:256|44:276|464:328|464:40|196:44,1,585.000002682207
112,76,119592,5,0,0:0:0:0:
216,92,119847,1,0,0:0:0:0:
200,128,119975,1,0,0:0:0:0:
240,124,120102,2,0,L|240:260,3,130.000000596046
160,220,121888,1,8,0:0:0:0:
184,256,122015,1,8,0:0:0:0:
224,284,122143,1,8,0:0:0:0:
292,288,122398,1,8,0:0:0:0:
348,264,122653,2,8,L|240:168,1,130.000000596046
212,136,123673,1,0,0:0:0:0:
296,112,123928,1,0,0:0:0:0:
260,160,124055,1,0,0:0:0:0:
208,204,124183,2,0,P|120:224|80:216,1,130.000000596046
136,176,125203,1,0,0:0:0:0:
268,236,125713,1,0,0:0:0:0:
192,264,125968,1,0,0:0:0:0:
152,264,126095,1,0,0:0:0:0:
100,260,126223,2,0,L|92:116,1,130.000000596046
188,96,126988,1,0,0:0:0:0:
188,96,127243,1,0,0:0:0:0:
28,180,127753,2,0,L|428:128,1,390.000001788138
416,160,129538,1,0,0:0:0:0:
372,232,129793,1,0,0:0:0:0:
304,256,130048,1,0,0:0:0:0:
260,268,130176,1,0,0:0:0:0:
216,244,130303,1,0,0:0:0:0:
128,272,130558,1,0,0:0:0:0:
56,236,130813,1,0,0:0:0:0:
384,96,131324,1,0,0:0:0:0:
388,172,131579,1,0,0:0:0:0:
384,220,131706,1,0,0:0:0:0:
352,256,131834,1,0,0:0:0:0:
276,276,132089,1,0,0:0:0:0:
224,264,132216,1,0,0:0:0:0:
176,244,132344,2,0,L|188:96,2,130.000000596046
164,144,133874,1,0,0:0:0:0:
232,160,134129,1,0,0:0:0:0:
232,204,134256,1,0,0:0:0:0:
244,248,134384,1,0,0:0:0:0:
296,240,134639,2,0,B|376:212|332:164|412:252|316:328,1,195.000000894069
264,324,135787,5,0,0:0:0:0:
212,324,135914,1,0,0:0:0:0:
132,312,136169,1,0,0:0:0:0:
60,276,136424,1,0,0:0:0:0:
48,180,136807,1,0,0:0:0:0:
88,104,137189,1,0,0:0:0:0:
160,92,137444,2,0,L|296:92,3,130.000000596046
324,108,139229,1,0,0:0:0:0:
312,148,139357,1,0,0:0:0:0:
280,192,139484,1,0,0:0:0:0:
228,216,139739,1,0,0:0:0:0:
168,228,139994,1,0,0:0:0:0:
116,212,140250,1,0,0:0:0:0:
108,180,140377,1,0,0:0:0:0:
124,140,140505,1,0,0:0:0:0:
212,104,140887,1,0,0:0:0:0:
272,152,141270,2,0,B|360:160|328:208|332:264|432:184,1,195.000000894069
396,128,142545,1,0,0:0:0:0:
284,64,143055,1,0,0:0:0:0:
212,96,143310,1,0,0:0:0:0:
188,136,143437,1,0,0:0:0:0:
156,164,143565,1,0,0:0:0:0:
88,216,143820,1,0,0:0:0:0:
148,260,144075,1,0,0:0:0:0:
220,268,144330,1,0,0:0:0:0:
296,264,144585,1,0,0:0:0:0:
352,264,144968,1,0,0:0:0:0:
368,212,145350,1,0,0:0:0:0:
320,164,145860,1,0,0:0:0:0:
240,124,146625,2,0,L|100:84,1,130.000000596046
52,160,147390,1,0,0:0:0:0:
52,200,147518,1,0,0:0:0:0:
76,240,147645,1,0,0:0:0:0:
136,276,147900,1,0,0:0:0:0:
208,292,148155,1,0,0:0:0:0:
276,284,148410,1,0,0:0:0:0:
312,268,148538,1,0,0:0:0:0:
332,232,148665,1,0,0:0:0:0:
268,156,148920,1,0,0:0:0:0:
180,208,149175,1,0,0:0:0:0:
96,184,149431,1,0,0:0:0:0:
72,148,149558,1,0,0:0:0:0:
80,108,149686,2,0,L|124:96,16,32.5000001490115
160,88,151981,5,0,0:0:0:0:
224,104,152236,1,0,0:0:0:0:
252,172,152491,1,0,0:0:0:0:
240,208,152618,1,0,0:0:0:0:
280,232,152746,1,0,0:0:0:0:
372,176,153001,1,0,0:0:0:0:
352,92,153256,1,0,0:0:0:0:
308,72,153511,1,0,0:0:0:0:
268,64,153638,1,0,0:0:0:0:
220,56,153766,1,0,0:0:0:0:
136,92,154149,1,0,0:0:0:0:
84,144,154531,1,0,0:0:0:0:
72,228,154914,1,0,0:0:0:0:
148,272,155296,1,0,0:0:0:0:
304,288,155806,1,0,0:0:0:0:
412,240,156061,1,0,0:0:0:0:
408,172,156316,1,0,0:0:0:0:
344,112,156571,1,0,0:0:0:0:
272,120,156826,1,0,0:0:0:0:
200,136,157209,1,0,0:0:0:0:
124,208,157591,1,0,0:0:0:0:
184,240,157846,2,0,L|288:224,1,97.5000004470345
344,232,158356,1,0,0:0:0:0:
396,156,158612,1,0,0:0:0:0:
328,124,158867,2,0,L|188:112,2,130.000000596046
304,64,160269,1,0,0:0:0:0:
240,72,160397,1,0,0:0:0:0:
168,88,160652,1,0,0:0:0:0:
80,104,160907,1,0,0:0:0:0:
56,196,161289,1,0,0:0:0:0:
128,256,161672,1,0,0:0:0:0:
200,272,161927,2,0,P|232:184|296:240,1,195.000000894069
336,248,163075,1,0,0:0:0:0:
304,156,163457,1,0,0:0:0:0:
260,128,163712,1,0,0:0:0:0:
204,120,163967,1,0,0:0:0:0:
152,116,164222,1,0,0:0:0:0:
112,144,164477,1,0,0:0:0:0:
80,208,164987,1,0,0:0:0:0:
88,260,165115,1,0,0:0:0:0:
120,296,165242,1,0,0:0:0:0:
200,280,165752,2,0,B|288:264|24:212|60:16|484:12|488:272|172:168,1,585.000002682207
104,116,168558,5,0,0:0:0:0:
168,64,168813,1,0,0:0:0:0:
216,68,168940,1,0,0:0:0:0:
264,72,169068,2,0,L|128:64,2,130.000000596046
320,80,170343,1,0,0:0:0:0:
268,72,170598,1,0,0:0:0:0:
228,124,170853,1,0,0:0:0:0:
212,168,170980,1,0,0:0:0:0:
240,204,171108,1,0,0:0:0:0:
304,196,171363,1,0,0:0:0:0:
364,176,171618,2,0,L|400:160,4,32.5000001490115
432,136,172383,2,0,L|436:176,2,32.5000001490115
408,84,172893,1,0,0:0:0:0:
368,48,173021,1,0,0:0:0:0:
320,44,173148,1,0,0:0:0:0:
272,64,173658,1,0,0:0:0:0:
216,88,173913,1,0,0:0:0:0:
152,80,174168,1,0,0:0:0:0:
116,136,174423,1,0,0:0:0:0:
96,252,174933,1,0,0:0:0:0:
156,252,175188,1,0,0:0:0:0:
244,256,175698,1,0,0:0:0:0:
420,248,176208,2,0,L|352:128,1,130.000000596046
304,120,176974,1,0,0:0:0:0:
216,128,177101,1,0,0:0:0:0:
136,144,177229,1,0,0:0:0:0:
104,200,177739,1,0,0:0:0:0:
160,256,178249,1,0,0:0:0:0:
248,260,178504,1,0,0:0:0:0:
300,260,178631,1,0,0:0:0:0:
340,240,178759,1,0,0:0:0:0:
392,192,179014,1,0,0:0:0:0:
400,140,179141,1,0,0:0:0:0:
384,88,179269,1,0,0:0:0:0:
320,64,179524,1,0,0:0:0:0:
240,72,179779,2,0,P|196:80|232:136,1,130.000000596046
280,144,180544,1,0,0:0:0:0:
328,144,180799,1,0,0:0:0:0:
372,136,181054,1,0,0:0:0:0:
404,176,181181,1,0,0:0:0:0:
380,208,181309,1,0,0:0:0:0:
308,236,181819,1,0,0:0:0:0:
240,252,182329,1,0,0:0:0:0:
172,220,182584,1,0,0:0:0:0:
104,168,182839,1,0,0:0:0:0:
104,104,183094,1,0,0:0:0:0:
140,80,183222,1,0,0:0:0:0:
184,64,183349,2,0,L|260:80,1,65.000000298023
312,84,183859,2,0,L|320:156,1,65.000000298023
312,208,184369,1,0,0:0:0:0:
392,192,184624,2,0,L|464:176,1,65.000000298023
452,260,185134,1,0,0:0:0:0:
416,288,185262,1,0,0:0:0:0:
336,296,185389,2,0,L|260:292,1,65.000000298023
252,300,185900,2,0,L|256:232,1,65.000000298023
204,212,186282,1,0,0:0:0:0:
136,208,186410,1,0,0:0:0:0:
92,120,186665,1,0,0:0:0:0:
184,104,186920,1,0,0:0:0:0:
252,120,187175,1,0,0:0:0:0:
308,188,187430,2,0,L|388:84,1,130.000000596046
96,64,188450,2,0,B|448:40|4:252|412:240|352:104,1,390.000001788138
416,140,190235,1,0,0:0:0:0:
460,184,190362,1,0,0:0:0:0:
432,216,190490,1,0,0:0:0:0:
324,284,191000,1,0,0:0:0:0:
196,280,191510,1,0,0:0:0:0:
68,280,192020,1,0,0:0:0:0:
56,180,192275,1,0,0:0:0:0:
88,152,192403,1,0,0:0:0:0:
80,92,192530,1,0,0:0:0:0:
160,92,192785,1,0,0:0:0:0:
244,100,193040,1,0,0:0:0:0:
280,132,193168,2,0,L|288:200,1,65.000000298023
248,224,193550,2,0,L|312:240,1,65.000000298023
372,204,193933,1,0,0:0:0:0:
360,140,194188,1,0,0:0:0:0:
260,72,194570,1,0,0:0:0:0:
200,88,194825,1,0,0:0:0:0:
132,120,195081,1,0,0:0:0:0:
136,168,195208,1,0,0:0:0:0:
96,192,195463,1,0,0:0:0:0:
128,240,195718,1,0,0:0:0:0:
196,276,195846,1,0,0:0:0:0:
256,248,196101,1,0,0:0:0:0:
332,240,196356,1,0,0:0:0:0:
396,252,196611,1,0,0:0:0:0:
196,152,229254,5,0,0:0:0:0:
284,148,230019,1,0,0:0:0:0:
320,128,230147,1,0,0:0:0:0:
372,128,230274,1,0,0:0:0:0:
336,264,230784,1,0,0:0:0:0:
280,256,231039,1,0,0:0:0:0:
216,248,231294,1,0,0:0:0:0:
124,184,232060,1,0,0:0:0:0:
116,132,232187,1,0,0:0:0:0:
104,88,232315,1,0,0:0:0:0:
164,80,232570,1,0,0:0:0:0:
212,80,232825,2,0,L|344:80,1,130.000000596046
400,260,234100,1,0,0:0:0:0:
352,280,234227,1,0,0:0:0:0:
312,300,234355,1,0,0:0:0:0:
188,292,234865,1,0,0:0:0:0:
132,288,235120,1,0,0:0:0:0:
76,280,235375,1,0,0:0:0:0:
44,140,236140,1,0,0:0:0:0:
88,144,236268,1,0,0:0:0:0:
132,160,236395,1,0,0:0:0:0:
192,224,236650,1,0,0:0:0:0:
280,204,236905,1,0,0:0:0:0:
216,136,237160,1,0,0:0:0:0:
320,140,237415,1,0,0:0:0:0:
400,216,237925,1,0,0:0:0:0:
352,272,238180,1,0,0:0:0:0:
304,284,238308,1,0,0:0:0:0:
248,288,238435,1,0,0:0:0:0:
172,292,238754,1,0,0:0:0:0:
88,280,239137,1,0,0:0:0:0:
48,208,239455,6,0,L|172:160,1,130.000000596046
228,160,240220,1,0,0:0:0:0:
248,188,240348,1,0,0:0:0:0:
296,196,240475,1,0,0:0:0:0:
296,104,240730,1,0,0:0:0:0:
344,120,240986,1,0,0:0:0:0:
412,224,241496,1,0,0:0:0:0:
328,308,242006,1,0,0:0:0:0:
240,308,242261,1,0,0:0:0:0:
256,260,242388,1,0,0:0:0:0:
248,212,242516,1,0,0:0:0:0:
208,144,242834,1,0,0:0:0:0:
140,128,243217,1,0,0:0:0:0:
68,168,243536,2,0,L|116:316,1,130.000000596046
152,212,244301,1,0,0:0:0:0:
220,244,244556,2,0,P|268:244|224:200,2,130.000000596046
116,216,246341,1,0,0:0:0:0:
96,176,246469,1,0,0:0:0:0:
128,132,246596,1,0,0:0:0:0:
300,68,247361,1,0,0:0:0:0:
316,100,247489,1,0,0:0:0:0:
320,148,247616,1,0,0:0:0:0:
336,236,247871,1,0,0:0:0:0:
280,312,248126,1,0,0:0:0:0:
188,340,248381,1,0,0:0:0:0:
112,320,248636,1,0,0:0:0:0:
68,188,249146,1,0,0:0:0:0:
56,36,249656,2,0,B|320:40|108:208|320:360|444:144,1,520.000002384184
432,116,251824,2,0,L|364:92,1,65.000000298023
370,94,252207,1,0,0:0:0:0:
370,94,252334,2,0,L|312:148,1,65.000000298023
322,138,252717,1,0,0:0:0:0:
322,138,252844,2,0,L|260:80,1,65.000000298023
216,96,253227,1,0,0:0:0:0:
144,224,253737,5,0,0:0:0:0:
288,320,254247,1,0,0:0:0:0:
404,292,254502,1,0,0:0:0:0:
384,240,254630,1,0,0:0:0:0:
364,204,254757,2,0,L|256:124,1,130.000000596046
192,136,255777,1,0,0:0:0:0:
68,196,256032,1,0,0:0:0:0:
96,320,256287,1,0,0:0:0:0:
192,320,256542,1,0,0:0:0:0:
240,316,256670,1,0,0:0:0:0:
280,300,256797,1,0,0:0:0:0:
396,248,257052,1,0,0:0:0:0:
344,160,257307,1,0,0:0:0:0:
304,136,257435,1,0,0:0:0:0:
272,108,257562,1,0,0:0:0:0:
232,80,257690,1,0,0:0:0:0:
184,88,257817,1,0,0:0:0:0:
104,128,258072,1,0,0:0:0:0:
72,212,258327,1,0,0:0:0:0:
132,264,258582,1,0,0:0:0:0:
176,288,258710,1,0,0:0:0:0:
224,280,258837,1,0,0:0:0:0:
364,288,259348,1,0,0:0:0:0:
416,232,259603,1,0,0:0:0:0:
368,176,259858,2,0,L|328:136,4,32.5000001490115
272,148,260623,1,0,0:0:0:0:
172,140,260878,2,0,L|32:152,2,130.000000596046
192,76,262408,5,0,0:0:0:0:
268,56,262663,1,0,0:0:0:0:
312,56,262790,1,0,0:0:0:0:
356,56,262918,1,0,0:0:0:0:
428,68,263428,1,0,0:0:0:0:
340,184,263938,1,0,0:0:0:0:
264,168,264193,1,0,0:0:0:0:
200,140,264448,1,0,0:0:0:0:
128,156,264703,1,0,0:0:0:0:
116,192,264831,1,0,0:0:0:0:
120,240,264958,1,0,0:0:0:0:
152,280,265213,2,0,L|224:280,3,65.000000298023
280,276,266233,1,0,0:0:0:0:
320,276,266361,1,0,0:0:0:0:
352,256,266488,1,0,0:0:0:0:
384,208,266743,1,0,0:0:0:0:
356,168,266871,1,0,0:0:0:0:
312,156,266998,1,0,0:0:0:0:
196,156,267508,1,0,0:0:0:0:
84,148,268018,1,0,0:0:0:0:
48,212,268273,1,0,0:0:0:0:
56,276,268529,1,0,0:0:0:0:
124,276,268784,1,0,0:0:0:0:
164,284,268911,1,0,0:0:0:0:
200,284,269039,1,0,0:0:0:0:
280,288,269294,1,0,0:0:0:0:
312,200,269549,1,0,0:0:0:0:
392,196,269804,1,0,0:0:0:0:
332,116,270059,2,0,L|256:120,1,65.000000298023
176,128,270569,2,0,L|228:56,1,65.000000298023
136,64,270951,1,0,0:0:0:0:
72,64,271079,2,0,L|72:132,1,65.000000298023
124,180,271589,2,0,L|124:248,1,65.000000298023
172,264,271971,1,0,0:0:0:0:
216,268,272099,1,0,0:0:0:0:
268,224,272354,1,0,0:0:0:0:
308,264,272609,1,0,0:0:0:0:
356,216,272864,1,0,0:0:0:0:
340,132,273119,2,0,L|204:144,1,130.000000596046
104,72,274139,2,0,B|84:180|152:40|136:340|432:84|240:36|136:216|136:216,1,390.000001788138
180,136,276179,5,0,0:0:0:0:
224,220,276498,1,0,0:0:0:0:
312,184,276881,1,0,0:0:0:0:
304,80,277199,1,0,0:0:0:0:
152,72,277710,1,0,0:0:0:0:
88,224,278220,1,0,0:0:0:0:
200,196,278730,1,0,0:0:0:0:
192,132,278985,1,0,0:0:0:0:
152,108,279112,1,0,0:0:0:0:
112,84,279240,2,0,L|228:156,1,130.000000596046
268,180,280260,1,0,0:0:0:0:
256,248,280515,1,0,0:0:0:0:
312,244,280770,1,0,0:0:0:0:
384,212,281025,1,0,0:0:0:0:
360,144,281280,1,0,0:0:0:0:
268,100,281662,1,0,0:0:0:0:
148,80,282045,1,0,0:0:0:0:
72,112,282300,1,0,0:0:0:0:
44,216,282810,2,0,L|320:240,1,260.000001192092
384,256,284085,1,0,0:0:0:0:
336,204,284595,1,0,0:0:0:0:
248,144,285105,1,0,0:0:0:0:
176,128,285360,1,0,0:0:0:0:
60,256,285870,1,0,0:0:0:0:
192,232,286380,1,0,0:0:0:0:
272,228,286891,1,0,0:0:0:0:
316,212,287146,1,0,0:0:0:0:
344,176,287273,1,0,0:0:0:0:
324,144,287401,1,0,0:0:0:0:
132,164,287911,1,0,0:0:0:0:
64,240,288166,1,0,0:0:0:0:
116,308,288421,1,0,0:0:0:0:
224,304,288676,1,0,0:0:0:0:
264,292,288803,1,0,0:0:0:0:
308,276,288931,1,0,0:0:0:0:
392,244,289186,1,0,0:0:0:0:
368,156,289441,1,0,0:0:0:0:
284,88,289823,1,0,0:0:0:0:
200,84,290206,1,0,0:0:0:0:
88,124,290588,2,0,L|188:184,1,97.5000004470345
88,204,291226,1,0,0:0:0:0:
128,236,291354,1,0,0:0:0:0:
172,240,291481,1,0,0:0:0:0:
252,280,291736,1,0,0:0:0:0:
320,276,291991,1,0,0:0:0:0:
396,264,292246,1,0,0:0:0:0:
400,176,292501,1,0,0:0:0:0:
308,112,293011,1,0,0:0:0:0:
244,120,293266,1,0,0:0:0:0:
120,120,293394,1,0,0:0:0:0:
188,124,293521,1,0,0:0:0:0:
40,168,293776,1,0,0:0:0:0:
56,240,294031,1,0,0:0:0:0:
104,300,294286,1,0,0:0:0:0:
176,304,294541,1,0,0:0:0:0:
244,308,294796,1,0,0:0:0:0:
312,300,295051,1,0,0:0:0:0:
384,288,295306,1,0,0:0:0:0:
412,252,295434,1,0,0:0:0:0:
412,212,295561,1,0,0:0:0:0:
384,144,295817,1,0,0:0:0:0:
328,104,296072,1,0,0:0:0:0:
252,92,296327,1,0,0:0:0:0:
208,100,296454,1,0,0:0:0:0:
156,108,296582,1,0,0:0:0:0:
96,168,296837,1,0,0:0:0:0:
72,260,297092,1,0,0:0:0:0:
160,280,297347,1,0,0:0:0:0:
244,264,297602,1,0,0:0:0:0:
344,284,298112,1,0,0:0:0:0:
256,192,298494,12,0,300662,0:0:0:0:
216,144,301002,5,0,0:0:0:0:
312,160,301342,1,0,0:0:0:0:
248,240,301682,1,0,0:0:0:0:
348,268,302192,1,0,0:0:0:0:
380,200,302702,1,0,0:0:0:0:
376,116,303212,1,0,0:0:0:0:
