osu file format v5

[General]
AudioFilename: Eun Ji Won ft. Mr. Typhoon - Adios.mp3
AudioLeadIn: 0
PreviewTime: -1
Countdown: 1
SampleSet: Normal
EditorBookmarks: 24672,55892,56867,57843,58819,59794,167110,168085,169061,170037,171012,171988,172964,174915,176866,177842,178817,179793,180768

[Metadata]
Title:Adios
Artist:Eun Ji Won ft. Mr. Typhoon
Creator:EiJi
Version:Normal

[Difficulty]
HPDrainRate:4
CircleSize:5
OverallDifficulty:4
SliderMultiplier:1.4
SliderTickRate:2

[Events]
//Background and Video events
//Break Periods
2,54628,70302
2,117554,132740
//Storyboard Layer 0 (Background)
//Storyboard Layer 1 (Failing)
//Storyboard Layer 2 (Passing)
//Storyboard Layer 3 (Foreground)
//Storyboard Sound Samples
//Background Colour Transformations
3,100,163,162,255

[TimingPoints]
9063,487.80487804878,4,2,0,100
71502,487.80487804878,4,1,0,100
87111,487.80487804878,4,2,0,100
133940,487.80487804878,4,1,0,100
150525,487.80487804878,4,2,0,100
182720,487.80487804878,4,1,0,100

[HitObjects]
96,128,24916,2,0,B|192:128,6,70
88,224,26867,6,0,B|8:224,6,70
184,224,28819,5,0
232,224,29062,1,0
280,224,29306,1,0
328,224,29550,2,0,B|488:224,2,140
328,224,30770,1,0
328,128,31258,6,0,B|328:48,4,70
232,128,32721,6,0,B|96:128,1,122.5
104,192,33453,1,0
104,240,33697,2,0,B|256:240,1,140
344,240,34672,6,0,B|344:128,1,105
272,136,35404,1,0
200,136,35770,1,0
128,136,36136,1,0
120,232,36623,5,0
160,264,36867,1,0
200,232,37111,1,0
232,264,37355,1,0
272,232,37599,1,0
304,264,37843,1,0
344,232,38087,1,0
376,264,38331,1,0
416,232,38575,1,0
416,136,39062,6,0,B|336:136,1,70
296,136,39550,6,0,B|144:136,1,140
152,280,40770,6,0,B|232:280,1,70
248,280,41136,2,0,B|336:280,1,70
344,280,41502,2,0,B|416:280,1,70
408,184,42233,6,0,B|312:184,6,70
408,88,44184,5,0
360,88,44428,2,0,B|360:120,2,35
312,88,44916,2,0,B|256:88,1,35
224,88,45282,2,0,B|224:152,1,35
224,168,45648,1,0
224,264,46136,6,0,B|144:264,3,70
128,264,46989,2,0,B|128:144,1,105
128,159,47599,1,0
224,160,48087,5,0
272,160,48331,2,0,B|272:192,2,35
320,160,48819,2,0,B|320:320,1,140
320,300,49550,1,0
272,304,49794,1,0
224,304,50038,5,0
176,304,50282,1,0
128,304,50526,1,0
80,304,50770,2,0,B|80:272,1,35
80,192,51258,2,0,B|0:192,2,70
128,192,51989,5,0
176,192,52233,1,0
224,192,52477,1,0
224,16,53941,5,0
176,16,54184,1,0
128,16,54428,1,0
88,64,71502,5,0
88,120,71745,1,0
128,160,71989,1,0
128,216,72233,1,0
80,248,72477,1,0
80,304,72721,1,0
80,360,72965,1,0
192,360,73453,5,0
248,360,73697,1,0
248,304,73941,1,0
304,304,74184,1,0
360,304,74428,1,0
360,248,74672,1,0
360,192,74916,1,0
360,80,75404,5,0
248,80,75892,1,0
136,80,76380,1,0
136,136,76623,1,0
136,192,76867,1,0
248,200,77355,5,0
280,152,77599,1,0
288,208,77843,1,0
248,248,78087,1,0
200,224,78331,1,0
200,168,78575,1,0
240,128,78819,1,0
128,112,79306,5,0
16,112,79794,1,0
72,208,80282,1,0
112,248,80526,1,0
152,280,80770,1,0
264,288,81258,5,0
376,288,81745,1,0
320,192,82233,1,0
280,152,82477,1,0
240,112,82721,1,0
168,24,83209,5,0
120,48,83453,1,0
160,80,83697,1,0
104,96,83941,1,0
144,136,84184,1,0
88,144,84428,1,0
128,184,84672,1,0
72,192,84916,5,0
112,232,85160,2,0,B|208:312|240:344,2,140
296,104,87111,6,0,B|296:192,3,70
296,288,88330,5,0
240,288,88574,2,0,B|80:288,3,140
100,288,90281,1,0
100,288,90525,1,0
104,176,91013,6,0,B|256:176,1,140
352,176,91989,2,0,B|256:176,2,70
352,288,92964,5,0
240,288,93452,1,0
128,288,93940,2,0,B|32:288,3,70
56,176,95159,6,0,B|56:112,2,35
112,176,95647,1,0
168,176,95891,2,0,B|240:176,2,70
168,120,96623,2,0,B|208:120,1,35
288,120,97111,6,0,B|320:120,2,35
288,176,97598,1,0
288,232,97842,2,0,B|208:232,2,70
344,232,98574,2,0,B|376:232,2,35
344,176,99062,5,0
344,120,99306,2,0,B|376:120,4,35
344,64,100037,1,0
288,64,100281,2,0,B|200:64,1,70
216,120,100769,6,0,B|288:120,1,70
288,176,101257,6,0,B|200:176,1,70
216,232,101745,6,0,B|216:296,4,35
160,232,102476,1,0
160,120,102964,6,0,B|208:120,2,35
160,176,103452,2,0,B|104:176,2,35
160,232,103940,2,0,B|200:232,2,35
160,288,104428,1,0
272,288,104915,6,0,B|296:288,2,35
272,232,105403,2,0,B|208:232,2,35
272,176,105891,2,0,B|296:176,2,35
272,120,106379,5,0
272,64,106623,1,0
216,64,106867,6,0,B|216:104,2,35
160,64,107354,2,0,B|160:16,2,35
160,120,107842,1,0
160,176,108086,1,0
160,232,108330,1,0
160,288,108574,6,0,B|320:288,3,140
300,288,110281,1,0
300,288,110525,1,0
304,232,110769,6,0,B|336:232,2,35
304,176,111257,2,0,B|264:176,2,35
304,120,111745,2,0,B|328:120,2,35
248,120,112232,5,0
192,120,112476,1,0
192,176,112720,6,0,B|232:176,2,35
192,232,113208,2,0,B|152:232,2,35
192,288,113696,2,0,B|224:288,2,35
136,288,114184,5,0
80,288,114428,2,0,B|80:144,3,140
88,32,116379,5,0
200,32,116867,1,0
312,32,117354,1,0
88,80,133940,5,0
88,192,134428,1,0
184,136,134915,1,0
128,136,135159,1,0
72,136,135403,1,0
72,248,135891,5,0
72,360,136379,1,0
168,304,136867,1,0
112,304,137110,1,0
56,304,137354,1,0
56,192,137842,5,0
112,192,138086,1,0
168,192,138330,1,0
168,80,138818,5,0
112,80,139062,1,0
56,80,139306,1,0
56,192,139793,5,0
56,304,140281,1,0
168,304,140769,1,0
224,304,141013,1,0
280,304,141257,1,0
280,192,141745,5,0
168,192,142232,1,0
224,288,142720,1,0
280,288,142964,1,0
336,288,143208,1,0
336,176,143696,5,0
232,224,144184,1,0
304,136,144671,1,0
336,176,144915,1,0
368,224,145159,1,0
256,224,145647,5,0
144,224,146135,1,0
32,224,146623,1,0
32,112,147110,1,0
144,112,147598,2,0,B|304:112,2,140
112,104,150769,6,0,B|192:104,2,70
112,160,151500,2,0,B|112:312,1,140
112,300,152232,1,0
224,304,152720,5,0
280,304,152964,1,0
336,304,153207,1,0
392,304,153451,2,0,B|392:152,1,140
392,164,154183,1,0
280,160,154671,6,0,B|200:160,1,70
152,160,155159,1,0
96,160,155403,2,0,B|96:312,1,140
96,300,156134,1,0
208,304,156622,5,0
208,248,156866,1,0
208,192,157110,1,0
208,128,157354,2,0,B|208:-24,2,140
112,128,158695,1,0
112,224,159061,1,0
240,224,159549,6,0,B|240:256,2,35
240,160,160037,1,0
240,96,160281,2,0,B|368:96,2,105
240,224,161500,6,0,B|328:224,3,70
376,224,162476,1,0
440,224,162720,2,0,B|440:96,1,105
344,112,163451,6,0,B|344:144,2,35
216,112,164183,1,0
88,112,164671,1,0
80,176,166378,6,0,B|168:176,2,70
80,112,167110,2,0,B|184:112|184:120|184:128|184:200|176:200|160:200|40:200,1,280
48,264,168329,6,0,B|48:336,2,70
112,264,169061,2,0,B|168:264|176:264|184:256|192:248|200:240|344:104,1,280
336,48,170281,6,0,B|424:48,2,70
272,48,171012,2,0,B|216:48|216:56|216:104|224:104|264:104|264:112|264:152|256:152|216:152|216:160|216:224|224:224|256:224|256:232|256:280,1,280
256,336,172232,6,0,B|328:336,2,70
256,192,172964,12,0,174915
96,88,176134,1,0
152,88,176378,1,0
208,88,176622,1,0
264,88,176866,2,0,B|264:168|256:168|256:160|264:160|336:160|336:168|328:168|328:160|328:88|328:80|336:80|336:88|432:88,1,280
416,144,178085,5,0
416,200,178329,1,0
416,256,178573,1,0
360,256,178817,2,0,B|256:256|256:248|264:240|312:208|320:208|328:208|336:200|272:184|264:184|256:184|248:176|312:120|320:120|328:120|336:112|296:88,1,280
248,96,180037,5,0
192,96,180281,1,0
136,96,180524,1,0
80,96,180768,2,0,B|80:248,3,140
192,240,182720,5,0
248,240,182964,2,0,B|248:272,2,35
360,240,183695,5,0
360,184,183939,1,0
360,128,184183,1,0
248,120,184671,5,0
192,120,184915,2,0,B|144:120,2,35
192,232,185646,5,0
248,232,185890,1,0
304,232,186134,1,0
248,328,186622,5,0
192,328,186866,2,0,B|192:352,2,35
80,328,187598,5,0
24,328,187842,2,0,B|24:272,2,35
24,216,188573,5,0
80,216,188817,6,0,B|80:240,2,35
136,216,189305,6,0,B|136:192,2,35
192,216,189793,5,0
248,216,190037,1,0
320,128,190524,5,0
264,128,190768,1,0
208,128,191012,1,0
168,168,191256,1,0
208,208,191500,1,0
264,208,191744,1,0
320,208,191988,1,0
320,320,192476,5,0
264,320,192720,1,0
208,320,192963,1,0
176,272,193207,1,0
208,224,193451,1,0
264,224,193695,1,0
320,224,193939,1,0
384,136,194427,5,0
328,136,194671,1,0
272,136,194915,1,0
216,136,195159,1,0
160,136,195402,1,0
104,136,195646,1,0
48,136,195890,1,0
40,248,196378,6,0,B|184:248,2,140
400,80,198329,6,0,B|224:80,2,140
256,192,200280,12,0,202232
