osu file format v9

[General]
AudioFilename: (TVsize).mp3
AudioLeadIn: 0
PreviewTime: -1
Countdown: 1
SampleSet: Soft
StackLeniency: 0.7
Mode: 0
LetterboxInBreaks: 1

[Editor]
DistanceSpacing: 2
BeatDivisor: 4
GridSize: 8

[Metadata]
Title:Shounen Yo Ware Ni Kaere(TV Size)
Artist:Etsuko Yakushimaru and the Metro Orchestra
Creator:hopeyayv
Version:95
Source:Mawaru Penguindrum
Tags:

[Difficulty]
HPDrainRate:8
CircleSize:6
OverallDifficulty:7
ApproachRate:8
SliderMultiplier:1.4
SliderTickRate:1

[Events]
//Background and Video events
0,0,"b48e146d39d30f9943169488.jpg"
//Break Periods
//Storyboard Layer 0 (Background)
//Storyboard Layer 1 (Fail)
//Storyboard Layer 2 (Pass)
//Storyboard Layer 3 (Foreground)
//Storyboard Sound Samples
//Background Colour Transformations
3,100,163,162,255

[TimingPoints]
6940,333.333333333333,4,2,1,60,1,0
28274,333.333333333333,4,2,1,60,1,0
51940,-100,4,2,1,90,0,1
78607,-100,4,2,1,42,0,0

[Colours]
Combo1 : 231,174,56
Combo2 : 16,119,194
Combo3 : 255,117,186
Combo4 : 228,228,228

[HitObjects]
112,88,6939,2,0,B|168:56|216:120|272:72,1,140,0|8
352,40,7606,2,0,B|392:40|408:96|424:128|472:120,1,140,0|8
456,64,8106,2,0,B|408:72|384:120|368:144|328:120,1,140
288,96,8606,2,0,B|256:128|264:176|272:208|296:224,1,140,8|0
352,136,9106,1,0
264,88,9273,1,8
80,248,9606,6,0,B|136:312,2,70,0|0|8
96,192,10106,1,0
152,208,10273,2,0,B|200:168|176:88|160:80,1,140
72,32,10773,2,0,B|40:72|80:120,1,70,0|8
152,48,11273,1,0
72,128,11606,1,0
176,168,11939,2,0,B|216:192|256:160,2,70
224,64,12606,5,8
168,64,12773,1,0
216,288,13273,1,8
264,264,13439,2,0,B|304:240|336:264|368:272|400:240,1,140
448,264,13939,2,0,B|424:312|368:312,1,70,8|0
288,312,14273,1,0
344,224,14440,1,0
376,320,14606,1,8
256,224,14773,6,0,B|176:192,1,70
152,240,15106,2,0,B|176:328,1,70,0|8
112,320,15440,2,0,B|32:288|64:192,1,140
80,152,15940,1,8
328,56,16273,6,0,B|424:56,1,70
272,56,16606,1,8
216,56,16773,2,0,B|152:112|216:184,1,140
264,152,17273,1,8
352,80,17606,1,0
408,168,17773,1,0
357,142,17940,5,8
402,108,18106,1,0
450,135,18273,2,0,B|471:165|449:211,1,70
429,252,18606,1,8
384,216,18773,6,0,B|368:248|304:240|272:224|256:272,1,140
304,296,19273,2,0,B|280:328|240:320,1,70,8|0
144,296,19606,1,0
200,208,19773,2,0,B|224:176|272:192,2,70,0|8|0
248,240,20273,1,0
304,224,20439,1,0
312,168,20606,1,8
272,128,20773,1,0
216,136,20939,6,0,B|192:176|128:168|104:160|80:112,1,140,0|8
232,208,21439,2,0,B|296:144|376:224,1,140
368,264,21939,1,8
368,264,22273,1,0
432,128,22606,2,0,B|384:72,2,70,8|0|0
400,176,23106,1,0
368,128,23273,1,8
312,112,23439,1,0
200,112,23773,5,0
112,176,23939,1,8
144,128,24106,5,0
112,232,24273,1,0
160,208,24439,2,0,B|216:280|216:272,2,70,0|8|0
112,232,24939,2,0,B|128:152,2,70,0|0|8
152,272,25439,1,0
192,312,25606,2,0,B|288:328,1,70
272,264,25939,2,0,B|352:240,1,70,8|0
336,128,26439,6,0,B|256:88,1,70,0|8
224,72,26773,1,0
320,40,26939,2,0,B|384:104,1,70
326,179,27273,2,0,B|240:168,1,70,8|0
336,240,27606,2,0,B|416:216,2,70,0|0|8
272,168,28106,1,0
176,216,28274,6,0,B|88:232|64:160,1,140,0|8
120,144,28773,1,0
384,144,29107,1,0
440,160,29274,2,0,B|416:216|376:224|320:216,1,140,8|0
376,128,29773,1,0
408,224,29940,1,8
304,192,30107,1,0
392,136,30273,6,0,B|432:176|400:240|344:240,1,140,0|8
120,136,30940,2,0,B|80:176|112:240|168:240,1,140,0|8
256,192,31440,1,0
256,80,31773,1,0
208,120,31940,2,0,B|184:168|128:120|96:152|96:192,1,140,8|0
128,232,32440,1,0
40,176,32607,1,8
136,128,32773,6,0,B|176:152|144:208|152:208,2,70
256,176,33273,1,8
352,128,33440,1,0
304,152,33607,6,0,B|328:216|400:216|432:208,1,140,0|8
416,152,34107,1,0
208,152,34440,2,0,B|200:200|128:184|128:184,2,70,0|8|0
304,152,34940,1,0
192,152,35273,6,0,B|104:152,1,70,8|0
320,216,35607,2,0,B|400:216,3,70,0|0|8|0
344,120,36273,2,0,B|304:128|272:160|280:232|256:272|216:240|240:120|208:112|144:120,1,280
256,192,37274,1,8
256,208,37607,1,0
304,232,37774,2,0,B|312:280|248:296,2,70,0|8|0
208,232,38273,2,0,B|208:280|256:296,1,70
160,208,38607,2,0,B|136:240|80:216,1,70,8|0
184,160,38940,6,0,B|208:120|256:104|320:128,1,140,0|8
280,176,39440,1,0
200,96,39773,1,0
240,56,39940,2,0,B|328:72|320:176,1,140,8|0
392,208,40440,2,0,B|472:200,1,70,0|8
440,152,40773,1,0
384,136,40940,2,0,B|352:160|288:136|272:112|224:160,1,140,0|8
320,224,41607,5,0
376,208,41773,2,0,B|360:296,1,70,0|8
144,272,42107,2,0,B|120:192,1,70
256,192,42440,1,0
256,192,42607,1,8
320,96,42940,2,0,B|400:56,3,70,0|0|8|0
384,120,43607,5,0
336,152,43773,1,0
280,144,43940,2,0,B|232:88|152:112|128:136,1,140,8|0
104,144,44440,1,0
80,240,44607,1,8
64,184,44773,5,0
272,184,45107,1,0
296,232,45273,2,0,B|384:232|392:136,1,140,8|0
312,64,45940,2,0,B|232:48,1,70,8|0
232,104,46273,2,0,B|144:128,1,70
176,64,46607,1,8
152,176,46773,1,0
72,96,46940,1,0
264,144,47273,6,0,B|240:232,1,70,8|0
192,200,47607,1,0
208,256,47773,1,0
264,264,47940,2,0,B|352:312|392:256|400:248,1,140,8|0
296,72,48607,1,8
240,56,48773,1,0
184,64,48940,2,0,B|120:72|88:112|96:168,1,140,0|8
304,200,49607,5,0
280,184,49690,1,0
256,168,49773,1,0
208,136,49940,1,8
152,160,50107,1,8
224,264,50440,2,0,B|304:264|304:264,2,70,0|8|0
120,264,50940,1,8
208,200,51107,1,12
400,256,51440,5,0
408,232,51523,1,0
408,200,51607,1,0
400,176,51690,1,0
384,152,51773,1,0
304,184,51940,5,2
304,208,52023,1,0
288,232,52107,1,0
264,240,52190,1,0
240,240,52273,2,2,B|168:232,1,70
144,224,52523,2,2,B|104:224|72:176|96:120,1,105
96,120,52857,2,2,B|144:80|176:120|208:136|264:88,1,175,2|4
200,64,53440,1,2
256,216,53773,1,2
312,64,54107,1,2
56,160,54773,5,0
128,80,54940,2,2,B|208:64,1,70,6|2
224,64,55190,2,2,B|144:120|208:200,1,140,0|2
216,200,55607,2,2,B|288:168|344:248,1,140,2|4
152,240,56107,1,2
352,240,56440,1,2
256,144,56773,2,0,B|224:104|184:120|152:104|160:48,1,140,2|0
336,56,57273,5,0
336,56,57607,1,4
408,144,57940,2,2,B|320:184,1,70,2|0
296,152,58273,1,0
296,120,58357,1,0
280,96,58440,2,0,B|240:64|200:64|160:88|152:112,1,140
120,152,58940,5,6
224,128,59107,1,0
192,216,59273,1,2
168,112,59440,2,0,B|184:64|232:48|288:56|304:80,1,140
256,112,59940,1,2
88,208,60273,5,2
112,224,60357,1,0
136,216,60440,1,0
160,232,60523,1,0
184,224,60607,1,2
208,216,60690,1,0
232,224,60773,1,0
256,232,60857,1,0
280,216,60940,2,0,B|328:200|352:240|392:232|416:192,1,140,0|2
368,96,61607,5,4
280,160,61940,2,0,B|360:152,3,70,2|0|0|0
440,208,62607,1,2
280,72,62940,5,4
184,104,63107,1,0
224,56,63273,5,2
240,112,63440,1,0
208,160,63607,2,0,B|120:168,2,70,0|0|2
264,168,64107,2,0,B|312:208|312:256|280:296,1,140,0|0
240,248,64607,2,0,B|264:208|320:224|352:208|360:168,1,140,2|0
320,144,65107,1,0
408,176,65273,1,2
192,72,65607,6,0,B|104:72,2,70,4|0|2
248,72,66107,1,0
224,128,66273,2,0,B|288:168|328:144|368:120,1,140,0|2
320,88,66773,2,0,B|272:120|296:160|288:200|224:200,1,140
152,152,67273,1,2
360,152,67607,1,0
120,152,67940,5,2
384,152,68273,1,6
288,96,68607,2,0,B|216:80,1,70,2|0
232,288,69107,2,0,B|304:256,2,70,0|2|0
296,200,69607,2,0,B|384:160|424:240|424:240|424:256,1,140,4|2
368,256,70107,1,0
352,200,70273,1,0
392,160,70440,1,0
360,112,70607,5,2
336,104,70690,1,0
312,96,70773,1,0
208,120,70940,1,2
232,128,71023,1,0
256,120,71107,1,0
272,104,71190,1,0
264,80,71273,1,2
248,64,71357,1,0
264,40,71440,1,0
288,32,71523,1,0
320,32,71607,2,0,B|384:24|368:96|456:80,1,140,0|2
448,24,72107,1,0
328,104,72273,6,6,B|168:104,1,140,6|0
192,312,72940,2,6,B|352:312,2,140,0|2|4
256,192,73773,12,0,78607
176,160,78940,5,0
288,160,79273,2,0,B|384:160,1,70,8|0
352,104,79607,1,0
296,88,79773,1,0
240,112,79940,1,8
200,216,80273,5,0
200,160,80440,1,0
152,192,80607,5,8
248,192,80773,1,0
248,248,80940,1,0
200,272,81107,1,0
152,248,81273,1,8
96,256,81440,2,0,B|48:184,1,70
80,144,81773,6,0,B|176:152,2,70,0|8|0
24,144,82273,2,0,B|24:88|72:72|104:64|144:80,1,140,0|8
136,128,82773,2,0,B|200:112|224:144|240:176|240:208,1,140
184,200,83273,1,8
296,192,83607,1,0
232,104,83940,5,8
184,80,84107,2,0,B|104:96,1,70
320,80,84607,2,8,B|408:104,1,70
424,144,84940,1,0
368,152,85107,1,0
400,200,85273,1,0
344,208,85440,6,0,B|288:152,1,70
264,200,85773,1,0
296,248,85940,2,0,B|280:344,1,70,8|0
232,296,86273,1,0
168,216,86440,1,0
272,208,86607,5,8
336,296,86773,1,0
232,272,86940,2,0,B|304:256,3,70,0|0|8|0
368,168,87773,1,0
336,120,87940,1,8
304,168,88107,5,0
400,120,88273,1,0
368,72,88440,5,0
264,56,88607,1,8
304,168,88773,1,0
