osu file format v9

[General]
AudioFilename: mawarupenguindrum_op1_512.mp3
AudioLeadIn: 1004
PreviewTime: 44258
Countdown: 0
SampleSet: Soft
StackLeniency: 0.7
Mode: 0
LetterboxInBreaks: 0

[Editor]
DistanceSpacing: 1
BeatDivisor: 4
GridSize: 4

[Metadata]
Title:Noruniru (TV Size)
Artist:Etsuko Yakushimaru and the Metro Orchestra
Creator:Kuma-san
Version:Hard
Source:Mawaru Penguindrum
Tags:Genesis44 Nornir

[Difficulty]
HPDrainRate:6
CircleSize:4
OverallDifficulty:6
ApproachRate:6
SliderMultiplier:1.4
SliderTickRate:2

[Events]
//Background and Video events
Video,0,"mawarupenguindrum_op1_512 (2).avi"
0,0,"Konachan.com - 109820 sample.jpg"
//Break Periods
//Storyboard Layer 0 (Background)
//Storyboard Layer 1 (Fail)
//Storyboard Layer 2 (Pass)
//Storyboard Layer 3 (Foreground)
//Storyboard Sound Samples
//Background Colour Transformations
3,100,163,162,255

[TimingPoints]
1561,352.941176470588,4,2,1,70,1,0
29266,-100,4,2,1,30,0,0
34553,-100,4,2,1,50,0,0
39316,-100,4,2,1,70,0,0
43913,-100,4,2,1,80,0,1
52384,-100,4,2,1,70,0,0
55208,-100,4,2,1,80,0,1
66502,-100,4,2,1,70,0,0
72132,-100,4,2,0,70,0,0
73226,-100,4,2,1,40,0,0
87590,-100,4,2,1,5,0,0

[Colours]
Combo1 : 249,207,43
Combo2 : 169,230,252
Combo3 : 252,167,192
Combo4 : 237,54,54
SliderBorder : 170,170,170

[HitObjects]
80,40,1561,6,0,B|80:120,3,70,0|0|8|0
200,40,2443,2,0,B|224:104|288:104|336:48,1,140
416,160,3149,2,0,B|416:216|328:256|288:208,1,140
176,224,3855,5,0
104,224,4031,1,8
104,152,4208,1,0
176,152,4384,2,0,B|248:152,3,70,0|0|8|0
384,136,5266,5,0
384,208,5443,1,8
312,208,5619,1,0
168,208,5972,1,0
96,208,6149,1,8
96,280,6325,1,0
224,328,6678,2,0,B|216:240|280:240|264:184,1,140
336,176,7208,6,0,B|272:88|192:56|16:104|0:240,1,420
68,252,8443,1,0
68,252,8619,2,0,B|100:156|212:132|276:180|300:252,1,280
396,136,9678,5,8
280,64,10031,1,0
280,204,10384,2,0,B|352:204,2,70,8|0|0
336,328,11090,1,8
192,328,11443,1,0
336,328,11796,2,0,B|336:256,1,70,8|0
336,184,12149,1,0
264,184,12325,1,0
80,96,12855,6,0,B|160:96,3,70,0|0|8|0
72,208,13737,1,0
72,280,13913,1,8
136,248,14090,1,0
272,216,14443,1,0
328,256,14619,1,8
264,288,14796,1,0
128,312,15149,6,0,B|56:312,2,70,0|8|0
128,240,15678,2,0,B|48:240,2,70,0|0|8
58,240,16208,1,0
80,104,16560,5,0
80,176,16737,1,8
80,104,16913,1,0
224,104,17266,1,0
224,176,17443,1,8
224,104,17619,1,0
80,104,17972,5,0
80,176,18149,1,8
148,176,18325,1,0
148,248,18502,2,0,B|148:396|360:396|376:248,1,350,0|0
372,184,19560,1,0
300,184,19737,2,0,B|156:184,1,140
120,240,20266,2,0,B|104:296|32:296|16:232,1,140,0|2
112,136,20972,5,8
252,136,21325,1,0
392,136,21678,2,0,B|488:136,1,70,8|0
344,212,22208,1,0
292,256,22384,1,8
232,292,22560,1,0
360,348,22913,2,0,B|424:276,1,70,0|8
444,236,23266,5,0
388,192,23443,1,0
336,148,23619,1,0
280,108,23796,1,8
216,76,23972,2,0,B|160:132,1,70,0|6
44,192,24502,6,0,B|152:300,1,140
142,290,25208,1,0
280,292,25560,5,0
188,188,25913,1,0
328,192,26266,1,0
224,96,26619,1,0
364,88,26972,5,6
360,228,27325,2,0,B|408:244|440:220,1,70
428,227,27678,2,0,B|472:220|472:172,1,70
472,180,28031,2,0,B|488:124|456:100,1,70
396,116,28384,5,2
328,116,28560,1,2
256,116,28737,1,10
188,116,28913,1,2
48,116,29266,5,2
120,116,29443,1,10
120,184,29619,1,2
84,244,29796,2,0,B|196:356,1,140,0|8
324,344,30502,1,0
444,268,30855,5,8
444,196,31031,1,0
372,196,31208,1,0
232,192,31560,1,8
92,192,31913,1,0
92,332,32266,5,8
164,332,32443,1,0
304,336,32796,2,0,B|472:336,2,140,2|2|2
340,200,33855,5,0
340,272,34031,1,0
184,268,34560,6,0,B|120:280|68:260|32:220,1,140
8,184,35090,2,0,B|12:128|44:80|100:60,1,140,8|0
148,56,35619,2,0,B|199:33|256:38|300:79,1,140
348,88,36149,2,0,B|400:88|444:136|444:200,1,140,0|8
468,316,36855,1,0
328,320,37208,6,0,B|288:352|212:344|176:324,1,140,8|0
224,268,37737,2,0,B|176:232|100:236|60:264,1,140
36,296,38266,2,0,B|8:252|4:192|20:152,1,140,0|8
88,172,38796,2,0,B|144:136|160:56,1,140
232,60,39325,1,8
232,132,39502,5,0
232,200,39678,1,0
304,200,39855,1,0
304,268,40031,1,8
376,268,40208,1,0
496,340,40561,6,0,B|352:340,1,140
216,340,41266,2,0,B|216:260,1,70,0|8
216,340,41619,2,0,B|128:340,1,70
216,340,41972,2,0,B|312:340,1,70,0|8
256,192,42502,12,4,43913
64,72,44266,5,10
208,72,44619,1,2
352,72,44972,1,10
352,216,45325,1,2
208,216,45678,1,10
136,216,45855,1,2
40,112,46208,1,14
108,112,46384,2,0,B|180:80|256:132,1,140,8|0
340,224,47090,5,10
204,248,47443,1,2
64,244,47796,1,10
144,128,48149,2,2,B|232:128,2,70,2|2|10
144,200,48678,1,10
288,200,49031,1,10
296,128,49208,2,0,B|232:96,1,70,4|4
224,168,49561,2,0,B|160:136,1,70,4|0
104,88,49913,6,2,B|8:88,1,70,10|2
32,168,50266,2,2,B|112:168,1,70
104,240,50619,1,10
104,312,50796,2,2,B|200:312,3,70,2|2|2|10
248,312,51502,1,2
392,312,51855,2,2,B|464:312,1,70,6|10
432,248,52208,2,0,B|360:248,1,70,0|4
256,192,52737,12,0,54855
188,288,55208,5,0
48,288,55561,2,2,B|48:216,1,70,10|2
48,152,55913,2,2,B|48:72,1,70
120,80,56266,2,2,B|200:80,1,70,10|2
264,80,56619,2,2,B|344:80,2,70,2|2|14
264,152,57149,1,2
264,288,57502,5,4
304,232,57678,1,12
344,176,57855,1,0
384,120,58031,1,4
256,56,58384,5,8
256,200,58737,1,0
128,144,59090,1,8
168,280,59443,5,0
96,280,59619,1,0
24,280,59796,1,8
24,208,59972,1,4
96,208,60149,2,0,B|184:208,1,70,4|0
224,248,60502,2,0,B|304:208,1,70,8|4
352,192,60855,1,4
400,64,61208,6,0,B|304:64,1,70,8|0
256,64,61561,1,0
184,64,61737,1,0
112,64,61913,2,0,B|112:144,1,70,8|0
112,208,62266,1,0
184,208,62443,1,0
256,208,62619,1,8
328,208,62796,2,0,B|328:352,1,140,0|0
48,320,63502,5,0
120,320,63678,1,0
192,320,63855,1,0
200,248,64031,2,0,B|256:192|344:192|392:256,1,210
256,192,64737,12,0,66149
48,48,66502,5,4
192,48,66855,1,8
264,48,67031,1,0
264,192,67384,2,0,B|112:192,1,140
124,264,67913,1,0
264,264,68266,1,8
336,264,68443,1,0
256,192,68796,12,0,71796
272,264,72149,6,2,B|312:264,8,35
284,124,73208,1,0
216,136,73384,1,0
160,176,73561,1,4
124,236,73737,1,0
64,272,73913,2,0,B|64:360,2,70,8|0|0
48,132,74619,5,8
76,68,74796,1,0
144,88,74972,1,0
216,208,75325,1,8
136,320,75678,1,0
208,320,75855,2,0,B|356:320,1,140
352,248,76384,1,0
352,104,76737,5,8
208,104,77090,1,0
72,104,77443,1,8
184,192,77796,2,0,B|152:144|48:144|16:232,1,210
152,264,78678,2,0,B|224:264,3,70,0|8|0|0
352,312,79561,5,8
464,232,79913,1,4
416,184,80090,1,4
288,128,80443,2,0,B|288:48,1,70
168,128,80972,1,8
168,272,81325,5,4
240,272,81502,1,4
328,160,81855,1,0
328,88,82031,1,0
192,88,82384,1,4
124,88,82561,2,0,B|80:88|80:184|4:188,2,140,4|0|0
256,192,83443,12,2,87678
