osu file format v14

[General]
AudioFilename: nornir (TVSize).mp3
AudioLeadIn: 0
PreviewTime: 44831
Countdown: 0
SampleSet: None
StackLeniency: 0.7
Mode: 1
LetterboxInBreaks: 0
WidescreenStoryboard: 1

[Editor]
DistanceSpacing: 1
BeatDivisor: 4
GridSize: 4
TimelineZoom: 2.2

[Metadata]
Title:nornir (TVSize)
TitleUnicode:nornir (TVSize)
Artist:Etsuko Yakushimaru
ArtistUnicode:Etsuko Yakushimaru
Creator:gemigumi
Version:Futsuu
Source:Mawaru Penguindrum
Tags:anime
BeatmapID:721153
BeatmapSetID:324585

[Difficulty]
HPDrainRate:5
CircleSize:5
OverallDifficulty:5
ApproachRate:5
SliderMultiplier:1.4
SliderTickRate:1

[Events]
//Background and Video events
0,0,"gemigumi general nornir background.jpg",0,0
//Break Periods
//Storyboard Layer 0 (Background)
//Storyboard Layer 1 (Fail)
//Storyboard Layer 2 (Pass)
//Storyboard Layer 3 (Foreground)
//Storyboard Sound Samples

[TimingPoints]
2655,352.941176470588,4,1,0,100,1,0
45007,-100,4,1,0,100,0,1
74302,-100,4,1,0,100,0,0

[HitObjects]
256,192,1243,6,0,P|320:164|336:76,3,140
256,192,2655,1,0,0:0:0:0:
256,192,3007,1,0,0:0:0:0:
256,192,3360,1,0,0:0:0:0:
256,192,3713,1,8,0:0:0:0:
256,192,4066,1,0,0:0:0:0:
256,192,4596,1,0,0:0:0:0:
256,192,5125,1,8,0:0:0:0:
256,192,5478,1,0,0:0:0:0:
256,192,5831,1,8,0:0:0:0:
256,192,6184,1,0,0:0:0:0:
256,192,6537,1,0,0:0:0:0:
256,192,6890,1,0,0:0:0:0:
256,192,7419,1,0,0:0:0:0:
256,192,7772,1,8,0:0:0:0:
256,192,7949,1,8,0:0:0:0:
256,192,8302,1,0,0:0:0:0:
256,192,8831,1,0,0:0:0:0:
256,192,9360,1,8,0:0:0:0:
256,192,9713,1,0,0:0:0:0:
256,192,10243,1,0,0:0:0:0:
256,192,10772,1,8,0:0:0:0:
256,192,11125,1,0,0:0:0:0:
256,192,11478,1,0,0:0:0:0:
256,192,11831,1,0,0:0:0:0:
256,192,12184,1,8,0:0:0:0:
256,192,12537,1,0,0:0:0:0:
256,192,12890,1,0,0:0:0:0:
256,192,13243,1,0,0:0:0:0:
256,192,13596,1,12,0:0:0:0:
256,192,13949,1,0,0:0:0:0:
256,192,14478,1,0,0:0:0:0:
256,192,15007,1,8,0:0:0:0:
256,192,15360,1,0,0:0:0:0:
256,192,15713,1,0,0:0:0:0:
256,192,16066,1,0,0:0:0:0:
256,192,16419,1,8,0:0:0:0:
256,192,16772,1,0,0:0:0:0:
256,192,16949,1,0,0:0:0:0:
256,192,17125,1,0,0:0:0:0:
256,192,17302,1,0,0:0:0:0:
256,192,17831,1,8,0:0:0:0:
256,192,18184,1,0,0:0:0:0:
256,192,18713,1,0,0:0:0:0:
256,192,19243,1,8,0:0:0:0:
256,192,19596,1,0,0:0:0:0:
256,192,19949,1,0,0:0:0:0:
256,192,20302,1,8,0:0:0:0:
256,192,20654,1,8,0:0:0:0:
256,192,21007,1,0,0:0:0:0:
256,192,21537,1,0,0:0:0:0:
256,192,22066,1,8,0:0:0:0:
256,192,22419,1,8,0:0:0:0:
256,192,22772,1,8,0:0:0:0:
256,192,23125,1,0,0:0:0:0:
256,192,23478,1,0,0:0:0:0:
256,192,23831,1,8,0:0:0:0:
256,192,24360,1,8,0:0:0:0:
256,192,24890,1,0,0:0:0:0:
256,192,25243,1,0,0:0:0:0:
256,192,25596,1,0,0:0:0:0:
256,192,25949,1,8,0:0:0:0:
256,192,26125,1,8,0:0:0:0:
256,192,26302,1,8,0:0:0:0:
256,192,26654,1,0,0:0:0:0:
256,192,27007,1,0,0:0:0:0:
256,192,27360,1,8,0:0:0:0:
256,192,27537,1,8,0:0:0:0:
256,192,27713,1,8,0:0:0:0:
256,192,28066,1,0,0:0:0:0:
256,192,28419,1,0,0:0:0:0:
256,192,28772,1,8,0:0:0:0:
256,192,28949,1,8,0:0:0:0:
256,192,29125,1,8,0:0:0:0:
256,192,29478,1,8,0:0:0:0:
256,192,29831,1,8,0:0:0:0:
256,192,30184,1,8,0:0:0:0:
256,192,30537,1,0,0:0:0:0:
256,192,30890,1,0,0:0:0:0:
256,192,31596,1,0,0:0:0:0:
256,192,32302,1,8,0:0:0:0:
256,192,33007,1,8,0:0:0:0:
256,192,33713,1,0,0:0:0:0:
256,192,34419,1,0,0:0:0:0:
256,192,34772,1,0,0:0:0:0:
256,192,35125,1,8,0:0:0:0:
256,192,35831,1,8,0:0:0:0:
276,196,36537,1,0,0:0:0:0:
276,196,37243,1,8,0:0:0:0:
276,196,37949,1,0,0:0:0:0:
276,196,38654,1,8,0:0:0:0:
276,196,39007,1,8,0:0:0:0:
276,196,39360,1,8,0:0:0:0:
276,196,39713,1,0,0:0:0:0:
276,196,40066,1,8,0:0:0:0:
276,196,40419,1,8,0:0:0:0:
276,196,40772,1,0,0:0:0:0:
276,196,41478,1,0,0:0:0:0:
276,196,42184,1,0,0:0:0:0:
276,196,42360,1,0,0:0:0:0:
276,196,42537,1,0,0:0:0:0:
276,196,42890,1,0,0:0:0:0:
276,196,43243,1,0,0:0:0:0:
276,196,43596,1,0,0:0:0:0:
276,196,43772,1,0,0:0:0:0:
276,196,43949,1,0,0:0:0:0:
276,196,44302,1,0,0:0:0:0:
276,196,44654,1,0,0:0:0:0:
276,196,45007,1,0,0:0:0:0:
276,196,45360,1,0,0:0:0:0:
276,196,45713,1,8,0:0:0:0:
276,196,46066,1,0,0:0:0:0:
276,196,46419,1,8,0:0:0:0:
276,196,46596,1,8,0:0:0:0:
276,196,46772,1,8,0:0:0:0:
276,196,46949,1,8,0:0:0:0:
276,196,47302,1,8,0:0:0:0:
276,196,48184,1,0,0:0:0:0:
276,196,48537,1,8,0:0:0:0:
276,196,48890,1,0,0:0:0:0:
276,196,49243,1,0,0:0:0:0:
276,196,49419,1,0,0:0:0:0:
276,196,49596,1,0,0:0:0:0:
276,196,49772,1,8,0:0:0:0:
276,196,50125,1,8,0:0:0:0:
276,196,51007,1,0,0:0:0:0:
276,196,51360,1,8,0:0:0:0:
276,196,51713,1,0,0:0:0:0:
276,196,52066,1,8,0:0:0:0:
276,196,52243,1,8,0:0:0:0:
276,196,52419,1,8,0:0:0:0:
276,196,52596,1,8,0:0:0:0:
276,196,52949,1,8,0:0:0:0:
276,196,53478,1,0,0:0:0:0:
276,196,53831,1,0,0:0:0:0:
276,196,54184,1,8,0:0:0:0:
276,196,54537,1,8,0:0:0:0:
276,196,54890,1,0,0:0:0:0:
276,196,55066,1,0,0:0:0:0:
276,196,55243,1,0,0:0:0:0:
276,196,55419,1,8,0:0:0:0:
276,196,55772,1,8,0:0:0:0:
276,196,56302,1,0,0:0:0:0:
276,196,56654,1,0,0:0:0:0:
276,196,57007,1,8,0:0:0:0:
276,196,57184,1,8,0:0:0:0:
276,196,57360,1,8,0:0:0:0:
276,196,57713,1,0,0:0:0:0:
276,196,58066,1,0,0:0:0:0:
276,196,58419,1,8,0:0:0:0:
276,196,58772,1,8,0:0:0:0:
276,196,59478,1,8,0:0:0:0:
276,196,59831,1,0,0:0:0:0:
276,196,60007,1,0,0:0:0:0:
276,196,60184,1,0,0:0:0:0:
276,196,60537,1,0,0:0:0:0:
276,196,60890,1,0,0:0:0:0:
276,196,61243,1,8,0:0:0:0:
276,196,61596,1,8,0:0:0:0:
276,196,62302,1,0,0:0:0:0:
276,196,62654,1,8,0:0:0:0:
276,196,63007,1,0,0:0:0:0:
276,196,63360,1,8,0:0:0:0:
276,196,63537,1,8,0:0:0:0:
276,196,63713,1,8,0:0:0:0:
276,196,63890,1,8,0:0:0:0:
276,196,64243,1,0,0:0:0:0:
276,196,64772,1,0,0:0:0:0:
276,196,65302,1,0,0:0:0:0:
276,196,65831,1,8,0:0:0:0:
276,196,66184,1,0,0:0:0:0:
276,196,66713,1,0,0:0:0:0:
276,196,67243,1,8,0:0:0:0:
276,196,67596,1,0,0:0:0:0:
276,196,67949,1,0,0:0:0:0:
276,196,68302,1,0,0:0:0:0:
276,196,68654,1,8,0:0:0:0:
276,196,69007,1,0,0:0:0:0:
276,196,69537,1,0,0:0:0:0:
276,196,70066,1,8,0:0:0:0:
276,196,70419,1,0,0:0:0:0:
276,196,70772,1,0,0:0:0:0:
276,196,71125,1,0,0:0:0:0:
276,196,71478,1,8,0:0:0:0:
276,196,71831,1,0,0:0:0:0:
276,196,72184,1,0,0:0:0:0:
276,196,72537,1,0,0:0:0:0:
276,196,72890,1,8,0:0:0:0:
276,196,73243,2,8,L|368:164,6,70
276,196,74654,1,0,0:0:0:0:
276,196,75360,1,0,0:0:0:0:
276,196,76066,1,0,0:0:0:0:
276,196,76419,1,8,0:0:0:0:
276,196,76772,1,8,0:0:0:0:
276,196,77478,1,0,0:0:0:0:
276,196,78184,1,0,0:0:0:0:
276,196,78890,1,0,0:0:0:0:
276,196,79243,1,8,0:0:0:0:
276,196,79596,1,8,0:0:0:0:
276,196,79949,1,8,0:0:0:0:
276,196,80302,1,0,0:0:0:0:
276,196,81007,1,0,0:0:0:0:
276,196,81713,1,0,0:0:0:0:
276,196,82419,1,0,0:0:0:0:
276,196,83125,1,0,0:0:0:0:
276,196,83478,1,8,0:0:0:0:
276,196,83831,1,0,0:0:0:0:
276,196,84184,1,8,0:0:0:0:
276,196,84537,1,0,0:0:0:0:
276,196,84890,1,8,0:0:0:0:
276,196,85243,1,0,0:0:0:0:
276,196,85596,1,8,0:0:0:0:
256,192,85949,12,8,88772,0:0:0:0:
