osu file format v9

[General]
AudioFilename: Etro Anime - Danger.mp3
AudioLeadIn: 3000
PreviewTime: -1
Countdown: 1
SampleSet: Normal
StackLeniency: 0.6
Mode: 0
LetterboxInBreaks: 1

[Editor]
DistanceSpacing: 0.8
BeatDivisor: 4
GridSize: 32

[Metadata]
Title:Danger
Artist:Etro Anime
Creator:OmniDespair
Version:OmniHard
Source:Shin Megami Tensei: Digital Devil Saga
Tags:Video Game

[Difficulty]
HPDrainRate:4
CircleSize:5
OverallDifficulty:5
ApproachRate:5
SliderMultiplier:1
SliderTickRate:1

[Events]
//Background and Video events
//Break Periods
2,67003,75481
2,140906,162555
//Storyboard Layer 0 (Background)
//Storyboard Layer 1 (Fail)
//Storyboard Layer 2 (Pass)
//Storyboard Layer 3 (Foreground)
//Storyboard Sound Samples
//Background Colour Transformations
3,100,255,0,0

[TimingPoints]
4,340.909090909091,4,1,0,100,1,0

[Colours]
Combo1 : 248,62,7
Combo2 : 32,168,213
Combo3 : 185,17,227
Combo4 : 44,227,17

[HitObjects]
96,160,35,2,0,B|224:160,1,125
288,160,1681,2,0,B|416:160,1,125
352,224,3328,1,0
288,224,3694,1,0
224,224,4425,1,0
160,224,4974,1,0
160,256,5889,1,0
224,256,6620,1,0
288,256,7352,1,0
352,256,7901,1,0
256,192,11559,1,0
96,96,12657,1,0
160,96,13023,1,0
96,160,13937,1,0
160,160,14486,1,0
352,96,15401,1,0
416,96,15767,1,0
352,160,16864,1,0
416,160,17230,1,0
160,288,18511,1,0
224,288,19059,1,0
288,288,20523,1,0
352,288,21072,1,0
160,160,22535,5,0
256,160,23084,1,0
352,160,23633,1,0
256,224,24547,1,0
160,192,26765,5,0
256,160,27106,1,0
352,192,27447,1,0
256,224,27788,1,0
160,160,29486,5,0
256,224,29852,1,0
352,160,30218,1,0
160,288,32646,5,0
160,288,32816,1,0
256,224,33157,1,0
256,224,33413,1,0
352,160,33668,1,0
256,96,34009,1,0
160,160,34350,1,0
256,224,34691,1,0
352,288,34947,1,0
352,288,35117,1,0
192,224,35969,5,0
320,224,36140,1,0
256,224,36396,1,0
256,288,36736,1,0
256,160,37077,1,0
256,224,37333,2,0,B|256:320,2,75
320,128,38998,5,0
288,224,39181,1,0
224,224,39547,1,0
192,128,40096,1,0
256,192,40645,1,0
320,128,41011,1,0
160,64,42840,5,0
352,64,43389,1,0
352,320,43937,1,0
160,320,44669,1,0
160,224,45035,1,0
256,224,45218,1,0
352,224,45401,1,0
320,128,45950,1,0
192,128,46315,1,0
256,320,46864,5,0
320,256,47230,1,0
192,224,47779,1,0
320,192,47962,1,0
192,160,48145,1,0
320,128,48511,1,0
256,64,48876,1,0
256,192,49242,1,0
384,192,49608,1,0
256,256,51437,5,0
160,192,51803,1,0
256,128,52169,1,0
352,192,52535,1,0
192,256,55096,5,0
320,256,55462,1,0
256,192,55828,1,0
256,160,56194,1,0
256,128,56376,1,0
256,96,56559,1,0
192,128,56925,1,0
320,128,57291,1,0
320,192,57840,1,0
192,192,58389,1,0
256,288,58755,5,0
256,256,58937,1,0
256,224,59120,1,0
256,192,59486,1,0
96,64,60584,5,0
160,128,60950,1,0
96,192,61315,1,0
160,256,61681,1,0
416,64,63145,5,0
320,128,63876,1,0
416,160,64425,1,0
320,224,64974,1,0
224,160,66437,5,0
256,160,66803,1,0
96,320,76681,5,0
160,256,77047,1,0
224,320,77413,1,0
288,256,77779,1,0
288,192,78511,1,0
352,128,78876,1,0
416,64,79425,1,0
416,192,79608,1,0
288,64,79974,1,0
352,128,80340,1,0
128,128,81255,5,0
64,64,81437,1,0
192,64,81803,1,0
64,192,82169,1,0
192,192,82535,1,0
128,128,82901,1,0
256,64,84364,5,0
256,192,84730,1,0
256,320,85096,1,0
192,128,85645,5,0
256,128,86011,1,0
320,128,86376,1,0
224,256,87657,5,0
288,96,88023,1,0
224,96,88206,1,0
288,256,88572,1,0
128,64,89303,5,0
192,128,89669,1,0
256,192,90035,1,0
320,256,90401,1,0
288,288,90584,1,0
224,288,90767,1,0
192,256,91133,1,0
256,224,91315,1,0
384,224,92047,5,0
320,160,92413,1,0
320,160,92596,1,0
256,224,92962,1,0
192,160,93328,1,0
128,224,93694,1,0
192,192,96072,5,0
256,128,96437,1,0
256,256,96803,1,0
320,192,97169,1,0
416,288,98815,5,0
352,224,98998,1,0
288,288,99181,1,0
224,224,99364,1,0
160,288,99547,1,0
96,224,99730,1,0
160,160,100096,1,0
256,160,100462,1,0
352,160,100828,1,0
160,288,103023,5,0
160,96,103389,1,0
352,288,103755,1,0
352,96,104120,1,0
256,96,105767,5,0
256,192,106133,1,0
256,288,106498,1,0
160,64,109059,5,0
224,64,109242,1,0
224,160,109608,1,0
160,160,109791,1,0
160,256,109974,1,0
224,256,110340,1,0
320,256,110706,1,0
320,160,111072,1,0
320,96,111255,1,0
320,160,111437,1,0
128,64,112352,5,0
128,128,112535,1,0
128,224,112901,1,0
192,288,113267,1,0
192,160,113633,1,0
320,160,113998,1,0
320,224,114181,1,0
256,192,115279,5,0
224,160,115462,1,0
256,128,115645,1,0
288,160,115828,1,0
320,96,116194,1,0
192,96,116559,1,0
192,224,117108,1,0
320,224,117474,1,0
320,192,119303,5,0
256,64,119669,1,0
192,192,120218,1,0
256,128,120767,1,0
192,288,121498,1,0
256,288,121681,1,0
320,288,121864,1,0
256,96,122230,1,0
256,192,122779,1,0
128,192,123328,5,0
384,192,123694,1,0
192,64,124242,1,0
320,64,124425,1,0
256,128,124608,1,0
288,192,125340,1,0
224,192,125523,1,0
256,96,125889,1,0
192,96,127535,5,0
192,320,127901,1,0
320,96,128267,1,0
320,320,128633,1,0
192,64,131194,5,0
320,64,131559,1,0
256,160,132291,1,0
256,224,132474,1,0
256,288,132840,1,0
192,224,133023,1,0
320,224,133389,1,0
256,96,133755,1,0
320,288,134303,5,0
192,288,134669,1,0
320,160,135035,1,0
192,160,135218,1,0
256,160,135401,1,0
256,64,135767,1,0
416,160,136864,5,0
320,192,137230,1,0
192,192,137596,1,0
96,160,137962,1,0
256,64,139791,5,0
256,192,140157,1,0
256,320,140706,1,0
256,192,163755,5,0
160,96,165035,1,0
256,96,166315,1,0
352,96,166864,1,0
256,192,167413,1,0
160,192,169265,1,0
256,192,169791,1,0
352,192,170157,1,0
256,224,170629,1,0
224,192,170799,1,0
288,192,170969,1,0
256,128,171140,1,0
320,96,171310,1,0
320,96,171481,1,0
256,32,172352,5,0
192,96,172718,1,0
192,128,172901,1,0
192,160,173084,1,0
320,96,173450,1,0
320,128,173633,1,0
320,160,173815,1,0
256,288,174547,1,0
256,160,175096,1,0
160,64,175828,1,0
224,128,176011,1,0
288,128,176376,1,0
352,64,176559,1,0
256,192,176925,1,0
256,192,177106,1,0
160,224,177840,5,0
192,160,178572,1,0
320,160,178937,1,0
352,224,179120,1,0
224,224,179486,1,0
288,224,179669,1,0
384,288,180004,1,0
256,288,180584,1,0
256,128,181026,1,0
256,160,181133,1,0
256,160,182047,1,0
256,32,183145,5,0
384,128,183694,1,0
288,192,184059,1,0
224,192,184425,1,0
224,128,185889,5,0
288,128,186437,1,0
224,192,186986,1,0
288,192,187169,1,0
256,256,187352,1,0
192,320,187718,1,0
320,320,188084,1,0
192,96,188633,5,0
320,96,188998,1,0
256,160,189547,1,0
256,192,189730,1,0
256,224,189913,1,0
256,320,190279,1,0
256,224,191011,5,0
256,192,191194,1,0
256,128,191559,1,0
160,288,193206,5,0
224,224,193572,1,0
288,160,193937,1,0
352,96,194303,1,0
64,64,196864,5,0
160,160,197230,1,0
64,224,197779,1,0
96,256,197962,1,0
128,288,198145,1,0
224,256,198511,1,0
288,192,198876,1,0
352,128,199242,1,0
416,64,199608,1,0
448,160,199974,1,0
416,224,200523,1,0
384,256,200706,1,0
352,288,200889,1,0
256,192,201255,1,0
256,64,202169,5,0
256,128,202718,1,0
256,224,203084,1,0
256,288,203450,1,0
160,224,204730,5,0
256,160,205096,1,0
352,224,205645,1,0
320,64,207840,5,0
320,160,208206,1,0
224,64,208755,1,0
192,96,208937,1,0
160,128,209120,1,0
96,64,209486,1,0
96,192,209852,1,0
224,192,210401,1,0
288,192,211498,5,0
320,128,211864,1,0
352,128,212047,1,0
384,192,212413,1,0
288,128,214059,5,0
224,128,214425,1,0
192,192,214791,1,0
320,192,215157,1,0
256,320,217535,5,0
256,192,218450,1,0
