osu file format v12

[General]
AudioFilename: Escape The Fate - Zombie Dance.mp3
AudioLeadIn: 0
PreviewTime: 60159
Countdown: 0
SampleSet: Normal
StackLeniency: 0.7
Mode: 0
LetterboxInBreaks: 0
WidescreenStoryboard: 0

[Editor]
Bookmarks: 21911,37271,53111,67991,83351,98711,114071,127511,140951,155351,167831,183191
DistanceSpacing: 1
BeatDivisor: 3
GridSize: 4
TimelineZoom: 1

[Metadata]
Title:Zombie Dance
TitleUnicode:Zombie Dance
Artist:Escape The Fate
ArtistUnicode:Escape The Fate
Creator:Mystyk
Version:Normal Collab
Source:
Tags:Aleks719 MystykAMV
BeatmapID:250060
BeatmapSetID:79780

[Difficulty]
HPDrainRate:4
CircleSize:4
OverallDifficulty:4
ApproachRate:5
SliderMultiplier:1.4
SliderTickRate:1

[Events]
//Background and Video events
0,0,"Escape_The_Fate.jpg",0,0
//Break Periods
2,75879,82159
2,129639,135919
//Storyboard Layer 0 (Background)
//Storyboard Layer 1 (Fail)
//Storyboard Layer 2 (Pass)
//Storyboard Layer 3 (Foreground)
Sprite,Foreground,Centre,"MystykAMV.png",320,240 L,83359,1 M,0,0,160,160,360,160,420 F,0,0,320,0,1 M,0,160,320,160,420,160,405 M,0,320,640,160,405,160,410 L,127519,1 M,0,0,,160,410 F,0,0,1760,1,0 S,0,0,1760,1,1.2 L,137119,1 M,0,0,160,160,500,160,400 F,0,0,320,0,1 M,0,160,320,160,400,160,415 M,0,320,640,160,415,160,410 L,183999,1 M,0,0,160,160,410,160,360 F,0,0,160,1,0 S,0,136119,,1
Sprite,Foreground,Centre,"MystykAMV.png",320,240 L,98719,1 M,0,0,,160,410 F,0,0,480,1,0 S,0,0,480,1.05,1.15 L,106399,1 M,0,0,,160,410 F,0,0,480,1,0 S,0,0,480,1,1.15 L,117919,1 M,0,0,,160,410 F,0,0,480,1,0 S,0,0,480,1,1.15 L,121759,1 M,0,0,,160,410 F,0,0,480,1,0 S,0,0,480,1.05,1.15 L,152479,1 M,0,0,,160,410 F,0,0,480,1,0 S,0,0,480,1,1.15 L,160159,1 M,0,0,,160,410 F,0,0,480,1,0 S,0,0,480,1,1.15 L,167839,1 M,0,0,,160,410 F,0,0,480,1,0 S,0,0,480,1,1.15 L,171679,1 M,0,0,,160,410 F,0,0,480,1,0 S,0,0,480,1,1.15 L,173599,1 M,0,0,,160,410 F,0,0,480,1,0 S,0,0,480,1.05,1.15 L,175519,1 M,0,0,,160,410 F,0,0,480,1,0 S,0,0,480,1.05,1.15
Sprite,Foreground,Centre,"Aleks.png",320,240 L,21919,1 M,0,0,160,160,500,160,400 F,0,0,320,0,1 M,0,160,320,160,400,160,415 M,0,320,640,160,415,160,410 L,75679,1 M,0,0,,160,410 F,0,0,480,1,0 S,0,0,480,1,1.15 L,183999,1 M,0,0,160,480,360,480,420 F,0,0,320,0,1 M,0,160,320,480,420,480,405 M,0,320,640,480,405,480,410 L,189759,1 M,0,0,,480,410 F,0,0,1760,1,0 S,0,0,1760,1,1.2 S,0,182999,,1
Sprite,Foreground,Centre,"Aleks.png",320,240 L,60319,1 M,0,0,,160,410 F,0,0,480,1,0 S,0,0,480,1,1.15 L,67999,1 M,0,0,,160,410 F,0,0,480,1,0 S,0,0,480,1,1.15
//Storyboard Sound Samples
//Background Colour Transformations
3,100,163,162,255

[TimingPoints]
21919,480,4,1,0,55,1,0
27759,-100,4,1,0,30,0,0
28239,-100,4,1,0,55,0,0
28719,-100,4,1,0,40,0,0
29199,-100,4,1,0,55,0,0
48719,-100,4,1,0,40,0,0
48879,-100,4,1,0,55,0,0
52559,-100,4,1,0,40,0,0
52719,-100,4,1,0,55,0,0
59199,-100,4,1,0,40,0,0
60319,-100,4,1,0,65,0,1
75039,-100,4,1,0,40,0,1
75679,-100,4,1,0,55,0,0
98079,-100,4,1,0,40,0,0
98719,-100,4,1,0,65,0,1
113599,-100,4,1,0,40,0,1
114079,-100,4,1,0,55,0,0
127919,-100,4,1,0,45,0,0
128239,-100,4,1,0,55,0,0
128399,-100,4,1,0,40,0,0
128719,-100,4,1,0,55,0,0
128879,-100,4,1,0,35,0,0
129199,-100,4,1,0,55,0,0
136079,-100,4,1,0,40,0,0
137039,-100,4,1,0,55,0,0
144239,-100,4,1,0,45,0,0
144719,-100,4,1,0,55,0,0
147839,-100,4,1,0,60,0,0
149519,-100,4,1,0,65,0,0
150479,-100,4,1,0,70,0,0
150959,-100,4,1,0,75,0,0
152479,-100,4,1,0,65,0,1
167679,-100,4,1,0,65,0,0
167839,-100,4,1,0,65,0,1
182159,-100,4,1,0,55,0,1
182479,-100,4,1,0,65,0,1
182639,-100,4,1,0,55,0,1
182959,-100,4,1,0,65,0,1
183199,-100,4,1,0,65,0,0
183439,-100,4,1,0,55,0,0
191519,-100,4,2,0,5,0,0

[Colours]
Combo1 : 228,208,10
Combo2 : 0,112,60
Combo3 : 128,0,0

[HitObjects]
188,136,21919,6,0,P|156:80|81:63,2,140,4|4|0,0:0|0:3|0:0,0:0:0:0:
324,136,23359,2,0,P|356:80|431:63,2,140,4|0|0,0:3|0:0|0:0,0:0:0:0:
320,276,24799,2,0,B|252:332|192:276|192:276,2,140,0|4|0,0:0|0:3|0:0,0:0:0:0:
408,168,26239,1,4,0:3:0:0:
408,168,26559,6,0,L|428:120,1,46.6666666666667,2|0,0:2|0:0,0:0:0:0:
340,72,27039,2,0,L|328:120,1,46.6666666666667,2|4,0:2|0:3,0:0:0:0:
256,60,27519,6,0,L|256:8,4,46.6666666666667,0|4|8|8|8,0:0|0:3|0:0|0:0|0:0,0:0:0:0:
183,117,28479,2,0,L|172:72,4,46.6666666666667,0|4|8|8|8,0:0|0:3|0:0|0:0|0:0,0:0:0:0:
104,168,29439,2,0,L|84:120,1,46.6666666666667,0|4,0:0|0:3,0:0:0:0:
77,265,30079,6,2,P|140:288|196:248,1,140,4|0,0:3|0:0,0:0:0:0:
256,376,31039,1,4,0:3:0:0:
316,248,31519,2,0,P|372:288|434:265,1,140,0|4,0:0|0:3,0:0:0:0:
468,128,32479,2,0,P|412:88|349:110,2,140,0|4|0,0:0|0:3|0:0,0:0:0:0:
324,192,33919,6,2,L|184:208,1,140,4|0,0:3|0:0,0:0:0:0:
172,116,34719,1,2,0:0:0:0:
172,116,34879,2,2,L|312:100,1,140,4|0,0:3|0:0,0:0:0:0:
336,268,35839,6,2,L|196:284,1,140,4|0,0:3|0:0,0:0:0:0:
216,372,36639,1,2,0:0:0:0:
216,372,36799,2,2,L|356:356,1,140,0|2,0:0|0:0,0:0:0:0:
376,216,37759,6,0,B|358:184|380:152|380:152|340:152|319:119,1,140,4|0,0:3|0:0,0:0:0:0:
200,44,38719,2,0,B|236:44|256:80|256:80|276:44|312:44,1,140,4|0,0:3|0:0,0:0:0:0:
192,119,39679,2,0,B|172:152|132:152|132:152|154:184|136:216,1,140,4|0,0:3|0:0,0:0:0:0:
160,308,40479,2,0,L|212:300|212:300,1,46.6666666666667,2|0,0:2|0:0,0:0:0:0:
305,300,40959,2,0,L|352:308,1,46.6666666666667,2|0,0:2|0:0,0:0:0:0:
368,168,41599,6,2,P|312:196|236:180,1,140,4|0,0:3|0:2,0:0:0:0:
144,80,42559,2,2,P|200:52|273:66,1,140,4|0,0:3|0:0,0:0:0:0:
368,168,43519,6,2,P|382:94|354:38,1,140,4|0,0:3|0:0,0:0:0:0:
220,132,44479,2,2,P|204:204|232:260,1,140,4|4,0:3|0:0,0:0:0:0:
352,336,45439,5,4,0:3:0:0:
484,288,45919,2,0,B|496:244|472:192|484:148,1,140,0|4,0:0|0:3,0:0:0:0:
404,280,46879,2,0,B|416:236|392:184|404:140,1,140,0|4,0:0|0:3,0:0:0:0:
324,272,47839,2,0,B|336:228|312:176|324:132,1,140,0|4,0:0|0:3,0:0:0:0:
232,24,48799,6,2,P|168:52|96:36,1,140,2|4,0:0|0:3,0:0:0:0:
172,160,49759,2,0,P|200:224|184:296,1,140,0|4,0:0|0:3,0:0:0:0:
325,290,50719,2,0,P|312:224|340:160,1,140,0|4,0:0|0:3,0:0:0:0:
410,38,51679,2,2,P|344:52|280:24,1,140,2|4,0:0|0:3,0:0:0:0:
256,164,52639,1,2,0:0:0:0:
120,140,53119,5,4,0:3:0:0:
136,280,53599,1,0,0:0:0:0:
136,280,54079,2,0,P|152:344|208:320,1,140,4|0,0:3|0:0,0:0:0:0:
376,280,55039,2,0,P|360:344|305:323,1,140,4|0,0:3|0:0,0:0:0:0:
256,244,55839,5,2,0:2:0:0:
256,244,55999,1,4,0:3:0:0:
216,160,56319,1,2,0:2:0:0:
216,160,56479,2,0,B|232:136|232:136|224:80|272:28|352:36|400:96|376:160|332:188,2,280,4|2|2,0:0|0:2|0:2,0:0:0:0:
128,268,58879,1,2,0:3:0:0:
264,292,59359,2,0,L|296:332,5,46.6666666666667,8|8|8|8|8|8,0:0|0:0|0:0|0:0|0:0|0:0,0:0:0:0:
328,360,60319,6,2,P|396:348|404:280,1,140,6|8,0:0|0:0,0:0:0:0:
460,156,61279,2,0,B|388:152|388:152|340:204,1,140,2|8,0:0|0:0,0:0:0:0:
264,320,62239,2,2,P|276:252|248:188,1,140,0|8,0:0|0:0,0:0:0:0:
172,132,63039,5,8,0:0:0:0:
172,132,63199,2,0,P|160:200|188:264,1,140,2|10,0:0|0:0,0:0:0:0:
88,164,64159,2,2,P|73:96|23:47,1,140,2|10,0:0|0:0,0:0:0:0:
12,188,65119,2,2,P|26:255|76:304,1,140,2|10,0:0|0:0,0:0:0:0:
196,360,66079,5,2,0:0:0:0:
336,360,66559,1,10,0:0:0:0:
408,304,66879,2,2,L|452:328,1,46.6666666666667,10|0,0:0|0:0,0:0:0:0:
468,236,67359,2,0,L|512:220,1,46.6666666666667,2|8,0:0|0:0,0:0:0:0:
372,220,67999,6,2,P|308:228|232:216,1,140,6|8,0:0|0:0,0:0:0:0:
152,172,68799,1,8,0:0:0:0:
152,172,68959,2,0,B|135:126|148:83|126:30,1,140,2|10,0:0|0:0,0:0:0:0:
24,128,69919,2,2,B|40:173|27:216|47:266,1,140,2|8,0:3|0:0,0:0:0:0:
172,332,70879,5,2,0:0:0:0:
264,308,71199,2,2,L|312:328,1,46.6666666666667,2|8,0:0|0:0,0:0:0:0:
392,364,71679,1,2,0:0:0:0:
392,364,71839,2,2,B|412:308|376:264|376:264|380:228,1,140,0|10,0:0|0:0,0:0:0:0:
476,128,72799,2,2,B|456:184|492:228|492:228|488:264,1,140,0|10,0:0|0:0,0:0:0:0:
392,364,73759,6,2,P|324:380|256:348,1,140,2|8,0:0|0:0,0:0:0:0:
200,284,74559,2,0,L|144:272,1,46.6666666666667,10|2,0:0|0:0,0:0:0:0:
64,256,75039,2,0,L|32:220,4,46.6666666666667,0|8|0|8|4,0:0|0:0|0:0|0:0|0:0,0:0:0:0:
396,224,83359,6,0,P|380:292|324:332,1,140,4|0,0:0|0:0,0:0:0:0:
186,331,84319,2,0,P|132:292|116:224,2,140
256,208,85759,2,0,B|280:160|236:116|256:72,2,140
56,328,87519,6,0,L|92:296,1,46.6666666666667
80,204,87999,2,0,L|116:172,1,46.6666666666667,0|0,0:0|0:0,0:0:0:0:
120,80,88479,2,0,L|156:48,1,46.6666666666667,0|0,0:0|0:0,0:0:0:0:
248,28,88959,1,0,0:0:0:0:
248,28,89119,1,0,0:0:0:0:
336,136,89599,2,0,P|408:128|456:84,2,140
208,188,91039,6,0,P|208:256|160:304,1,140,0|0,1:0|0:0,0:0:0:0:
140,156,91999,2,0,P|192:115|257:132,1,140
140,228,92959,2,0,P|81:201|71:129,1,140
144,76,93759,6,0,L|188:60,1,46.6666666666667
280,84,94239,2,0,L|324:68,1,46.6666666666667,0|0,0:0|0:0,0:0:0:0:
456,28,94879,1,0,0:0:0:0:
460,168,95359,6,0,B|481:211|445:258|462:306,2,140
320,192,96799,1,0,0:0:0:0:
216,288,97279,2,0,P|148:284|104:232,1,140
308,40,98719,6,0,P|376:64|400:124,1,140,4|8,0:0|0:0,0:0:0:0:
400,260,99679,2,0,P|372:323|308:344,2,140,0|8|0,0:0|0:0|0:0,0:0:0:0:
400,124,101119,1,8,0:0:0:0:
264,92,101599,6,0,P|201:86|128:110,2,140,0|8|0,0:0|0:0|0:0,0:0:0:0:
400,124,103039,2,0,P|349:243|221:222,1,280,8|8,0:0|0:0,0:0:0:0:
96,156,104479,2,0,P|104:228|140:288,2,140,0|8|0,0:0|0:0|0:0,0:0:0:0:
152,28,105919,1,8,0:0:0:0:
284,80,106399,6,0,P|312:152|368:176,1,140,4|8,0:0|0:0,0:0:0:0:
468,272,107359,1,0,0:0:0:0:
376,292,107679,2,0,L|324:304,1,46.6666666666667,0|8,0:0|0:0,0:0:0:0:
256,360,108159,2,0,L|204:372,1,46.6666666666667
72,376,108799,1,8,0:0:0:0:
64,236,109279,6,0,B|48:184|80:144|64:96,2,140,0|8|0,0:0|0:0|0:0,0:0:0:0:
208,212,110719,2,0,P|248:88|384:68,1,280,8|8,0:0|0:0,0:0:0:0:
432,196,112159,2,0,P|360:204|316:160,2,140,0|8|0,0:0|0:0|0:0,0:0:0:0:
492,324,113599,2,0,P|428:340|352:336,1,140,8|4,0:0|0:0,0:0:0:0:
232,272,114559,6,0,P|212:212|216:136,2,140,8|0|8,0:0|0:0|0:0,0:0:0:0:
320,380,115999,1,0,0:0:0:0:
404,268,116479,2,0,B|424:232|380:168|400:132,1,140,8|0,0:0|0:0,0:0:0:0:
484,20,117439,1,8,0:0:0:0:
344,20,117919,5,4,0:0:0:0:
224,92,118399,2,0,P|176:140|108:156,2,140,8|0|8,0:0|0:0|0:0,0:0:0:0:
84,88,119839,2,0,P|36:136|56:208,1,140,0|8,0:0|0:0,0:0:0:0:
60,340,120799,2,0,P|128:316|176:268,1,140,0|8,0:0|0:0,0:0:0:0:
256,152,121759,1,4,0:0:0:0:
348,48,122239,6,0,P|408:88|432:152,2,140,8|0|8,0:0|0:0|0:0,0:0:0:0:
368,188,123679,2,0,P|432:224|488:200,2,140,0|8|0,0:0|0:0|0:0,0:0:0:0:
256,104,125119,1,8,0:0:0:0:
152,200,125599,6,0,P|168:268|216:316,1,140,0|8,0:0|0:0,0:0:0:0:
356,312,126559,2,0,P|340:244|292:196,1,140,0|8,0:0|0:0,0:0:0:0:
256,192,127519,12,4,129439,0:0:0:0:
316,192,137119,6,0,P|384:168|424:116,2,140,4|8|0,0:0|0:0|0:0,0:0:0:0:
176,192,138559,1,8,0:0:0:0:
40,228,139039,2,0,B|56:272|24:324|40:368,2,140,0|8|0,0:0|0:0|0:0,0:0:0:0:
20,88,140479,1,8,0:0:0:0:
152,44,140959,6,0,P|224:24|284:44,2,140,4|8|0,0:0|0:0|0:0,0:0:0:0:
144,184,142399,2,0,P|172:224|208:248,1,93.3333333333333,8|0,0:0|0:0,0:0:0:0:
396,224,143359,2,0,P|368:184|332:160,1,93.3333333333333,8|0,0:0|0:0,0:0:0:0:
152,104,144319,2,0,P|80:136|64:192,1,140,8|4,0:0|0:0,0:0:0:0:
184,264,145279,6,0,B|232:280|280:244|324:264,2,140,8|0|8,0:0|0:0|0:0,0:0:0:0:
156,128,146719,2,0,P|208:104|224:24,1,140,0|8,0:0|0:0,0:0:0:0:
96,80,147679,2,0,P|80:148|124:196,1,140,0|8,0:0|0:0,0:0:0:0:
256,240,148639,6,0,B|304:240|316:320|364:320,2,140,4|8|0,0:0|0:0|0:0,0:0:0:0:
132,172,150079,2,0,P|188:120|248:104,1,140,8|0,0:0|0:0,0:0:0:0:
388,88,151039,2,0,P|428:144|432:216,2,140,8|0|8,0:0|0:0|0:0,0:0:0:0:
248,76,152479,6,0,P|188:104|124:76,1,140,4|8,0:0|0:0,0:0:0:0:
0,144,153439,2,0,P|48:196|112:224,1,140,0|8,0:0|0:0,0:0:0:0:
240,276,154399,2,0,P|192:328|128:352,1,140,0|8,0:0|0:0,0:0:0:0:
4,288,155359,5,0,0:0:0:0:
60,212,155679,2,0,L|92:176,1,46.6666666666667,0|8,0:0|0:0,0:0:0:0:
184,160,156159,2,0,L|216:124,1,46.6666666666667
296,8,156799,2,0,P|357:40|391:99,2,140,8|0|8,0:0|0:0|0:0,0:0:0:0:
256,148,158239,6,0,P|300:216|352:240,1,140,0|8,0:0|0:0,0:0:0:0:
444,344,159199,2,0,P|404:364|356:368,1,93.3333333333333
316,340,159679,2,0,P|272:324|228:336,1,93.3333333333333,8|8,0:0|0:0,0:0:0:0:
184,344,160159,6,0,P|120:316|80:260,1,140,4|8,0:0|0:0,0:0:0:0:
32,128,161119,1,0,0:0:0:0:
112,76,161439,2,0,L|156:60,1,46.6666666666667,0|8,0:0|0:0,0:0:0:0:
248,36,161919,1,0,0:0:0:0:
248,36,162079,2,0,P|316:52|328:116,1,140,4|8,0:0|0:0,0:0:0:0:
284,248,163039,6,0,P|312:316|368:344,2,140,0|8|0,0:0|0:0|0:0,0:0:0:0:
216,124,164479,2,0,P|100:188|140:308,1,280,8|8,0:0|0:0,0:0:0:0:
220,352,165759,2,0,L|260:328,1,46.6666666666667
352,308,166239,2,0,L|392:284,1,46.6666666666667,0|8,0:0|0:0,0:0:0:0:
468,228,166719,1,0,0:0:0:0:
468,228,166879,2,0,P|460:164|396:136,1,140,0|8,0:0|0:0,0:0:0:0:
288,224,167839,6,0,P|228:216|184:152,2,140,4|8|0,0:0|0:0|0:0,0:0:0:0:
396,136,169279,1,8,0:0:0:0:
276,68,169759,2,0,P|216:32|148:36,1,140,0|8,0:0|0:0,0:0:0:0:
40,128,170719,2,0,P|44:204|92:240,1,140,0|8,0:0|0:0,0:0:0:0:
232,244,171679,6,0,P|281:238|312:264,1,93.3333333333333,4|0,0:0|0:0,0:0:0:0:
352,292,172159,2,0,P|420:294|468:247,1,140,8|0,0:0|0:0,0:0:0:0:
452,156,172959,1,0,0:0:0:0:
452,156,173119,2,0,P|432:120|384:100,1,93.3333333333333,8|0,0:0|0:0,0:0:0:0:
340,96,173599,6,0,P|284:120|208:104,2,140,0|8|0,0:0|0:0|0:0,0:0:0:0:
268,36,174879,2,0,P|244:20|224:20,1,46.6666666666667,0|8,0:0|0:0,0:0:0:0:
140,52,175359,2,0,P|124:72|120:92,1,46.6666666666667,8|4,0:0|0:0,0:0:0:0:
112,232,175999,1,8,0:0:0:0:
192,348,176479,6,0,P|256:320|316:348,2,140,0|8|0,0:0|0:0|0:0,0:0:0:0:
124,224,177919,2,0,P|256:176|380:224,1,280,8|8,0:0|0:0,0:0:0:0:
436,352,179359,2,0,P|368:360|300:336,2,140,0|8|0,0:0|0:0|0:0,0:0:0:0:
500,228,180799,1,8,0:0:0:0:
256,192,181279,12,4,183199,0:0:0:0:
272,264,183999,6,0,L|320:268,1,46.6666666666667,0|2,0:0|0:3,0:0:0:0:
328,176,184479,2,0,L|374:179,1,46.6666666666667,0|8,0:0|0:0,0:0:0:0:
384,88,184959,2,2,B|464:92|464:92|448:148|488:192,1,186.666666666667,0|8,0:0|0:0,0:0:0:0:
496,332,186079,6,0,P|432:352|356:336,1,140,2|8,0:3|0:0,0:0:0:0:
236,272,187039,2,2,P|168:280|104:320,1,140,0|8,0:0|0:0,0:0:0:0:
40,380,187839,5,0,0:0:0:0:
40,380,187999,2,0,L|28:284,1,93.3333333333333,2|0,0:3|0:0,0:0:0:0:
60,252,188479,2,0,L|72:144,1,93.3333333333333,10|2,0:0|0:0,0:0:0:0:
80,112,188959,2,0,P|140:144|208:132,1,140,0|8,0:0|0:0,0:0:0:0:
256,192,189759,12,4,191519,0:0:0:0:
