osu file format v12

[General]
AudioFilename: Escape The Fate - Zombie Dance.mp3
AudioLeadIn: 0
PreviewTime: 60159
Countdown: 0
SampleSet: Normal
StackLeniency: 0.7
Mode: 0
LetterboxInBreaks: 0
WidescreenStoryboard: 0

[Editor]
Bookmarks: 21911,37271,53111,67991,83351,98711,114071,127511,140951,155351,167831,183191
DistanceSpacing: 1.4
BeatDivisor: 3
GridSize: 4
TimelineZoom: 3.199998

[Metadata]
Title:Zombie Dance
TitleUnicode:Zombie Dance
Artist:Escape The Fate
ArtistUnicode:Escape The Fate
Creator:Mystyk
Version:Hard Collab
Source:
Tags:Aleks719 MystykAMV
BeatmapID:222451
BeatmapSetID:79780

[Difficulty]
HPDrainRate:7
CircleSize:4
OverallDifficulty:7
ApproachRate:8
SliderMultiplier:1.8
SliderTickRate:1

[Events]
//Background and Video events
0,0,"Escape_The_Fate.jpg",0,0
//Break Periods
//Storyboard Layer 0 (Background)
//Storyboard Layer 1 (Fail)
//Storyboard Layer 2 (Pass)
//Storyboard Layer 3 (Foreground)
Sprite,Foreground,Centre,"MystykAMV.png",320,240 L,21919,1 M,0,0,160,160,500,160,400 F,0,0,320,0,1 M,0,160,320,160,400,160,415 M,0,320,640,160,415,160,410 L,37279,1 M,0,0,160,160,410,160,360 F,0,0,160,1,0 L,52639,1 M,0,0,160,160,500,160,400 F,0,0,320,0,1 M,0,160,320,160,400,160,415 M,0,320,640,160,415,160,410 L,67999,1 M,0,0,160,160,410,110,410 F,0,0,160,1,0 L,83359,1 M,0,0,160,100,410,170,410 F,0,0,320,0,1 M,0,160,480,170,410,160,410 L,98239,1 F,0,0,480,1,0 S,0,0,480,1,1.1 L,114079,1 M,0,0,160,160,360,160,420 F,0,0,320,0,1 M,0,160,320,160,420,160,405 M,0,320,640,160,405,160,410 L,127039,1 M,0,0,160,160,410,160,460 F,0,0,160,1,0 L,140959,1 M,0,0,160,480,500,480,400 F,0,0,320,0,1 M,0,160,320,480,400,480,415 M,0,320,640,480,415,480,410 L,155359,1 M,0,0,160,480,410,480,360 F,0,0,160,1,0 L,167839,1 M,0,0,160,540,410,470,410 F,0,0,320,0,1 M,0,160,480,470,410,480,410 L,183199,1 F,0,0,480,1,0 S,0,0,480,1,1.1 S,0,114079,,1
Sprite,Foreground,Centre,"MystykAMV.png",320,240 L,60319,1 M,0,0,,160,410 F,0,0,480,1,0 S,0,0,480,1.05,1.15 L,117919,1 M,0,0,,160,410 F,0,0,480,1,0 S,0,0,480,1.05,1.15 L,121759,1 M,0,0,,160,410 F,0,0,480,1,0 S,0,0,480,1.05,1.15 L,152479,1 M,0,0,,480,410 F,0,0,480,1,0 S,0,0,480,1.05,1.15 L,171679,1 M,0,0,,480,410 F,0,0,480,1,0 S,0,0,480,1.05,1.15 L,173599,1 M,0,0,,480,410 F,0,0,480,1,0 S,0,0,480,1.05,1.15 L,175519,1 M,0,0,,480,410 F,0,0,480,1,0 S,0,0,480,1.05,1.15 S,0,60319,,1.05
Sprite,Foreground,Centre,"Aleks.png",320,240 L,37279,1 M,0,0,160,160,500,160,400 F,0,0,320,0,1 M,0,160,320,160,400,160,415 M,0,320,640,160,415,160,410 L,52639,1 M,0,0,160,160,410,160,360 F,0,0,160,1,0 L,67999,1 M,0,0,160,580,410,510,410 F,0,0,320,0,1 M,0,160,480,510,410,520,410 L,83359,1 F,0,0,480,1,0 S,0,0,480,0.9,1.1 L,98239,1 F,0,0,480,0,1 S,0,0,480,1,0.9 L,114079,1 M,0,0,160,520,410,520,360 F,0,0,160,1,0 L,127519,1 M,0,0,160,520,360,520,420 F,0,0,320,0,1 M,0,160,320,520,420,520,405 M,0,320,640,520,405,520,410 L,140959,1 M,0,0,160,520,410,520,360 F,0,0,160,1,0 L,155359,1 M,0,0,160,160,360,160,420 F,0,0,320,0,1 M,0,160,320,160,420,160,405 M,0,320,640,160,405,160,410 L,167839,1 M,0,0,160,160,410,110,410 F,0,0,160,1,0 L,183199,1 M,0,0,,160,410 F,0,0,480,0,1 S,0,0,480,1,0.9 S,0,37279,,0.9 F,0,129599,132319,1,0 R,0,129599,135199,0,6.28 F,0,132319,135199,0,1 F,0,189759,191519,1,0 S,0,189759,191519,0.9,1.2
Sprite,Foreground,Centre,"Aleks.png",320,240 L,75679,1 M,0,0,,520,410 F,0,0,480,1,0 S,0,0,480,1,1.15 L,98719,1 M,0,0,,520,410 F,0,0,480,1,0 S,0,0,480,1,1.15 L,106399,1 M,0,0,,520,410 F,0,0,480,1,0 S,0,0,480,1,1.15 L,137119,1 M,0,0,,520,410 F,0,0,480,1,0 S,0,0,480,1,1.15 L,160159,1 M,0,0,,160,410 F,0,0,480,1,0 S,0,0,480,1,1.15 S,0,75679,,1
//Storyboard Sound Samples
//Background Colour Transformations
3,100,163,162,255

[TimingPoints]
21919,480,4,1,0,55,1,0
27759,-100,4,1,0,30,0,0
28239,-100,4,1,0,55,0,0
28719,-100,4,1,0,40,0,0
29199,-100,4,1,0,55,0,0
48719,-100,4,1,0,40,0,0
48879,-100,4,1,0,55,0,0
52559,-100,4,1,0,40,0,0
52719,-100,4,1,0,55,0,0
59199,-100,4,1,0,40,0,0
60319,-100,4,1,0,65,0,1
75039,-100,4,1,0,40,0,1
75679,-100,4,1,0,55,0,0
98079,-100,4,1,0,40,0,0
98719,-100,4,1,0,65,0,1
113599,-100,4,1,0,40,0,1
114079,-100,4,1,0,55,0,0
127919,-100,4,1,0,45,0,0
128239,-100,4,1,0,55,0,0
128399,-100,4,1,0,40,0,0
128719,-100,4,1,0,55,0,0
128879,-100,4,1,0,35,0,0
129199,-100,4,1,0,55,0,0
136079,-100,4,1,0,40,0,0
137039,-100,4,1,0,55,0,0
144239,-100,4,1,0,45,0,0
144719,-100,4,1,0,55,0,0
147839,-100,4,1,0,60,0,0
149519,-100,4,1,0,65,0,0
150479,-100,4,1,0,70,0,0
150959,-100,4,1,0,75,0,0
152479,-100,4,1,0,65,0,1
167679,-100,4,1,0,65,0,0
167839,-100,4,1,0,65,0,1
182159,-100,4,1,0,55,0,1
182479,-100,4,1,0,65,0,1
182639,-100,4,1,0,55,0,1
182959,-100,4,1,0,65,0,1
183199,-100,4,1,0,65,0,0
183679,-100,4,1,0,55,0,0
191519,-100,4,2,0,5,0,0

[Colours]
Combo1 : 228,208,10
Combo2 : 0,112,60
Combo3 : 128,0,0

[HitObjects]
188,276,21919,6,0,P|256:324|328:276,1,180,4|4,0:0|0:3,0:0:0:0:
428,156,22719,1,0,0:0:0:0:
428,156,22879,1,0,0:0:0:0:
328,88,23199,1,0,0:0:0:0:
327,87,23359,2,0,P|271:66|215:83,1,120
184,160,23839,2,0,P|132:231|46:246,1,180
64,120,24639,5,0,0:0:0:0:
64,120,24799,1,0,0:0:0:0:
160,40,25119,1,0,0:0:0:0:
160,39,25279,2,0,P|218:49|258:92,1,120
258,92,25759,1,0,0:0:0:0:
236,280,26239,1,4,0:3:0:0:
316,204,26559,6,0,L|360:164,1,60
236,76,27039,2,0,L|192:116,1,60
64,192,27519,5,2,0:3:0:0:
60,220,27679,1,4,0:3:0:0:
66,248,27839,1,8,0:0:0:0:
81,272,27999,1,8,0:0:0:0:
104,289,28159,1,8,0:0:0:0:
407,289,28479,5,2,0:3:0:0:
430,272,28639,1,4,0:3:0:0:
445,248,28799,1,8,0:0:0:0:
451,220,28959,1,8,0:0:0:0:
448,192,29119,1,8,0:0:0:0:
256,192,29439,5,2,0:3:0:0:
256,192,29599,1,4,0:3:0:0:
256,24,29919,5,0,0:0:0:0:
256,24,30079,2,0,P|200:28|144:60,1,120,4|0,0:3|0:0,0:0:0:0:
92,124,30559,2,0,P|86:193|51:224,1,120
52,224,31039,1,0,0:0:0:0:
152,356,31359,1,0,0:0:0:0:
152,356,31519,2,0,P|210:369|268:352,1,120
288,272,31999,6,0,P|336:248|400:260,1,120,4|0,0:3|0:0,0:0:0:0:
404,343,32479,2,0,P|475:296|470:210,2,180
256,192,33919,2,2,B|252:180|252:180|260:168|260:168|252:152|252:152|260:136|260:136|252:116|252:116|260:96|260:96|256:80,1,120,4|0,0:3|0:0,0:0:0:0:
256,82,34399,1,0,0:0:0:0:
92,140,34719,1,0,0:0:0:0:
92,140,34879,2,0,B|95:153|95:153|87:173|87:173|95:193|95:193|87:209|87:209|95:225|95:225|87:237|87:237|91:249,1,120
91,249,35359,1,0,0:0:0:0:
420,249,35839,2,2,B|424:237|424:237|416:225|416:225|424:209|424:209|416:193|416:193|424:173|424:173|416:153|416:153|420:140,1,120,4|0,0:3|0:0,0:0:0:0:
412,56,36319,6,0,P|364:24|304:32,1,120
252,96,36799,2,0,P|188:120|140:108,1,120
140,108,37279,1,0,0:0:0:0:
32,280,37759,6,0,B|84:312|84:312|144:300,1,120,4|0,0:3|0:0,0:0:0:0:
200,236,38239,2,0,P|256:216|312:236,1,120,2|0,0:3|0:0,0:0:0:0:
370,300,38719,2,0,B|428:312|428:312|480:280,1,120,4|0,0:3|0:0,0:0:0:0:
500,208,39199,5,0,0:0:0:0:
256,304,39679,1,4,0:3:0:0:
12,208,39999,1,2,0:2:0:0:
12,208,40159,1,2,0:3:0:0:
104,324,40479,1,2,0:2:0:0:
104,324,40639,1,4,0:3:0:0:
408,324,40959,1,2,0:2:0:0:
408,324,41119,1,0,0:0:0:0:
472,28,41599,6,2,L|348:28,1,120,4|2,0:3|0:2,0:0:0:0:
388,100,42079,2,0,B|336:100|336:100|288:100|288:60,1,120,2|2,0:3|0:2,0:0:0:0:
124,100,42559,2,0,B|176:100|176:100|224:100|224:140,1,120,4|0,0:3|0:0,0:0:0:0:
224,136,43039,1,0,0:0:0:0:
64,352,43519,6,2,P|40:296|60:236,1,120,4|2,0:3|0:2,0:0:0:0:
124,292,43999,2,0,P|180:320|240:296,1,120,2|2,0:3|0:2,0:0:0:0:
184,236,44479,1,2,0:2:0:0:
164,156,44639,1,2,0:2:0:0:
184,76,44799,1,2,0:2:0:0:
236,12,44959,5,4,0:1:0:0:
364,340,45439,1,4,0:3:0:0:
32,216,45919,2,0,P|52:160|112:136,1,120,2|2,0:3|0:2,0:0:0:0:
184,120,46399,2,0,B|224:168|224:168|284:180,1,120,4|2,0:3|0:2,0:0:0:0:
360,188,46879,5,0,0:0:0:0:
360,188,47359,1,4,0:3:0:0:
256,288,47679,1,2,0:2:0:0:
256,288,47839,1,2,0:3:0:0:
112,292,48159,1,2,0:2:0:0:
112,292,48319,2,0,P|156:256|152:192,1,120,4|0,0:3|0:0,0:0:0:0:
116,128,48799,6,0,P|204:160|280:120,1,180,2|4,0:0|0:3,0:0:0:0:
424,24,49599,1,2,0:2:0:0:
424,24,49759,2,0,L|408:144,1,120,2|2,0:3|0:2,0:0:0:0:
484,124,50239,2,0,L|468:244,1,120,4|0,0:3|0:0,0:0:0:0:
456,320,50719,5,0,0:0:0:0:
152,348,51199,1,4,0:3:0:0:
372,288,51519,1,2,0:2:0:0:
372,288,51679,2,0,P|392:232|372:176,1,120,2|2,0:3|0:2,0:0:0:0:
312,232,52159,2,0,P|292:172|312:120,1,120,4|0,0:3|0:0,0:0:0:0:
360,56,52639,6,0,P|280:96|192:80,1,180,6|4,0:0|0:3,0:0:0:0:
68,192,53439,1,2,2:2:0:0:
28,268,53599,2,0,P|88:276|136:244,1,120,2|2,2:2|2:2,0:0:0:0:
200,192,54079,2,0,P|256:172|312:192,1,120,4|0,0:3|0:0,0:0:0:0:
328,272,54559,2,0,P|392:224|368:136,2,180,2|4|2,2:2|0:3|2:2,0:0:0:0:
168,320,55839,1,0,0:0:0:0:
168,320,55999,1,0,0:0:0:0:
300,164,56319,1,2,0:2:0:0:
300,164,56479,2,0,P|312:80|396:68,1,180,0|4,0:0|0:3,0:0:0:0:
464,220,57279,5,2,2:3:0:0:
464,220,57439,2,0,P|428:292|336:300,1,180,2|4,2:2|0:3,0:0:0:0:
48,220,58239,1,2,2:3:0:0:
48,220,58399,2,0,P|84:292|176:300,1,180,2|4,2:2|0:3,0:0:0:0:
340,224,59199,5,2,0:3:0:0:
315,238,59359,1,8,0:1:0:0:
288,248,59519,1,8,0:1:0:0:
259,251,59679,1,8,0:1:0:0:
231,249,59839,1,8,0:1:0:0:
203,241,59999,1,8,0:1:0:0:
178,228,60159,1,8,0:1:0:0:
160,208,60319,6,0,P|176:116|248:76,1,180,4|8,0:0|0:0,0:0:0:0:
256,176,61119,1,8,0:0:0:0:
256,176,61279,2,0,P|320:152|344:104,1,120
256,88,61759,2,0,P|192:108|168:152,1,120,8|0,0:0|0:0,0:0:0:0:
184,240,62239,2,0,L|364:268,1,180,0|8,0:0|0:0,0:0:0:0:
468,40,63039,5,8,0:0:0:0:
468,40,63199,2,0,P|418:50|384:106,1,120
472,220,63679,2,0,P|487:155|460:114,1,120,8|0,0:0|0:0,0:0:0:0:
376,268,64159,2,2,P|308:308|224:268,1,180,2|10,0:0|0:0,0:0:0:0:
64,72,64959,1,8,0:0:0:0:
64,72,65119,2,2,P|148:32|216:72,1,180,2|10,0:0|0:0,0:0:0:0:
332,192,65919,5,0,0:0:0:0:
332,192,66079,1,2,0:0:0:0:
256,344,66399,1,0,0:0:0:0:
256,344,66559,1,10,0:0:0:0:
180,192,66879,1,10,0:0:0:0:
180,192,67039,1,0,0:0:0:0:
256,40,67359,1,2,0:0:0:0:
256,40,67519,2,0,B|232:68|284:116|256:156,1,120,8|0,0:0|0:0,0:0:0:0:
212,232,67999,6,2,L|396:212,1,180,6|8,0:0|0:0,0:0:0:0:
472,48,68799,1,8,0:0:0:0:
472,48,68959,2,0,P|488:104|456:152,1,120,2|0,0:3|0:0,0:0:0:0:
456,344,69439,2,0,P|440:288|472:240,1,120,8|0,0:0|0:0,0:0:0:0:
512,300,69919,2,2,P|464:368|368:368,1,180,2|8,0:0|0:0,0:0:0:0:
48,188,70719,5,8,0:0:0:0:
56,192,70879,1,2,0:3:0:0:
356,176,71199,1,0,0:0:0:0:
348,172,71359,1,8,0:0:0:0:
200,248,71679,1,0,0:0:0:0:
208,252,71839,2,2,B|120:244|136:316|40:308,1,180,0|10,0:0|0:0,0:0:0:0:
312,248,72639,1,8,0:0:0:0:
304,252,72799,2,2,B|392:244|376:316|472:308,1,180,2|10,0:3|0:0,0:0:0:0:
340,128,73759,6,0,P|256:156|172:128,1,180,2|8,0:0|0:0,0:0:0:0:
352,40,74559,1,10,0:0:0:0:
352,40,74719,2,0,P|408:68|432:120,1,120,2|8,0:3|0:0,0:0:0:0:
424,200,75199,1,8,0:0:0:0:
364,260,75359,1,8,0:0:0:0:
280,268,75519,1,8,0:0:0:0:
204,232,75679,6,0,P|116:216|52:272,1,180,4|8,0:0|0:0,0:0:0:0:
212,368,76479,1,0,0:0:0:0:
212,368,76639,1,2,0:3:0:0:
332,184,76959,1,0,0:0:0:0:
332,184,77119,1,8,0:0:0:0:
468,360,77439,1,2,0:0:0:0:
468,360,77599,2,2,P|400:324|408:232,1,180,0|8,0:0|0:0,0:0:0:0:
464,88,78399,5,0,0:0:0:0:
464,88,78559,2,0,P|412:64|348:76,1,120,2|0,0:3|0:0,0:0:0:0:
276,268,79039,2,0,L|396:224,1,120,8|2,0:0|0:0,0:0:0:0:
392,144,79519,2,2,L|216:208,1,180,0|8,0:0|0:0,0:0:0:0:
64,324,80319,5,0,0:0:0:0:
64,324,80479,2,0,P|88:272|64:216,1,120,2|0,0:3|0:0,0:0:0:0:
36,36,80959,2,0,L|24:156,1,120,8|2,0:0|0:0,0:0:0:0:
16,268,81439,2,2,P|68:336|156:324,1,180,0|8,0:0|0:0,0:0:0:0:
256,192,82239,12,4,83359,0:0:0:0:
256,64,83679,5,0,0:0:0:0:
256,64,83839,2,0,P|236:116|180:144,1,120,4|2,0:3|0:2,0:0:0:0:
181,143,84319,1,2,0:2:0:0:
256,320,84639,1,2,0:2:0:0:
256,320,84799,2,0,P|276:268|332:240,1,120,4|2,0:3|0:2,0:0:0:0:
330,240,85279,1,2,0:2:0:0:
464,76,85599,6,0,L|420:116,1,60,0|4,0:0|0:3,0:0:0:0:
256,192,86079,2,0,L|300:152,1,60,2|2,0:2|0:2,0:2:0:0:
256,36,86559,2,0,L|212:76,1,60,2|4,0:2|0:3,0:0:0:0:
48,152,87039,2,0,L|92:112,1,60,0|2,0:0|0:2,0:0:0:0:
96,280,87519,5,0,0:0:0:0:
96,280,87679,2,0,P|152:296|208:276,1,120,4|2,0:3|0:2,0:0:0:0:
312,188,88159,2,0,P|256:172|200:192,1,120,2|0,0:2|0:0,0:0:0:0:
352,264,88639,2,0,P|396:220|392:164,1,120,4|2,0:3|0:2,0:0:0:0:
392,165,89119,1,2,0:2:0:0:
256,68,89439,5,0,0:0:0:0:
256,68,89599,1,4,0:3:0:0:
112,152,89919,1,2,0:2:0:0:
112,152,90079,1,2,0:2:0:0:
256,236,90399,1,0,0:0:0:0:
256,236,90559,1,2,0:3:0:0:
112,324,90879,1,2,0:2:0:0:
112,324,91039,1,2,0:2:0:0:
8,192,91359,5,0,0:0:0:0:
8,192,91519,2,0,P|16:132|56:92,1,120,4|2,0:3|0:2,0:0:0:0:
96,16,91999,2,0,P|140:60|140:116,1,120,2|0,0:2|0:0,0:0:0:0:
140,200,92479,2,0,P|200:184|224:136,1,120,4|2,0:3|0:2,0:0:0:0:
224,52,92959,2,0,P|296:80|300:172,1,180,2|4,0:2|0:3,0:0:0:0:
420,276,93759,5,2,0:2:0:0:
420,276,93919,1,2,0:2:0:0:
420,108,94239,1,0,0:0:0:0:
420,108,94399,1,4,0:3:0:0:
276,192,94719,2,0,L|216:192,1,60,2|2,0:2|0:2,0:0:0:0:
72,72,95199,5,0,0:0:0:0:
72,72,95359,2,0,P|100:120|160:132,1,120,4|2,0:3|0:2,0:0:0:0:
310,55,95839,2,0,P|256:36|200:56,1,120,2|0,0:2|0:0,0:0:0:0:
352,132,96319,2,0,P|412:120|440:72,1,120,4|2,0:3|0:2,0:0:0:0:
439,72,96799,1,2,0:2:0:0:
476,244,97119,5,2,0:2:0:0:
408,288,97279,2,0,P|353:307|297:287,1,120,4|2,0:3|0:2,0:0:0:0:
212,248,97759,2,0,P|156:228|101:247,1,120,4|2,0:3|0:2,0:0:0:0:
48,312,98239,1,2,2:0:0:0:
352,228,98719,6,0,P|424:180|412:92,1,180,4|8,0:0|0:0,0:0:0:0:
228,188,99519,1,8,0:0:0:0:
216,196,99679,2,0,P|192:252|216:312,1,120,2|0,0:3|0:0,0:0:0:0:
284,244,100159,2,0,P|308:188|284:128,1,120,8|0,0:0|0:0,0:0:0:0:
296,44,100639,2,0,P|287:129|352:196,1,180,0|8,0:0|0:0,0:0:0:0:
512,228,101439,5,8,0:0:0:0:
512,228,101599,2,2,L|496:352,1,120,2|0,0:0|0:0,0:0:0:0:
424,280,102079,2,2,L|408:160,1,120,8|0,0:0|0:0,0:0:0:0:
328,124,102559,2,2,P|388:76|484:116,1,180,2|10,0:0|0:0,0:0:0:0:
476,348,103359,1,8,0:0:0:0:
464,356,103519,2,2,L|344:372,1,120,2|0,0:0|0:0,0:0:0:0:
140,344,103999,6,0,L|258:359,1,120,10|0,0:0|0:0,0:0:0:0:
312,296,104479,2,2,P|356:216|320:128,1,180,2|10,0:0|0:0,0:0:0:0:
212,264,105279,1,10,0:0:0:0:
212,264,105439,1,0,0:0:0:0:
384,76,105759,1,2,0:0:0:0:
384,76,105919,1,8,0:0:0:0:
128,136,106239,5,0,0:0:0:0:
128,136,106399,2,2,L|108:316,1,180,6|8,0:0|0:0,0:0:0:0:
84,80,107199,1,8,0:0:0:0:
84,80,107359,2,2,P|140:64|188:96,1,120,2|0,0:1|0:0,0:0:0:0:
332,184,107839,2,2,P|276:200|228:168,1,120,8|0,0:0|0:0,0:0:0:0:
336,96,108319,2,2,P|404:144|404:240,1,180,2|8,0:0|0:0,0:0:0:0:
192,336,109119,5,8,0:0:0:0:
188,348,109279,1,2,0:0:0:0:
320,336,109599,1,0,0:0:0:0:
324,348,109759,1,8,0:0:0:0:
192,216,110079,1,0,0:0:0:0:
188,204,110239,2,2,B|196:116|124:132|132:36,1,180,4|10,0:0|0:0,0:0:0:0:
320,216,111039,1,8,0:0:0:0:
324,204,111199,2,2,B|316:116|388:132|380:36,1,180,2|10,0:0|0:0,0:0:0:0:
408,196,112159,6,2,P|436:280|408:364,1,180,2|8,0:0|0:0,0:0:0:0:
180,324,112959,1,8,0:0:0:0:
180,324,113119,2,0,P|120:292|108:240,1,120,2|8,0:3|0:0,0:0:0:0:
112,152,113599,2,0,L|57:177,1,60,8|8,0:0|0:0,0:0:0:0:
60,84,113919,2,0,L|120:56,1,60,8|4,0:0|0:0,0:0:0:0:
320,200,114399,5,0,0:0:0:0:
320,200,114559,1,8,0:0:0:0:
256,356,114879,1,0,0:0:0:0:
256,356,115039,2,0,P|320:360|368:336,1,120,2|0,0:3|0:0,0:0:0:0:
404,256,115519,2,0,P|400:200|420:140,1,120,8|0,0:0|0:0,0:0:0:0:
424,56,115999,5,2,0:3:0:0:
256,84,116319,1,0,0:0:0:0:
256,84,116479,1,8,0:0:0:0:
88,56,116799,1,0,0:0:0:0:
88,56,116959,2,0,P|108:148|188:184,2,180,2|8|4,0:3|0:0|0:0,0:0:0:0:
256,84,118239,5,0,0:0:0:0:
256,84,118399,1,8,0:0:0:0:
256,264,118719,1,0,0:0:0:0:
256,264,118879,2,0,P|200:284|140:280,1,120,2|0,0:3|0:0,0:0:0:0:
16,192,119359,2,0,P|72:172|132:176,1,120,8|0,0:0|0:0,0:0:0:0:
256,264,119839,6,2,P|312:284|372:280,1,120,2|0,0:0|0:0,0:0:0:0:
496,192,120319,2,0,P|440:172|380:176,1,120,8|0,0:0|0:0,0:0:0:0:
300,200,120799,2,2,P|312:128|404:88,2,180,2|8|4,0:0|0:0|0:0,0:0:0:0:
256,324,122079,5,0,0:0:0:0:
256,324,122239,1,8,0:0:0:0:
126,229,122559,1,0,0:0:0:0:
126,229,122719,2,0,P|170:181|222:161,1,120,2|0,0:3|0:0,0:0:0:0:
300,180,123199,2,0,P|280:104|188:88,1,180,8|2,0:0|0:3,0:0:0:0:
60,192,123999,1,0,0:0:0:0:
60,192,124159,2,0,P|56:252|92:296,1,120,8|0,0:0|0:0,0:0:0:0:
136,224,124639,2,0,P|128:144|44:112,1,180,2|8,0:3|0:0,0:0:0:0:
256,324,125599,6,2,B|289:274|291:243|291:243|321:251|382:232,1,180,2|8,0:0|0:0,0:0:0:0:
256,60,126399,1,0,0:0:0:0:
256,60,126559,2,2,B|222:109|220:140|220:140|190:132|129:151,1,180,2|8,0:0|0:0,0:0:0:0:
452,144,127519,6,0,L|436:208,1,60,4|4,0:3|0:3,0:0:0:0:
348,216,127839,2,0,L|364:152,1,60,4|8,0:3|0:0,0:0:0:0:
272,164,128159,2,0,L|256:228,1,60,8|2,0:1|0:3,0:0:0:0:
168,248,128479,6,0,L|104:232,2,60,8|8|2,0:0|0:0|0:3,0:0:0:0:
236,312,128959,2,0,L|300:328,2,60,8|8|2,0:0|0:0|0:3,0:0:0:0:
144,336,129439,1,6,0:0:0:0:
256,192,129599,12,4,135199,0:0:0:0:
356,132,135679,6,0,B|368:196|368:196|340:248,1,120,2|2,0:0|0:0,0:0:0:0:
272,292,136159,1,10,0:0:0:0:
191,267,136319,1,8,0:0:0:0:
161,189,136479,1,8,0:0:0:0:
203,116,136639,1,8,0:0:0:0:
286,103,136799,1,8,0:0:0:0:
347,160,136959,1,8,0:0:0:0:
341,244,137119,5,4,0:0:0:0:
44,288,137599,1,8,0:0:0:0:
64,120,137919,1,0,0:0:0:0:
64,120,138079,1,0,0:0:0:0:
468,96,138559,1,10,0:0:0:0:
448,264,138879,1,2,0:0:0:0:
448,264,139039,1,2,0:0:0:0:
256,344,139359,5,2,0:0:0:0:
256,344,139519,1,10,0:0:0:0:
340,60,139839,1,2,0:0:0:0:
340,60,139999,1,0,0:0:0:0:
340,324,140319,1,0,0:0:0:0:
304,248,140479,2,0,B|294:200|246:202|236:151,1,120,10|0,0:0|0:0,0:0:0:0:
240,76,140959,5,6,0:0:0:0:
168,100,141119,1,0,0:0:0:0:
160,176,141279,1,0,0:0:0:0:
196,244,141439,1,10,0:0:0:0:
184,320,141599,1,0,0:0:0:0:
120,360,141759,1,0,0:0:0:0:
48,332,141919,6,2,P|8:292|4:232,1,120,2|0,0:0|0:0,0:0:0:0:
44,156,142399,2,2,P|84:196|88:256,1,120,10|8,0:0|0:0,0:0:0:0:
48,332,142879,1,4,0:0:0:0:
152,180,143199,5,0,0:0:0:0:
176,104,143359,2,2,P|188:80|216:60,1,60,10|2,0:0|0:0,0:0:0:0:
297,60,143679,2,2,P|324:80|336:104,1,60,2|8,0:0|0:3,0:0:0:0:
488,364,144319,5,8,0:0:0:0:
432,308,144479,1,8,0:0:0:0:
464,236,144639,1,8,0:0:0:0:
451,157,144799,2,2,P|404:184|384:244,1,120,6|0,0:0|0:0,0:0:0:0:
344,308,145279,6,2,P|328:336|304:352,2,60,10|0|2,0:0|0:0|0:0,0:0:0:0:
312,236,145759,2,2,P|296:184|240:156,1,120,2|0,0:0|0:0,0:0:0:0:
172,124,146239,2,2,P|212:84|272:88,1,120,10|0,0:0|0:0,0:0:0:0:
340,124,146719,2,2,P|388:208|376:296,2,180,2|10|2,0:0|0:0|0:0,0:0:0:0:
80,124,147999,5,0,0:0:0:0:
80,124,148159,2,2,L|92:60,2,60,8|2|2,0:0|0:0|0:0,0:0:0:0:
72,232,148639,2,2,L|104:264,3,45,2|2|0|0,0:0|0:0|0:0|0:0,0:0:0:0:
176,240,149119,2,2,L|204:276,3,45,10|2|0|0,0:0|0:0|0:0|0:0,0:0:0:0:
280,296,149599,6,2,P|268:328|248:344,2,60,2|0|2,0:0|0:0|0:0,0:0:0:0:
356,240,150079,2,2,P|368:264|372:296,2,60,10|2|2,0:0|0:0|0:0,0:0:0:0:
412,168,150559,2,2,P|444:152|456:132,2,60,2|4|4,0:0|0:3|0:3,0:0:0:0:
332,120,151039,6,2,P|300:64|248:52,1,120,2|4,0:0|0:3,0:0:0:0:
256,136,151519,2,2,B|232:172|280:212|256:252,1,120,2|4,0:0|0:3,0:0:0:0:
190,300,151999,2,2,P|140:288|108:232,1,120,2|4,0:0|0:3,0:0:0:0:
36,192,152479,6,2,P|120:152|184:200,1,180,6|8,0:0|0:0,0:0:0:0:
256,348,153279,1,8,0:0:0:0:
256,348,153439,2,0,P|320:356|368:328,1,120
412,200,153919,2,0,P|348:192|300:220,1,120,8|0,0:0|0:0,0:0:0:0:
256,348,154399,2,2,P|172:360|104:300,1,180,2|8,0:0|0:0,0:0:0:0:
8,96,155199,5,8,0:0:0:0:
8,96,155359,2,2,B|24:144|64:160|64:160|96:156,1,120,2|0,0:1|0:0,0:0:0:0:
264,140,155839,2,2,P|248:200|196:228,1,120,8|0,0:0|0:0,0:0:0:0:
180,144,156319,2,2,P|212:72|308:68,1,180,2|10,0:0|0:0,0:0:0:0:
432,232,157119,1,8,0:0:0:0:
432,232,157279,2,2,L|312:248,1,120,2|0,0:0|0:0,0:0:0:0:
164,356,157759,6,0,L|283:340,1,120,10|0,0:0|0:0,0:0:0:0:
368,328,158239,2,2,P|412:248|376:160,1,180,2|10,0:0|0:0,0:0:0:0:
184,144,159039,1,8,0:0:0:0:
184,144,159199,1,2,0:0:0:0:
496,196,159519,1,0,0:0:0:0:
496,196,159679,1,8,0:0:0:0:
312,244,159999,1,0,0:0:0:0:
312,244,160159,6,2,L|132:224,1,180,6|8,0:0|0:0,0:0:0:0:
312,44,160959,1,8,0:0:0:0:
312,44,161119,2,2,P|328:100|296:148,1,120,2|0,0:1|0:0,0:0:0:0:
208,292,161599,2,2,P|192:236|224:188,1,120,8|0,0:0|0:0,0:0:0:0:
292,300,162079,2,2,P|244:368|148:352,1,180,2|8,0:0|0:0,0:0:0:0:
16,256,162879,5,8,0:0:0:0:
8,244,163039,2,2,P|36:192|24:132,1,120,2|0,0:0|0:0,0:0:0:0:
0,56,163519,2,0,L|120:64,1,120,8|0,0:0|0:0,0:0:0:0:
200,48,163999,2,2,B|208:136|136:120|144:216,1,180,2|10,0:0|0:0,0:0:0:0:
312,336,164799,1,8,0:0:0:0:
312,336,164959,2,2,B|304:248|376:264|368:168,1,180,2|10,0:0|0:0,0:0:0:0:
200,336,165759,5,0,0:0:0:0:
200,336,165919,2,2,P|192:272|140:248,1,120,2|4,0:0|0:3,0:0:0:0:
72,224,166399,1,8,0:0:0:0:
44,152,166559,1,4,0:3:0:0:
76,80,166719,1,4,0:3:0:0:
144,40,166879,2,2,B|180:52|180:52|224:44|224:44|260:56,1,120,2|4,0:0|0:3,0:0:0:0:
320,136,167359,2,0,L|376:156,2,60,8|4|4,0:0|0:3|0:3,0:0:0:0:
220,148,167839,5,4,0:0:0:0:
24,280,168319,2,0,P|44:328|108:344,1,120,8|0,0:0|0:0,0:0:0:0:
187,329,168799,2,0,P|168:280|108:260,1,120,2|0,0:3|0:0,0:0:0:0:
106,344,169279,1,8,0:0:0:0:
356,332,169599,1,0,0:0:0:0:
356,332,169759,2,0,P|368:248|452:236,2,180,0|8|2,0:0|0:0|0:3,0:0:0:0:
256,192,171039,1,0,0:0:0:0:
256,192,171199,1,8,0:0:0:0:
52,72,171679,6,2,P|24:120|48:176,1,120,6|0,0:0|0:0,0:0:0:0:
256,192,172159,2,0,P|284:240|260:296,1,120,10|0,0:0|0:0,0:0:0:0:
256,192,172639,2,2,P|228:144|252:88,1,120,2|0,0:0|0:0,0:0:0:0:
464,208,173119,2,0,P|488:264|460:312,1,120,10|0,0:0|0:0,0:0:0:0:
460,311,173599,5,4,0:0:0:0:
344,192,173919,1,0,0:0:0:0:
344,192,174079,1,8,0:0:0:0:
168,192,174399,1,0,0:0:0:0:
168,192,174559,1,2,0:3:0:0:
256,44,174879,1,0,0:0:0:0:
256,44,175039,2,0,B|232:80|280:120|256:160,1,120,8|8,0:0|0:0,0:0:0:0:
256,159,175519,1,4,0:0:0:0:
8,192,175999,5,8,0:0:0:0:
44,376,176319,1,0,0:0:0:0:
44,376,176479,2,0,P|100:356|120:300,1,120,2|0,0:3|0:0,0:0:0:0:
128,220,176959,2,0,P|184:248|204:300,1,120,8|0,0:0|0:0,0:0:0:0:
256,364,177439,6,0,L|316:364,1,60
376,304,177759,1,0,0:0:0:0:
336,228,177919,2,0,P|320:210|304:177,1,60,8|0,0:0|0:0,0:0:0:0:
256,108,178239,1,0,0:0:0:0:
207,177,178399,2,0,P|195:205|176:228,1,60,0|0,0:0|0:0,0:0:0:0:
128,160,178719,1,0,0:0:0:0:
176,88,178879,1,8,0:0:0:0:
256,108,179039,1,0,0:0:0:0:
336,88,179199,1,0,0:0:0:0:
420,76,179359,6,2,P|420:108|408:136,1,60,2|0,0:0|0:0,0:0:0:0:
372,208,179679,1,0,0:0:0:0:
287,205,179839,2,0,P|291:175|308:150,1,60,10|0,0:0|0:0,0:0:0:0:
372,208,180159,1,0,0:0:0:0:
456,210,180319,2,0,P|452:239|435:264,1,60,10|0,0:0|0:0,0:0:0:0:
384,328,180639,1,0,0:0:0:0:
316,372,180799,6,0,P|305:346|305:314,1,60,10|0,0:0|0:0,0:0:0:0:
206,314,181119,2,0,P|206:346|196:372,1,60,0|8,0:0|0:3,0:0:0:0:
112,372,181439,2,0,L|82:369,2,30,4|4|4,3:0|3:0|3:0,0:0:0:0:
124,288,181759,2,2,L|184:184,1,120,8|2,0:3|0:0,0:0:0:0:
256,240,182239,5,8,0:0:0:0:
288,160,182399,1,8,0:0:0:0:
256,80,182559,1,4,0:3:0:0:
176,48,182719,1,8,0:0:0:0:
96,80,182879,1,8,0:0:0:0:
64,160,183039,1,4,0:3:0:0:
104,240,183199,1,6,0:0:0:0:
396,372,183679,5,4,0:3:0:0:
472,100,183999,1,2,0:0:0:0:
472,100,184159,2,0,P|464:160|472:220,1,120,4|0,0:3|0:0,0:0:0:0:
392,300,184639,2,0,P|400:240|392:180,1,120,4|2,0:3|0:0,0:0:0:0:
300,144,185119,2,2,P|328:232|308:320,1,180,2|4,0:0|0:3,0:0:0:0:
168,364,185919,5,2,0:0:0:0:
168,364,186079,2,0,P|116:320|112:272,1,120,4|0,0:3|0:0,0:0:0:0:
211,169,186559,2,0,L|192:288,1,120,4|2,0:3|0:0,0:0:0:0:
265,329,187039,2,2,L|296:152,1,180,2|4,0:0|0:3,0:0:0:0:
416,232,187839,5,2,0:0:0:0:
416,232,187999,1,4,0:3:0:0:
188,64,188319,1,0,0:0:0:0:
188,64,188479,1,4,0:3:0:0:
368,88,188799,1,2,0:0:0:0:
368,88,188959,1,4,0:3:0:0:
336,368,189439,1,4,0:3:0:0:
256,192,189759,12,0,191519,0:0:0:0:
