osu file format v12

[General]
AudioFilename: Escape The Fate - Zombie Dance.mp3
AudioLeadIn: 0
PreviewTime: 60159
Countdown: 0
SampleSet: Normal
StackLeniency: 0.7
Mode: 0
LetterboxInBreaks: 0
WidescreenStoryboard: 0

[Editor]
Bookmarks: 21911,37271,53111,67991,83351,98711,114071,127511,140951,155351,167831,183191
DistanceSpacing: 1
BeatDivisor: 3
GridSize: 4
TimelineZoom: 1

[Metadata]
Title:Zombie Dance
TitleUnicode:Zombie Dance
Artist:Escape The Fate
ArtistUnicode:Escape The Fate
Creator:Mystyk
Version:Easy
Source:
Tags:Aleks719 MystykAMV
BeatmapID:222452
BeatmapSetID:79780

[Difficulty]
HPDrainRate:3
CircleSize:3
OverallDifficulty:3
ApproachRate:4
SliderMultiplier:0.999999999999999
SliderTickRate:1

[Events]
//Background and Video events
0,0,"Escape_The_Fate.jpg",0,0
//Break Periods
2,75879,82039
2,129639,135799
//Storyboard Layer 0 (Background)
//Storyboard Layer 1 (Fail)
//Storyboard Layer 2 (Pass)
//Storyboard Layer 3 (Foreground)
//Storyboard Sound Samples
//Background Colour Transformations
3,100,163,162,255

[TimingPoints]
21919,480,4,1,0,55,1,0
60319,-100,4,1,0,65,0,1
75679,-100,4,1,0,55,0,0
98079,-100,4,1,0,40,0,0
98719,-100,4,1,0,65,0,1
114079,-100,4,1,0,55,0,0
152479,-100,4,1,0,65,0,1
167679,-100,4,1,0,65,0,0
167839,-100,4,1,0,65,0,1
183199,-100,4,1,0,65,0,0
191519,-100,4,2,0,5,0,0

[Colours]
Combo1 : 228,208,10
Combo2 : 0,112,60
Combo3 : 128,0,0

[HitObjects]
96,192,21919,6,0,P|104:244|132:280,2,99.9999999999999,4|8|0,0:0|0:0|0:0,0:0:0:0:
196,204,23359,1,8,0:0:0:0:
256,124,23839,1,0,0:0:0:0:
316,204,24319,1,8,0:0:0:0:
416,192,24799,6,0,P|408:244|380:280,2,99.9999999999999,0|8|0,0:0|0:0|0:0,0:0:0:0:
332,140,26239,2,0,P|257:83|183:140,1,200,8|8,0:0|0:0,0:0:0:0:
256,192,27679,12,4,29119,0:0:0:0:
256,316,30079,6,0,P|308:312|344:284,1,99.9999999999999,8|0,0:0|0:0,0:0:0:0:
391,191,31039,2,0,B|316:148|264:236|196:192,1,200,8|8,0:0|0:0,0:0:0:0:
168,96,32479,2,0,P|204:68|256:64,2,99.9999999999999,0|8|0,0:0|0:0|0:0,0:0:0:0:
80,144,33919,5,8,0:0:0:0:
80,240,34399,1,0,0:0:0:0:
160,300,34879,2,0,B|192:280|224:320|256:300,1,99.9999999999999,8|0,0:0|0:0,0:0:0:0:
256,200,35839,2,0,B|288:180|320:220|352:200,2,99.9999999999999,8|0|8,0:0|0:0|0:0,0:0:0:0:
256,100,37279,1,0,0:0:0:0:
155,103,37759,6,0,P|62:125|31:215,2,200,8|8|8,0:0|0:0|0:0,0:0:0:0:
132,200,40159,2,0,P|164:232|216:240,1,99.9999999999999,0|8,0:0|0:0,0:0:0:0:
256,148,41119,5,0,0:0:0:0:
344,103,41599,2,0,P|440:136|463:224,2,200,8|8|8,0:0|0:0|0:0,0:0:0:0:
364,204,43999,2,0,P|332:236|280:244,2,99.9999999999999,0|8|0,0:0|0:0|0:0,0:0:0:0:
368,104,45439,5,8,0:0:0:0:
272,72,45919,2,0,P|272:128|296:168,2,99.9999999999999,0|8|0,0:0|0:0|0:0,0:0:0:0:
368,104,47359,1,8,0:0:0:0:
464,76,47839,2,0,P|464:132|440:172,1,99.9999999999999,0|8,0:0|0:0,0:0:0:0:
356,220,48799,2,0,L|258:243,1,99.9999999999999,4|8,0:0|0:0,0:0:0:0:
172,192,49759,6,0,P|156:104|60:80,2,200
88,248,52159,1,8,0:0:0:0:
256,356,53119,5,8,0:0:0:0:
172,304,53599,2,0,P|256:256|340:304,1,200
424,248,55039,1,8,0:0:0:0:
396,152,55519,2,0,P|360:120|308:116,1,99.9999999999999,0|8,0:0|0:0,0:0:0:0:
320,216,56479,2,0,P|270:211|234:179,1,99.9999999999999,0|8,0:0|0:0,0:0:0:0:
192,88,57439,5,0,0:0:0:0:
20,192,58399,1,0,0:0:0:0:
188,300,59359,2,0,P|256:356|336:300,1,200,0|4,0:0|0:0,0:0:0:0:
364,204,60799,5,8,0:0:0:0:
304,124,61279,2,0,P|272:160|264:212,2,99.9999999999999,0|8|0,0:0|0:0|0:0,0:0:0:0:
400,100,62719,1,8,0:0:0:0:
468,176,63199,2,0,P|434:270|345:293,2,200
368,192,65599,5,8,0:0:0:0:
268,192,66079,2,0,B|240:212|204:172|172:192,1,99.9999999999999,0|8,0:0|0:0,0:0:0:0:
124,279,67039,2,0,P|77:295|29:283,1,99.9999999999999,0|8,0:0|0:0,0:0:0:0:
76,200,67999,6,0,P|120:112|216:100,1,200,4|0,0:0|0:0,0:0:0:0:
256,192,69439,1,8,0:0:0:0:
299,285,69919,2,0,P|392:272|436:184,2,200
200,304,72319,2,0,P|220:352|260:376,2,99.9999999999999,8|0|8,0:0|0:0|0:0,0:0:0:0:
256,192,73759,12,4,75679,0:0:0:0:
404,192,83359,6,0,B|352:148|272:240|212:192,2,200,4|0|0,0:0|0:0|0:0,0:0:0:0:
492,144,85759,2,0,P|504:196|492:240,2,99.9999999999999,8|0|8,0:0|0:0|0:0,0:0:0:0:
336,268,87679,6,0,P|256:316|172:268,1,200,8|8,0:0|0:0,0:0:0:0:
172,168,89119,1,0,0:0:0:0:
256,116,89599,1,8,0:0:0:0:
340,168,90079,2,0,P|316:200|260:216,1,99.9999999999999,0|8,0:0|0:0,0:0:0:0:
92,104,91519,6,0,B|52:152|96:192|96:192|52:232|92:280,2,200,8|8|8,0:0|0:0|0:0,0:0:0:0:
184,144,93919,2,0,P|196:192|184:240,1,99.9999999999999,0|8,0:0|0:0,0:0:0:0:
380,276,95359,6,0,B|396:216|432:192|432:192|396:168|380:108,1,200,8|8,0:0|0:0,0:0:0:0:
320,28,96799,1,0,0:0:0:0:
256,104,97279,1,8,0:0:0:0:
192,28,97759,1,8,3:3:0:0:
256,216,98719,6,0,P|308:212|344:240,1,99.9999999999999,4|8,0:0|0:0,0:0:0:0:
300,332,99679,2,0,P|256:348|208:332,2,99.9999999999999,0|8|0,0:0|0:0|0:0,0:0:0:0:
388,280,101119,1,8,0:0:0:0:
436,192,101599,6,0,P|384:180|340:192,1,99.9999999999999,0|8,0:0|0:0,0:0:0:0:
256,244,102559,2,0,P|204:248|160:228,2,99.9999999999999,4|8|0,0:0|0:0|0:0,0:0:0:0:
256,144,103999,1,8,0:0:0:0:
168,92,104479,1,0,0:0:0:0:
88,36,104959,2,0,P|72:128|148:188,1,200,8|8,0:0|0:0,0:0:0:0:
248,192,106399,6,0,P|264:244|248:284,1,99.9999999999999,4|8,0:0|0:0,0:0:0:0:
160,336,107359,1,0,0:0:0:0:
60,348,107839,2,0,P|84:260|180:236,1,200,8|8,0:0|0:0,0:0:0:0:
256,300,109279,2,0,P|304:272|320:232,2,99.9999999999999,0|8|0,0:0|0:0|0:0,0:0:0:0:
156,304,110719,1,8,0:0:0:0:
72,248,111199,1,0,0:0:0:0:
8,172,111679,5,8,0:0:0:0:
104,140,112160,2,0,P|151:154|197:139,1,99.9999999999999,0|8,0:0|0:0,0:0:0:0:
260,60,113119,2,0,P|208:40|164:48,2,99.9999999999999,0|8|4,0:0|0:0|0:0,0:0:0:0:
356,60,114559,6,0,P|444:96|452:192,1,200,8|8,0:0|0:0,0:0:0:0:
376,256,115999,2,0,P|356:216|360:160,2,99.9999999999999,0|8|0,0:0|0:0|0:0,0:0:0:0:
448,324,117439,1,8,0:0:0:0:
352,352,117919,5,0,0:0:0:0:
256,320,118399,2,0,B|208:256|304:192|256:128,1,200,8|8,0:0|0:0,0:0:0:0:
172,80,119839,1,0,0:0:0:0:
80,116,120319,2,0,P|28:192|80:276,1,200,8|8,0:0|0:0,0:0:0:0:
168,320,121759,5,4,0:0:0:0:
256,268,122239,2,0,P|276:220|308:184,1,99.9999999999999,8|0,0:0|0:0,0:0:0:0:
396,136,123199,2,0,P|360:100|312:84,2,99.9999999999999,8|0|8,0:0|0:0|0:0,0:0:0:0:
412,236,124639,2,0,P|405:286|377:328,1,99.9999999999999,0|8,0:0|0:0,0:0:0:0:
280,348,125599,5,0,0:0:0:0:
208,272,126079,2,0,B|208:208|304:164|304:100,1,200,8|8,0:0|0:0,0:0:0:0:
256,192,127519,12,4,129439,0:0:0:0:
76,192,137119,6,0,P|84:144|116:104,2,99.9999999999999,4|8|0,0:0|0:0|0:0,0:0:0:0:
80,292,138559,2,0,P|176:300|234:219,2,200,8|8|8,0:0|0:0|0:0,0:0:0:0:
136,208,140959,2,0,P|156:160|196:132,1,99.9999999999999,0|8,0:0|0:0,0:0:0:0:
296,132,141919,1,0,0:0:0:0:
376,192,142399,6,0,P|396:220|404:252,1,66.6666666666666,8|0,0:0|0:0,0:0:0:0:
320,356,143359,2,0,P|300:328|292:297,1,66.6666666666666,8|0,0:0|0:0,0:0:0:0:
288,164,144319,6,0,P|280:108|256:72,1,99.9999999999999,8|4,0:0|0:0,0:0:0:0:
192,148,145279,2,0,P|232:244|320:256,2,200,8|8|8,0:0|0:0|0:0,0:0:0:0:
256,72,147679,1,0,0:0:0:0:
356,76,148159,6,0,P|404:96|432:136,2,99.9999999999999,8|4|8,0:0|0:0|0:0,0:0:0:0:
340,176,149599,2,0,P|320:220|280:252,1,99.9999999999999,0|8,0:0|0:0,0:0:0:0:
256,192,150559,12,4,152479,0:0:0:0:
392,84,153439,6,0,P|432:116|452:160,2,99.9999999999999,0|8|0,0:0|0:0|0:0,0:0:0:0:
300,44,154879,1,8,0:0:0:0:
256,132,155359,1,0,0:0:0:0:
192,208,155839,2,0,P|280:232|352:160,2,200,8|8|8,0:0|0:0|0:0,0:0:0:0:
92,192,158239,1,0,0:0:0:0:
92,92,158719,2,0,P|192:80|260:144,1,200,8|8,0:0|0:0,0:0:0:0:
292,240,160159,6,0,P|308:292|344:320,1,99.9999999999999,4|8,0:0|0:0,0:0:0:0:
444,308,161119,2,0,P|436:264|396:228,2,99.9999999999999,0|8|0,0:0|0:0|0:0,0:0:0:0:
342,319,162559,1,8,0:0:0:0:
244,320,163039,2,0,P|192:308|152:284,1,99.9999999999999,0|8,0:0|0:0,0:0:0:0:
64,240,163999,2,0,P|96:204|144:188,1,99.9999999999999,0|8,0:0|0:0,0:0:0:0:
244,184,164959,1,0,0:0:0:0:
344,184,165439,6,0,P|392:168|424:132,2,99.9999999999999,8|0|8,0:0|0:0|0:0,0:0:0:0:
292,100,166879,2,0,P|240:88|196:104,1,99.9999999999999,0|8,0:0|0:0,0:0:0:0:
108,148,167839,6,0,P|140:184|188:200,2,99.9999999999999,4|8|0,0:0|0:0|0:0,0:0:0:0:
20,192,169279,2,0,P|89:267|184:296,1,200,8|8,0:0|0:0,0:0:0:0:
252,364,170719,2,0,P|279:326|279:274,1,99.9999999999999,0|8,0:0|0:0,0:0:0:0:
280,176,171679,1,0,0:0:0:0:
280,76,172159,2,0,P|368:132|368:220,1,200,8|8,0:0|0:0,0:0:0:0:
348,316,173599,6,0,P|404:312|440:288,2,99.9999999999999,0|8|0,0:0|0:0|0:0,0:0:0:0:
256,356,175039,2,0,B|228:288|288:232|256:160,1,200,8|8,0:0|0:0,0:0:0:0:
240,60,176479,6,0,P|192:80|164:120,2,99.9999999999999,0|8|0,0:0|0:0|0:0,0:0:0:0:
340,76,177919,2,0,P|414:132|407:232,2,200,8|8|8,0:0|0:0|0:0,0:0:0:0:
324,176,180319,2,0,P|288:212|240:224,1,99.9999999999999,0|8,0:0|0:0,0:0:0:0:
256,192,181279,12,4,183199,0:0:0:0:
28,240,184159,6,0,P|64:332|156:336,1,200
357,336,186079,2,0,P|448:332|484:240,1,200
336,104,187999,2,0,P|256:56|171:104,1,200
256,192,189919,12,0,191519,0:0:0:0:
