osu file format v12

[General]
AudioFilename: Je code avec le cul ! - PUB pour 4D Mario + Sonic = Somari _.mp3
AudioLeadIn: 0
PreviewTime: -1
Countdown: 0
SampleSet: Soft
StackLeniency: 0.7
Mode: 2
LetterboxInBreaks: 1
WidescreenStoryboard: 1

[Editor]
DistanceSpacing: 1.5
BeatDivisor: 4
GridSize: 4
TimelineZoom: 1.6

[Metadata]
Title:Je code avec le cul !
TitleUnicode:Je code avec le cul !
Artist:Ermite Moderne
ArtistUnicode:Ermite Moderne
Creator:Shad0w414
Version:catch my ass
Source:Ermite Moderne
Tags:EErmite Moderne Je Code Avec Le Cul VoxMakers
BeatmapID:413260
BeatmapSetID:144444

[Difficulty]
HPDrainRate:7
CircleSize:4
OverallDifficulty:9
ApproachRate:10
SliderMultiplier:3.59999990463257
SliderTickRate:2

[Events]
//Background and Video events
0,0,"hqdefault.jpg",0,0
Video,0,"Je code avec le cul ! - PUB pour 4D Mario + Sonic = Somari _.avi"
//Break Periods
//Storyboard Layer 0 (Background)
//Storyboard Layer 1 (Fail)
//Storyboard Layer 2 (Pass)
//Storyboard Layer 3 (Foreground)
//Storyboard Sound Samples
//Background Colour Transformations
3,100,163,162,255

[TimingPoints]
850,545.454545454546,4,2,0,100,1,0
6304,-50,4,2,0,100,0,0

[HitObjects]
118,273,304,6,0,L|358:165,1,179.999995231628
36,83,850,1,0,0:0:0:0:
76,85,1122,1,0,0:0:0:0:
447,83,1395,1,0,0:0:0:0:
52,173,1668,1,0,0:0:0:0:
447,191,1940,1,0,0:0:0:0:
404,167,2077,1,0,0:0:0:0:
368,143,2213,1,0,0:0:0:0:
340,118,2350,1,0,0:0:0:0:
313,86,2486,1,0,0:0:0:0:
254,200,2759,6,0,L|248:148,6,44.9999988079071
35,203,3304,2,0,L|29:151,6,44.9999988079071,0|0|0|0|0|0|0,0:0|0:0|0:0|0:0|0:0|0:0|0:0,0:0:0:0:
471,205,3850,6,0,L|465:153,6,44.9999988079071
110,193,4668,1,0,0:0:0:0:
386,198,4940,1,0,0:0:0:0:
257,191,5213,1,0,0:0:0:0:
19,62,5486,5,0,0:0:0:0:
94,120,5759,1,0,0:0:0:0:
323,129,6031,1,0,0:0:0:0:
365,289,6304,2,0,B|243:289|243:289|163:163|163:163|239:104|239:104|312:173|312:173|190:295|190:295|88:298|88:298,1,719.999980926514
66,240,7122,2,0,L|230:47,1,179.999995231629
245,52,7395,1,0,0:0:0:0:
69,323,7531,2,0,L|219:160,1,179.999995231629
248,130,7804,1,0,0:0:0:0:
408,322,7940,2,0,L|308:142,1,179.999995231629
245,52,8213,1,0,0:0:0:0:
408,243,8350,2,0,L|306:62,1,179.999995231629
34,28,8622,1,0,0:0:0:0:
473,34,8759,1,0,0:0:0:0:
254,191,8895,1,0,0:0:0:0:
257,253,9031,1,0,0:0:0:0:
259,318,9168,1,0,0:0:0:0:
32,285,9304,2,0,L|252:131,1,179.999995231629
457,315,9577,2,0,L|276:155,1,179.999995231629
257,124,9850,1,0,0:0:0:0:
88,104,9986,1,0,0:0:0:0:
430,172,10122,2,0,L|150:100,1,179.999995231629
428,106,10395,1,0,0:0:0:0:
87,207,10531,2,0,L|304:137,1,179.999995231629
366,329,10804,2,0,L|85:291,1,179.999995231629
68,311,11077,1,0,0:0:0:0:
296,233,11213,1,0,0:0:0:0:
171,164,11350,1,0,0:0:0:0:
176,317,11486,2,0,L|346:90,1,179.999995231629
450,295,11759,2,0,L|177:147,1,179.999995231629
449,135,12031,1,0,0:0:0:0:
46,61,12168,1,0,0:0:0:0:
165,95,12304,1,0,0:0:0:0:
266,179,12440,1,0,0:0:0:0:
77,268,12577,2,0,L|229:102,1,179.999995231629
375,229,12850,5,0,0:0:0:0:
121,144,12986,1,0,0:0:0:0:
323,320,13122,2,0,L|470:92,1,179.999995231629
190,286,13395,2,0,L|29:80,1,179.999995231629
46,61,13668,1,0,0:0:0:0:
266,71,13804,2,0,L|248:306,1,179.999995231629
429,98,14077,1,0,0:0:0:0:
71,293,14213,2,0,L|361:272,1,179.999995231629
0,228,14486,1,0,0:0:0:0:
438,271,14622,6,0,L|238:288,1,179.999995231629
450,200,14895,1,0,0:0:0:0:
241,211,15031,1,0,0:0:0:0:
56,148,15168,1,0,0:0:0:0:
160,127,15304,1,0,0:0:0:0:
332,315,15440,2,0,P|375:228|305:111,1,179.999995231629
122,51,15713,2,0,P|30:186|81:289,1,179.999995231629
206,210,15986,1,0,0:0:0:0:
349,92,16122,1,0,0:0:0:0:
450,200,16259,1,0,0:0:0:0:
92,100,16395,1,0,0:0:0:0:
169,280,16531,6,0,L|363:153,1,179.999995231629
412,65,16804,2,0,L|184:97,1,179.999995231629
86,151,17077,2,0,L|296:251,1,179.999995231629
348,278,17350,1,0,0:0:0:0:
255,331,17759,2,0,B|59:294|53:177|159:46|292:29|400:44|447:115|485:179|504:242|494:294|416:351|376:327|345:278|349:224|370:171|379:154|401:135|429:109|450:85|457:62|452:35|428:19|380:11|348:1|302:1|248:18|214:23|178:24|130:24|67:25|67:25|42:31|32:47|18:80|21:113|28:170|33:215|34:241|34:270|47:302|57:317|81:324|123:324|152:328|173:324|199:309|240:289|269:280|285:273|307:260|330:249|349:235|371:214|389:194|413:174|436:147|454:117|468:97|474:86|430:55|365:55|313:66|266:74|232:113|236:152|229:195|236:233|267:254|311:285|353:329|398:333|438:306|456:269|461:231|455:215|443:198|403:181|381:175|317:160|266:156|240:164|221:181|203:218|180:240|97:225|83:188|71:115|110:76|186:80|223:122|222:221|196:273|253:301|350:321|410:270|437:210|384:104|283:83|252:81|205:72|61:46|60:202|111:235|190:275|328:291|414:281|425:218|379:24|367:29,2,2879.99992370606
