osu file format v12

[General]
AudioFilename: Je code avec le cul ! - PUB pour 4D Mario + Sonic = Somari _.mp3
AudioLeadIn: 0
PreviewTime: -1
Countdown: 0
SampleSet: None
StackLeniency: 0.7
Mode: 0
LetterboxInBreaks: 1
WidescreenStoryboard: 1

[Editor]
DistanceSpacing: 1
BeatDivisor: 4
GridSize: 8
TimelineZoom: 1

[Metadata]
Title:Je code avec le cul !
TitleUnicode:Je code avec le cul !
Artist:Ermite Moderne
ArtistUnicode:Ermite Moderne
Creator:Shad0w414
Version:Prete moi ton clavier (tag4)
Source:Ermite Moderne
Tags:Ermite Moderne Je Code Avec Le Cul VoxMakers
BeatmapID:413262
BeatmapSetID:144444

[Difficulty]
HPDrainRate:8
CircleSize:5
OverallDifficulty:10
ApproachRate:8
SliderMultiplier:1.4
SliderTickRate:4

[Events]
//Background and Video events
Video,0,"Je code avec le cul ! - PUB pour 4D Mario + Sonic = Somari _.avi"
0,0,"hqdefault.jpg",0,0
//Break Periods
//Storyboard Layer 0 (Background)
//Storyboard Layer 1 (Fail)
//Storyboard Layer 2 (Pass)
//Storyboard Layer 3 (Foreground)
//Storyboard Sound Samples
//Background Colour Transformations
3,100,163,162,255

[TimingPoints]
850,545.454545454546,4,1,0,100,1,0

[HitObjects]
63,94,180,6,0,L|153:87,1,70
471,328,793,5,0,0:0:0:0:
386,331,1259,1,0,0:0:0:0:
315,329,1395,1,0,0:0:0:0:
267,336,1668,1,0,0:0:0:0:
47,112,1940,6,0,L|122:109,1,70,8|4,0:0|0:0,0:0:0:0:
479,345,2759,5,0,0:0:0:0:
38,346,2895,5,0,0:0:0:0:
476,45,3031,5,0,0:0:0:0:
34,30,3304,5,0,0:0:0:0:
48,331,3577,5,0,0:0:0:0:
464,338,3850,5,8,0:0:0:0:
44,128,4122,6,0,L|154:121,1,105,8|4,0:0|0:0,0:0:0:0:
357,215,5213,5,0,0:0:0:0:
101,223,5622,5,0,0:0:0:0:
340,153,5895,5,0,0:0:0:0:
108,164,6031,5,0,0:0:0:0:
300,107,6304,5,0,0:0:0:0:
125,108,6577,5,0,0:0:0:0:
122,268,6850,5,0,0:0:0:0:
151,229,7122,5,0,0:0:0:0:
266,272,7395,5,0,0:0:0:0:
320,222,7668,5,0,0:0:0:0:
289,133,7940,5,0,0:0:0:0:
208,314,8213,5,8,0:0:0:0:
54,131,8486,6,0,L|128:80,1,70,8|4,0:0|0:0,0:0:0:0:
405,265,9031,5,0,0:0:0:0:
52,307,9577,5,0,0:0:0:0:
87,257,9850,1,0,0:0:0:0:
120,209,10122,1,0,0:0:0:0:
61,235,10395,1,8,0:0:0:0:
209,240,10668,1,8,0:0:0:0:
473,330,11350,5,0,0:0:0:0:
60,307,11622,5,0,0:0:0:0:
470,272,11895,5,0,0:0:0:0:
55,190,12168,5,0,0:0:0:0:
459,208,12577,5,8,0:0:0:0:
56,108,12850,6,0,P|167:105|174:108,1,105,8|4,0:0|0:0,0:0:0:0:
428,324,13940,5,0,0:0:0:0:
383,322,14213,1,0,0:0:0:0:
331,327,14486,1,0,0:0:0:0:
36,320,14759,5,0,0:0:0:0:
76,300,15031,1,0,0:0:0:0:
120,281,15304,1,0,0:0:0:0:
159,252,15577,1,0,0:0:0:0:
440,170,15850,5,0,0:0:0:0:
393,177,16122,5,0,0:0:0:0:
325,181,16395,5,0,0:0:0:0:
263,165,16668,5,0,0:0:0:0:
37,213,16940,5,8,0:0:0:0:
481,30,17213,5,12,0:0:0:0:
