osu file format v13

[General]
AudioFilename: Je code avec le cul ! - PUB pour 4D Mario + Sonic = Somari _.mp3
AudioLeadIn: 0
PreviewTime: -1
Countdown: 0
SampleSet: None
StackLeniency: 0.7
Mode: 0
LetterboxInBreaks: 1
WidescreenStoryboard: 1

[Editor]
DistanceSpacing: 2
BeatDivisor: 16
GridSize: 4
TimelineZoom: 1.6

[Metadata]
Title:Je code avec le cul !
TitleUnicode:Je code avec le cul !
Artist:Ermite Moderne
ArtistUnicode:Ermite Moderne
Creator:Shad0w414
Version:Over-ass
Source:Ermite Moderne
Tags:Ermite Moderne Je Code Avec Le Cul VoxMakers
BeatmapID:449094
BeatmapSetID:144444

[Difficulty]
HPDrainRate:8
CircleSize:7
OverallDifficulty:9
ApproachRate:10
SliderMultiplier:2.99999990463257
SliderTickRate:2

[Events]
//Background and Video events
0,0,"hqdefault.jpg",0,0
//Break Periods
//Storyboard Layer 0 (Background)
//Storyboard Layer 1 (Fail)
//Storyboard Layer 2 (Pass)
//Storyboard Layer 3 (Foreground)
//Storyboard Sound Samples
//Background Colour Transformations
3,100,163,162,255

[TimingPoints]
850,545.454545454546,4,2,0,100,1,0
850,-100,4,2,0,100,0,0
17213,-50,4,2,0,100,0,1
17759,-50,4,2,0,100,0,0

[Colours]
Combo1 : 0,128,255
Combo2 : 255,0,0
Combo3 : 127,255,0

[HitObjects]
256,40,304,5,0,0:0:0:0:
476,244,850,2,0,P|436:316|296:328,1,224.999992847443,4|8,0:0|0:0,0:0:0:0:
256,276,1395,1,0,0:0:0:0:
184,144,1668,1,8,0:0:0:0:
336,144,1940,1,0,0:0:0:0:
200,84,2213,1,8,0:0:0:0:
128,104,2350,1,8,0:0:0:0:
136,180,2486,1,0,0:0:0:0:
280,224,2759,6,0,L|352:252,1,74.9999976158142,2|2,0:0|0:0,0:0:0:0:
388,188,3031,2,0,P|392:108|328:84,1,149.999995231628,0|8,0:0|0:0,0:0:0:0:
188,84,3531,2,0,P|126:119|136:189,1,149.999995231628,0|8,0:0|0:0,0:0:0:0:
256,316,4122,1,0,0:0:0:0:
304,176,4395,1,8,0:0:0:0:
256,120,4531,1,8,0:0:0:0:
208,176,4668,1,0,0:0:0:0:
256,316,4940,1,8,0:0:0:0:
380,228,5213,6,0,P|388:124|296:84,1,206.249993443489,2|8,0:0|0:0,0:0:0:0:
204,82,5759,2,0,P|119:131|116:184,1,149.999995231629,2|8,0:0|0:0,0:0:0:0:
256,228,6304,1,2,0:0:0:0:
316,184,6440,1,0,0:0:0:0:
324,260,6577,1,8,0:0:0:0:
256,228,6713,1,0,0:0:0:0:
316,184,6850,1,2,0:0:0:0:
188,260,7122,1,8,0:0:0:0:
372,24,7395,5,2,0:0:0:0:
360,324,7668,1,8,0:0:0:0:
192,76,7940,1,2,0:0:0:0:
476,176,8213,1,8,0:0:0:0:
188,260,8486,1,6,0:0:0:0:
16,12,9031,2,0,L|32:24,15,18.7499994039536,0|0|0|0|0|0|0|0|0|0|0|0|0|0|0|0,0:0|0:0|0:0|0:0|0:0|0:0|0:0|0:0|0:0|0:0|0:0|0:0|0:0|0:0|0:0|0:0,0:0:0:0:
44,36,9577,6,0,P|96:92|112:172,1,149.999995231629,4|2,0:0|0:0,0:0:0:0:
172,208,9986,1,8,0:0:0:0:
248,208,10122,2,0,B|320:208|320:208|388:264,2,149.999995231629,0|8|2,0:0|0:0|0:0,0:0:0:0:
248,56,10940,1,8,0:0:0:0:
248,208,11213,1,0,0:0:0:0:
248,56,11486,1,8,0:0:0:0:
320,32,11622,1,8,0:0:0:0:
392,52,11759,6,0,L|460:88,1,74.9999976158143,2|0,0:0|0:0,0:0:0:0:
392,120,12031,2,0,L|316:124,1,74.9999976158143,8|0,0:0|0:0,0:0:0:0:
368,180,12270,2,0,L|432:224,1,74.9999976158143,2|0,0:0|0:0,0:0:0:0:
356,244,12577,2,0,L|272:248,1,74.9999976158143,8|0,0:0|0:0,0:0:0:0:
204,244,12850,1,2,0:0:0:0:
92,144,12986,1,2,0:0:0:0:
240,144,13122,1,8,0:0:0:0:
128,244,13259,1,0,0:0:0:0:
164,100,13395,2,0,L|164:76,15,18.7499994039536,2|0|0|0|0|0|0|0|0|0|0|0|0|0|0|0,0:0|0:0|0:0|0:0|0:0|0:0|0:0|0:0|0:0|0:0|0:0|0:0|0:0|0:0|0:0|0:0,0:0:0:0:
196,60,13940,6,0,P|272:60|340:176,1,206.249993443489,4|8,0:0|0:0,0:0:0:0:
408,224,14486,1,0,0:0:0:0:
136,92,14759,1,8,0:0:0:0:
304,340,15031,1,0,0:0:0:0:
324,40,15304,1,8,0:0:0:0:
108,252,15577,1,0,0:0:0:0:
408,224,15815,1,8,0:0:0:0:
184,144,16122,6,0,P|104:152|64:96,1,149.999995231629,2|8,0:0|0:0,0:0:0:0:
328,240,16668,2,0,P|408:232|448:288,1,149.999995231629,2|8,0:0|0:0,0:0:0:0:
256,212,17213,2,0,L|256:168,16,37.4999988079071,4|0|0|0|0|0|0|0|0|0|0|0|0|0|0|0|0,0:0|0:0|0:0|0:0|0:0|0:0|0:0|0:0|0:0|0:0|0:0|0:0|0:0|0:0|0:0|0:0|0:0,0:0:0:0:
