osu file format v12

[General]
AudioFilename: Je code avec le cul ! - PUB pour 4D Mario + Sonic = Somari _.mp3
AudioLeadIn: 0
PreviewTime: -1
Countdown: 0
SampleSet: Normal
StackLeniency: 0.7
Mode: 0
LetterboxInBreaks: 1
WidescreenStoryboard: 1

[Editor]
DistanceSpacing: 1
BeatDivisor: 4
GridSize: 8
TimelineZoom: 1

[Metadata]
Title:Je code avec le cul !
TitleUnicode:Je code avec le cul !
Artist:Ermite Moderne
ArtistUnicode:Ermite Moderne
Creator:Shad0w414
Version:Ou est mon clavier?
Source:Ermite Moderne
Tags:Ermite Moderne Je Code Avec Le Cul VoxMakers
BeatmapID:358750
BeatmapSetID:144444

[Difficulty]
HPDrainRate:7
CircleSize:5
OverallDifficulty:10
ApproachRate:9
SliderMultiplier:1.4
SliderTickRate:4

[Events]
//Background and Video events
Video,0,"Je code avec le cul ! - PUB pour 4D Mario + Sonic = Somari _.avi"
0,0,"hqdefault.jpg",0,0
//Break Periods
//Storyboard Layer 0 (Background)
//Storyboard Layer 1 (Fail)
//Storyboard Layer 2 (Pass)
//Storyboard Layer 3 (Foreground)
//Storyboard Sound Samples
//Background Colour Transformations
3,100,163,162,255

[TimingPoints]
850,545.454545454546,4,1,0,100,1,0

[HitObjects]
63,94,180,6,0,L|153:87,1,70
185,114,793,1,0,0:0:0:0:
254,117,1259,1,8,0:0:0:0:
323,127,1395,1,0,0:0:0:0:
411,140,1668,1,8,0:0:0:0:
342,222,1940,2,0,L|417:219,1,70
239,82,2759,5,0,0:0:0:0:
106,190,2895,1,0,0:0:0:0:
44,193,3031,1,0,0:0:0:0:
160,183,3304,1,0,0:0:0:0:
185,123,3577,1,0,0:0:0:0:
225,69,3850,5,0,0:0:0:0:
44,128,4122,2,8,L|154:121,1,105,8|4,0:0|0:0,0:0:0:0:
357,215,5213,5,0,0:0:0:0:
408,164,5486,1,0,0:0:0:0:
370,104,5759,1,0,0:0:0:0:
319,96,6031,1,0,0:0:0:0:
270,88,6304,1,0,0:0:0:0:
212,90,6577,1,0,0:0:0:0:
72,245,6850,5,0,0:0:0:0:
195,226,7122,1,0,0:0:0:0:
315,231,7395,1,0,0:0:0:0:
158,103,7668,1,0,0:0:0:0:
145,138,7940,1,0,0:0:0:0:
109,200,8213,1,0,0:0:0:0:
54,131,8486,2,0,L|104:64,1,70
405,265,9031,5,0,0:0:0:0:
52,307,9577,1,0,0:0:0:0:
87,257,9850,1,0,0:0:0:0:
120,209,10122,1,0,0:0:0:0:
152,216,10395,1,0,0:0:0:0:
209,240,10668,1,2,0:0:0:0:
118,302,11350,5,0,0:0:0:0:
60,307,11622,1,0,0:0:0:0:
163,305,11895,1,0,0:0:0:0:
290,313,12168,1,0,0:0:0:0:
226,310,12577,1,0,0:0:0:0:
56,108,12850,2,0,P|167:105|174:108,1,105,8|4,0:0|0:0,0:0:0:0:
428,324,13940,5,0,0:0:0:0:
383,322,14213,1,0,0:0:0:0:
331,327,14486,1,0,0:0:0:0:
265,315,14759,1,0,0:0:0:0:
216,299,15031,1,0,0:0:0:0:
173,226,15304,1,0,0:0:0:0:
117,176,15577,1,0,0:0:0:0:
80,117,15850,5,0,0:0:0:0:
190,80,16122,5,0,0:0:0:0:
245,123,16395,1,0,0:0:0:0:
384,196,16668,1,0,0:0:0:0:
313,176,16940,1,8,0:0:0:0:
51,52,17213,1,8,0:0:0:0:
