osu file format v12

[General]
AudioFilename: Je code avec le cul ! - PUB pour 4D Mario + Sonic = Somari _.mp3
AudioLeadIn: 0
PreviewTime: -1
Countdown: 0
SampleSet: Normal
StackLeniency: 0.7
Mode: 0
LetterboxInBreaks: 1
WidescreenStoryboard: 1

[Editor]
DistanceSpacing: 1
BeatDivisor: 4
GridSize: 8
TimelineZoom: 1.2

[Metadata]
Title:Je code avec le cul !
TitleUnicode:Je code avec le cul !
Artist:Ermite Moderne
ArtistUnicode:Ermite Moderne
Creator:Shad0w414
Version:Et je le fais bien!
Source:Ermite Moderne
Tags:Ermite Moderne Je Code Avec Le Cul VoxMakers
BeatmapID:413261
BeatmapSetID:144444

[Difficulty]
HPDrainRate:8
CircleSize:5
OverallDifficulty:9
ApproachRate:9
SliderMultiplier:3
SliderTickRate:4

[Events]
//Background and Video events
0,0,"hqdefault.jpg",0,0
Video,0,"Je code avec le cul ! - PUB pour 4D Mario + Sonic = Somari _.avi"
//Break Periods
//Storyboard Layer 0 (Background)
//Storyboard Layer 1 (Fail)
//Storyboard Layer 2 (Pass)
//Storyboard Layer 3 (Foreground)
//Storyboard Sound Samples
//Background Colour Transformations
3,100,163,162,255

[TimingPoints]
850,545.454545454546,4,1,0,100,1,0
850,-200,4,1,0,100,0,0
1940,-50,4,1,0,100,0,0
2759,-200,4,1,0,100,0,0
9029,-50,4,1,0,100,0,0
9577,-200,4,1,0,100,0,0
10668,-50,4,1,0,100,0,0
11486,-200,4,1,0,100,0,0
13122,-66.6666666666667,4,1,0,100,0,0
13940,-200,4,1,0,100,0,0

[HitObjects]
88,96,304,6,0,P|136:144|184:136,1,112.5
200,128,850,2,0,P|224:192|208:216,1,75
176,248,1395,1,0,0:0:0:0:
104,272,1668,1,0,0:0:0:0:
152,336,1940,2,0,B|200:304|200:304|288:368|304:368|288:184|304:176|488:288|488:288|376:136|384:128|488:80|480:64,1,600
368,88,2759,1,0,0:0:0:0:
336,72,2895,1,0,0:0:0:0:
296,64,3031,1,0,0:0:0:0:
200,72,3304,1,0,0:0:0:0:
112,120,3577,1,0,0:0:0:0:
56,200,3850,1,0,0:0:0:0:
56,272,4122,1,0,0:0:0:0:
64,304,4190,1,0,0:0:0:0:
88,320,4259,1,0,0:0:0:0:
120,312,4327,1,0,0:0:0:0:
144,288,4395,1,0,0:0:0:0:
160,256,4463,1,0,0:0:0:0:
192,232,4531,1,0,0:0:0:0:
240,232,4600,1,0,0:0:0:0:
296,240,4668,1,0,0:0:0:0:
328,264,4736,1,0,0:0:0:0:
416,280,4940,2,0,L|416:232,1,37.5
416,208,5213,1,0,0:0:0:0:
400,136,5486,1,0,0:0:0:0:
336,88,5759,1,0,0:0:0:0:
264,72,6031,1,0,0:0:0:0:
192,80,6304,1,0,0:0:0:0:
120,112,6577,1,0,0:0:0:0:
56,160,6850,1,0,0:0:0:0:
256,192,7122,1,0,0:0:0:0:
80,320,7395,1,0,0:0:0:0:
56,160,7668,1,0,0:0:0:0:
216,128,7940,1,0,0:0:0:0:
248,288,8213,1,0,0:0:0:0:
80,320,8486,1,0,0:0:0:0:
456,32,9031,2,0,L|72:312,1,450
456,32,9577,1,0,0:0:0:0:
472,104,9850,2,0,P|472:160|456:184,1,75
408,224,10395,1,0,0:0:0:0:
320,280,10668,2,0,B|344:240|344:240|304:240|304:240|344:224|344:224|304:216|304:216|304:32|304:32|248:88|248:88|240:72|240:72|200:64|200:64|128:112|128:112|200:160|200:160|128:224|128:224|200:280|200:280|312:352|288:368|288:368|264:360,1,900
272,328,11622,1,0,0:0:0:0:
312,336,11759,1,0,0:0:0:0:
384,312,12031,1,0,0:0:0:0:
432,256,12304,1,0,0:0:0:0:
440,184,12577,1,0,0:0:0:0:
424,112,12850,2,0,P|352:40|288:32,1,150
307,31,13395,2,0,P|184:72|152:152,1,225.000008583069
192,216,13940,1,0,0:0:0:0:
264,240,14213,2,0,L|320:160,1,75
384,176,14759,2,0,L|416:256,1,75
384,312,15304,2,0,L|288:304,1,75
256,256,15850,1,0,0:0:0:0:
48,40,16122,1,0,0:0:0:0:
40,344,16395,1,0,0:0:0:0:
464,32,16668,1,0,0:0:0:0:
472,344,16940,1,0,0:0:0:0:
256,192,17077,12,0,17214,0:0:0:0:
