osu file format v12

[General]
AudioFilename: Je code avec le cul ! - PUB pour 4D Mario + Sonic = Somari _.mp3
AudioLeadIn: 0
PreviewTime: -1
Countdown: 0
SampleSet: None
StackLeniency: 0.7
Mode: 0
LetterboxInBreaks: 1
WidescreenStoryboard: 1

[Editor]
DistanceSpacing: 1
BeatDivisor: 16
GridSize: 8
TimelineZoom: 1

[Metadata]
Title:Je code avec le cul !
TitleUnicode:Je code avec le cul !
Artist:Ermite Moderne
ArtistUnicode:Ermite Moderne
Creator:Shad0w414
Version:Assis sur son clavier
Source:Ermite Moderne
Tags:Ermite Moderne Je Code Avec Le Cul VoxMakers
BeatmapID:439255
BeatmapSetID:144444

[Difficulty]
HPDrainRate:8
CircleSize:5
OverallDifficulty:10
ApproachRate:8
SliderMultiplier:1.4
SliderTickRate:4

[Events]
//Background and Video events
Video,0,"Je code avec le cul ! - PUB pour 4D Mario + Sonic = Somari _.avi"
0,0,"hqdefault.jpg",0,0
//Break Periods
//Storyboard Layer 0 (Background)
//Storyboard Layer 1 (Fail)
//Storyboard Layer 2 (Pass)
//Storyboard Layer 3 (Foreground)
//Storyboard Sound Samples
//Background Colour Transformations
3,100,163,162,255

[TimingPoints]
850,545.454545454546,4,3,0,100,1,0

[HitObjects]
176,240,304,6,0,L|376:240,1,192.5
256,240,850,1,8,0:0:0:0:
56,160,1259,2,0,L|96:160,1,35
304,176,1668,1,0,0:0:0:0:
320,256,1940,1,0,0:0:0:0:
80,272,2179,1,0,0:0:0:0:
288,128,2213,1,0,0:0:0:0:
200,304,2247,1,0,0:0:0:0:
280,248,2452,1,0,0:0:0:0:
408,176,2486,1,0,0:0:0:0:
296,72,2588,1,2,0:0:0:0:
88,272,2759,1,8,0:0:0:0:
296,304,2929,1,0,0:0:0:0:
176,208,3031,1,0,0:0:0:0:
120,56,3134,1,0,0:0:0:0:
288,248,3304,1,0,0:0:0:0:
104,208,3475,1,0,0:0:0:0:
176,208,3577,1,0,0:0:0:0:
256,176,3645,1,0,0:0:0:0:
272,176,3781,1,0,0:0:0:0:
176,208,3850,1,0,0:0:0:0:
224,248,3952,1,8,0:0:0:0:
176,208,4122,1,0,0:0:0:0:
368,200,4156,1,0,0:0:0:0:
440,128,4327,1,0,0:0:0:0:
176,208,4395,1,0,0:0:0:0:
432,144,4600,1,0,0:0:0:0:
176,208,4668,1,0,0:0:0:0:
176,208,4804,1,0,0:0:0:0:
280,168,4838,1,0,0:0:0:0:
176,208,4940,1,0,0:0:0:0:
0,384,5009,1,0,0:0:0:0:
0,0,5213,1,12,0:0:0:0:
344,16,5350,1,0,0:0:0:0:
176,208,5486,1,0,0:0:0:0:
280,48,5554,1,0,0:0:0:0:
512,128,5725,1,0,0:0:0:0:
352,184,5759,1,0,0:0:0:0:
64,240,5929,1,0,0:0:0:0:
184,80,6031,1,0,0:0:0:0:
464,296,6100,1,0,0:0:0:0:
104,104,6304,1,0,0:0:0:0:
440,232,6338,1,8,0:0:0:0:
400,144,6543,1,0,0:0:0:0:
368,224,6577,1,0,0:0:0:0:
112,128,6850,1,0,0:0:0:0:
368,128,7122,1,0,0:0:0:0:
344,112,7395,1,0,0:0:0:0:
72,160,7668,1,0,0:0:0:0:
320,248,7804,1,8,0:0:0:0:
392,168,8077,1,0,0:0:0:0:
56,232,8350,1,0,0:0:0:0:
376,152,8622,1,0,0:0:0:0:
224,224,8690,1,0,0:0:0:0:
360,136,8895,1,0,0:0:0:0:
136,96,9440,1,8,0:0:0:0:
304,40,9850,1,0,0:0:0:0:
0,272,10259,1,0,0:0:0:0:
256,144,10361,2,8,B|192:192|184:240|176:328|48:320|40:208|96:176|80:192|224:184|344:192|400:192|456:200|464:288|464:328|352:336|264:344|184:344|112:344|56:320|40:264|128:264|240:288|280:232|216:232|80:256|40:176|208:184|344:264|264:320|160:320|32:256|40:184|40:128|24:80|24:40|24:16|88:16|144:16|176:16|192:32|192:40|192:56|192:72|208:80|232:64|240:48|248:32|256:32|280:40|288:56|288:72|288:96|288:104|304:120|336:112|352:80|360:56|368:40|400:32|440:48|448:56|456:64|456:88|448:112|440:128|432:144|424:152|424:168|432:184|440:192|408:320|384:320|368:320|344:328|336:344|320:352|208:304|224:256|272:232|344:224|376:224|400:128|336:120|280:200|240:216|336:192|392:128|200:160|224:96|128:96|120:168|32:128|32:168,1,1767.5
368,144,10668,1,0,0:0:0:0:
336,136,10804,1,0,0:0:0:0:
376,272,10940,1,0,0:0:0:0:
416,224,11077,1,0,0:0:0:0:
376,296,11213,1,0,0:0:0:0:
72,80,11281,1,0,0:0:0:0:
160,80,11452,1,0,0:0:0:0:
88,136,11486,1,0,0:0:0:0:
328,152,11622,1,0,0:0:0:0:
112,248,11759,1,0,0:0:0:0:
400,184,11827,1,0,0:0:0:0:
344,136,11997,1,0,0:0:0:0:
64,272,12031,1,0,0:0:0:0:
144,128,12168,1,0,0:0:0:0:
288,264,12202,1,0,0:0:0:0:
272,280,12406,1,0,0:0:0:0:
200,288,12577,1,0,0:0:0:0:
288,136,12611,1,0,0:0:0:0:
384,224,12815,1,0,0:0:0:0:
200,136,12850,1,0,0:0:0:0:
272,112,12986,1,0,0:0:0:0:
112,184,13122,1,8,0:0:0:0:
152,96,13190,1,0,0:0:0:0:
64,88,13395,1,0,0:0:0:0:
368,144,13600,1,0,0:0:0:0:
216,128,13770,1,0,0:0:0:0:
72,200,13940,1,0,0:0:0:0:
328,232,13975,1,0,0:0:0:0:
312,272,14111,1,0,0:0:0:0:
80,264,14213,1,0,0:0:0:0:
392,80,14315,1,0,0:0:0:0:
112,264,14350,1,0,0:0:0:0:
512,312,14486,1,0,0:0:0:0:
128,96,14690,1,0,0:0:0:0:
40,112,14759,1,8,0:0:0:0:
280,64,14861,1,0,0:0:0:0:
296,120,15031,1,0,0:0:0:0:
424,184,15065,1,0,0:0:0:0:
40,248,15168,1,0,0:0:0:0:
384,224,15236,1,0,0:0:0:0:
400,280,15440,1,0,0:0:0:0:
112,280,15577,1,0,0:0:0:0:
384,296,15645,1,0,0:0:0:0:
128,264,15713,1,0,0:0:0:0:
400,224,15850,1,0,0:0:0:0:
256,304,15986,1,0,0:0:0:0:
96,120,16020,1,0,0:0:0:0:
352,176,16225,1,0,0:0:0:0:
24,232,16259,1,0,0:0:0:0:
208,88,16395,1,0,0:0:0:0:
160,72,16531,1,8,0:0:0:0:
136,104,16600,1,0,0:0:0:0:
120,152,16770,1,0,0:0:0:0:
136,192,16804,1,0,0:0:0:0:
176,224,16940,1,0,0:0:0:0:
16,256,17077,1,0,0:0:0:0:
208,248,17145,1,0,0:0:0:0:
240,272,17350,1,0,0:0:0:0:
272,304,17554,1,0,0:0:0:0:
304,264,18031,1,0,0:0:0:0:
328,216,18270,1,0,0:0:0:0:
344,176,18440,1,0,0:0:0:0:
368,136,18611,1,8,0:0:0:0:
352,88,18781,1,0,0:0:0:0:
312,72,18986,1,0,0:0:0:0:
272,80,19156,1,0,0:0:0:0:
240,112,19327,1,0,0:0:0:0:
224,152,19531,1,0,0:0:0:0:
192,128,19702,1,0,0:0:0:0:
360,192,20009,1,4,0:0:0:0:
248,200,20247,1,4,0:0:0:0:
80,48,20452,1,14,0:0:0:0:
