osu file format v9

[General]
AudioFilename: Denpa_Onna_to_Seishun_Otoko_OP.mp3
AudioLeadIn: 2000
PreviewTime: 37307
Countdown: 0
SampleSet: Normal
StackLeniency: 0.7
Mode: 0
LetterboxInBreaks: 1

[Editor]
DistanceSpacing: 2
BeatDivisor: 4
GridSize: 4

[Metadata]
Title:Os-Uchuujin (TV Size)
Artist:Erio wo Kamatte-chan
Creator:TTTTTTTTTTTT
Version:LKs
Source:Denpa Onna to Seishun Otoko
Tags:Opening theme OP Electric Wave Woman and Youthful Man Dian bo nv Yu Qing chun nan The Alien Child Uchujin no Tokai Touwa Niwa Makoto Oogame asuka Irino Miyu LKs Denpa woodrockman

[Difficulty]
HPDrainRate:5
CircleSize:4
OverallDifficulty:8
ApproachRate:8
SliderMultiplier:2.2
SliderTickRate:1

[Events]
//Background and Video events
Video,-192,"Denpa_Onna_to_Seishun_Otoko_OP.avi"
0,0,"bg.jpg"
//Break Periods
//Storyboard Layer 0 (Background)
//Storyboard Layer 1 (Fail)
//Storyboard Layer 2 (Pass)
//Storyboard Layer 3 (Foreground)
Sprite,Foreground,Centre,"speed.png",320,240 M,0,20306,,320,240 F,0,20306,20623,1,0.2 F,0,20729,21046,1,0.2 F,0,21151,21468,1,0.2 F,0,21468,21574,0.2,0 F,0,21785,22102,1,0.2 F,0,22208,22525,1,0.2 F,0,22630,22947,1,0.2 F,0,22947,23264,0.2,0 F,0,85800,86116,0.9020012,0 F,0,86116,,0 F,0,86222,,0.91136 F,0,86222,,0.91136 F,0,86222,86539,0.91136,0 F,0,86539,,0 F,0,86645,86961,1,0 F,0,86961,,0 F,0,87067,,1 F,0,87067,87490,1,0
//Storyboard Sound Samples
//Background Colour Transformations
3,100,163,162,255

[TimingPoints]
25,422.535211267606,4,1,1,50,1,0
21046,-50,4,1,1,48,0,0
21679,-100,4,1,1,48,0,0
22525,-50,4,1,1,48,0,0
23370,-100,4,1,1,48,0,0
40582,422.535211267606,4,1,1,48,1,0
64232,422.535211267606,4,1,1,48,1,0
67029,422.535211267606,4,1,1,48,1,0
67631,422.535211267606,4,1,1,48,1,0
71105,-100,4,1,1,48,0,1
74385,422.535211267606,4,1,1,48,1,1
76488,422.535211267606,4,1,1,48,1,1
84964,422.535211267606,4,1,1,48,1,1
85800,422.535211267606,4,1,1,48,1,1
85905,-50,4,1,1,48,0,1
87912,-100,4,1,1,48,0,0

[Colours]
Combo1 : 176,0,66
Combo2 : 13,156,242
Combo3 : 249,230,0

[HitObjects]
120,64,25,2,0,B|176:72,1,55
240,32,236,2,0,B|264:104|208:144,1,110
152,160,553,2,0,B|88:168,1,55
24,160,764,2,0,B|32:216,1,55
8,88,1081,5,0
48,288,1292,1,0
196,96,1503,1,0
225,145,1609,1,0
256,192,1715,5,0
320,288,1926,2,0,B|368:320|424:344,1,110
448,272,2243,2,0,B|496:240|472:168,1,110
408,208,2560,6,0,B|384:136|456:96,1,110
496,24,2982,1,0
328,48,3194,1,0
192,72,3405,5,0
264,160,3616,1,0
144,176,3827,1,0
268,81,4039,5,0
210,216,4250,1,0
120,101,4461,1,0
336,125,4672,5,0
65,162,4884,1,0
268,81,5095,6,0,B|248:147,1,55
192,76,5306,2,0,B|211:15,1,55
124,104,5517,6,0,B|104:168,1,55
52,92,5728,2,0,B|71:31,1,55
18,169,5940,6,0,B|-16:120,3,55
1,246,6363,2,0,B|82:260|179:223,1,165,0|0
256,192,6785,6,0,B|208:144|208:88|264:48|264:48|312:96|312:96,1,220,0|0
424,48,7419,1,0
368,136,7630,1,0
488,104,7841,1,0
300,84,8053,6,0,B|188:52,1,110
55,75,8475,1,0
139,167,8686,1,0
194,53,8898,2,0,B|251:74|276:140|232:208,1,165
211,226,9320,1,0
96,279,9532,1,0
200,344,9743,1,0
96,279,9954,1,0
39,380,10165,6,0,B|-8:336|8:267,1,110
11,86,10588,2,0,B|17:160|72:181|160:160,1,192.5
97,79,11010,6,0,B|151:73|208:89,1,110
418,152,11433,2,0,B|364:158|307:142,1,110
294,35,11855,5,0
228,156,12067,1,0
162,278,12278,1,0
142,46,12595,1,0
142,46,12701,1,0
72,168,12912,1,0
20,296,13123,1,0
162,278,13334,1,0
343,301,13546,6,0,B|292:331|225:362,1,110
311,229,13968,2,0,B|375:214|408:240|420:280|420:280|464:260,1,165
456,188,14391,6,0,B|420:147|351:145,1,110
251,44,14813,1,0
392,144,15025,1,0
154,146,15236,2,0,B|224:151|286:157,1,110
353,249,15658,2,0,B|269:247|168:240,1,165
115,246,16081,5,0
55,136,16292,1,0
110,25,16503,1,0
154,145,16715,1,0
272,53,16926,6,0,B|230:104|269:164,1,110
300,274,17348,2,0,B|372:220|328:100,1,165
408,90,17771,2,0,B|515:58,1,110
456,150,18194,5,0
409,244,18405,1,0
483,354,18616,5,0
336,328,18827,1,0
359,348,18933,1,0
202,298,19144,1,0
209,332,19250,1,0
103,252,19461,1,0
86,282,19567,1,0
67,316,19672,1,0
85,351,19778,1,0
101,384,19884,1,0
6,256,20095,5,0
81,156,20306,2,0,B|22:46|5:50|15:50|4:59|136:48,1,220,0|0
431,228,21151,2,8,B|490:338|507:334|497:334|508:325|376:336,1,220,0|0
358,265,21574,1,0
431,156,21785,6,0,B|490:46|507:50|497:50|508:59|376:48,1,220,0|0
81,228,22630,2,0,B|22:338|5:334|15:334|4:325|136:336,1,220,0|0
256,368,23053,1,0
240,320,23158,1,0
224,272,23264,1,0
288,112,23475,1,0
272,64,23581,1,0
256,16,23686,1,0
184,144,23898,5,0
328,240,24109,1,0
368,152,24532,5,0
144,232,24743,5,0
216,56,24954,1,0
408,72,25165,2,0,B|496:136|496:136|456:184|432:248,2,220
216,56,26222,1,0
144,232,26433,5,0
184,240,26539,1,0
224,248,26644,1,0
264,256,26750,1,0
264,216,26855,1,0
304,224,26961,1,0
344,232,27067,6,0,B|376:160|400:120,1,110
456,176,27489,1,0
216,56,27912,2,0,B|240:112|264:168,1,110
184,176,28334,1,0
64,344,28546,2,0,B|32:232,1,110
24,32,28968,5,0
448,80,29391,1,0
496,360,29813,1,0
264,304,30236,1,0
244,320,30341,1,0
224,296,30447,1,0
200,312,30553,1,0
168,304,30658,2,0,B|56:320,1,110
320,344,31080,5,0
304,200,31292,1,0
168,304,31503,1,0
156,132,31715,1,0
56,272,31926,6,0,B|8:184|48:56,1,220
56,112,32771,2,0,B|8:200|48:328,1,220
104,192,33405,6,0,B|-24:192,1,110
240,144,33827,2,0,B|216:24,1,110
240,144,34250,2,0,B|264:264,1,110
256,288,34884,6,0,B|252:15,1,220
256,192,35517,12,0,36362
440,64,37208,6,0,B|336:96|384:208,1,165
442,146,37630,1,8
344,384,37841,2,2,B|424:376|472:320|440:216,1,220
352,304,38475,5,8
256,328,38686,1,0
160,352,38898,1,0
56,200,39109,5,0
104,212,39215,1,0
152,224,39320,1,8
248,248,39532,1,0
80,296,39954,5,0
8,344,40165,1,8
1,259,40377,1,0
24,56,40582,6,0,B|16:144|32:176|72:216,1,165
136,240,41004,1,8
256,336,41216,2,2,B|272:232|224:176|136:160,1,220
256,48,41849,1,8
168,88,42061,6,0,B|216:104|277:147,1,110
352,88,42483,2,0,B|376:32,1,55,2|0
440,64,42695,2,0,B|448:184,1,110,8|2
360,360,43117,1,0
392,336,43223,1,2
488,304,43434,1,0
512,336,43540,1,8
408,240,43751,1,2
296,272,43962,6,0,B|264:160|264:160|264:160|224:120,1,165
200,200,44385,2,0,B|136:176|136:176|80:152,1,110,8|0
480,16,45019,1,0
448,112,45230,1,8
416,208,45441,1,0
312,64,45652,6,0,B|272:128|272:128|344:192,1,165,0|0
416,168,46075,2,0,B|352:128|352:128|288:200,1,165,8|0
312,272,46497,2,0,B|352:208|352:208|280:144,1,165
208,176,46920,1,8
96,168,47131,1,0
0,216,47342,5,2
104,80,47554,1,2
160,240,47765,1,8
264,128,47976,1,2
368,240,48188,1,2
424,88,48399,1,2
512,224,48610,1,8
360,152,48821,5,2
256,288,49033,1,8
160,152,49244,1,0
160,152,49349,1,0
160,152,49455,1,0
368,240,49666,5,8
160,240,49878,5,0
224,192,49983,1,0
264,128,50089,1,0
304,192,50195,1,0
368,240,50300,1,8
160,240,50511,5,0
48,336,50723,2,2,B|-16:232|56:112,1,220,2|2
240,56,51357,2,2,B|304:160|232:280,1,220
160,136,51990,6,0,B|112:24,1,110,8|0
344,72,52413,2,0,B|376:128|360:192,1,110,2|2
136,280,52835,2,0,B|192:312|256:296,1,110,8|2
168,312,53469,2,0,B|136:256|152:192,1,110,2|8
376,104,53892,2,0,B|320:72|256:88,1,110,2|0
176,112,54526,5,8
352,288,54737,1,2
464,24,55159,5,2
480,120,55371,1,8
480,216,55582,1,2
352,328,55793,6,0,B|384:248|400:152,1,165,2|0
291,102,56216,2,0,B|312:160|328:240,1,110,8|2
184,72,56638,2,0,B|205:130|221:210,1,110,0|2
144,280,57061,6,0,B|123:222|107:142,1,110,8|0
80,140,57378,1,0
39,114,57483,2,2,B|-10:130|-10:130|-41:33|15:30,1,165,2|0
90,39,57906,2,0,B|153:47|203:69|204:69|204:69,1,110,8|2
311,48,58328,1,0
421,29,58540,1,2
292,132,58751,5,8
418,116,58962,1,0
262,212,59173,5,2
429,204,59385,1,2
223,288,59596,5,8
47,308,59807,1,2
219,203,60019,5,0
66,227,60230,1,2
212,124,60441,5,8
64,144,60652,1,0
202,42,60864,6,0,B|144:62,1,55
54,62,61075,2,0,B|122:62|147:136,1,110,2|8
292,111,61497,2,0,B|292:179|218:204,1,110,2|0
416,88,61920,2,0,B|348:88|323:14,1,110,2|8
444,207,62342,2,0,B|444:139|518:114,1,110,2|0
220,111,62976,6,0,B|220:179|294:204,1,110,8|4
86,137,63610,1,0
36,192,63716,1,0
16,264,63821,1,0
40,64,64033,5,0
112,40,64138,1,0
184,16,64232,2,0,B|216:128|216:112|256:248|256:248|256:248|256:248,1,220
184,368,64866,2,0,B|216:256|216:272|256:136|256:136|256:136|256:136,1,220
140,40,65711,6,0,B|200:140|196:125|270:246|270:246|270:246|270:246,1,220
140,343,66344,2,0,B|200:243|196:258|270:137|270:137|270:137|270:137,1,220
368,192,67029,2,0,B|248:192,1,110
64,192,67452,1,0
88,104,67631,5,0
184,184,67842,1,0
216,104,68054,5,0
256,256,68265,1,0
136,288,68476,21,0
256,184,68687,1,0
376,288,68899,21,0
328,184,69110,1,0
296,104,69322,5,0
328,104,69427,1,0
360,104,69533,1,0
392,104,69638,1,0
424,104,69744,1,0
456,104,69850,1,0
488,104,69955,1,0
488,144,70061,5,0
456,144,70167,1,0
56,344,71011,2,0,B|56:268|56:268|72:272|72:272|72:192,1,165
32,140,71434,2,0,B|48:84|48:84|48:84|48:84|112:68,1,110,8|0
256,112,71856,2,0,B|152:40,1,110
256,272,72279,6,0,B|360:344,1,110,8|0
456,40,72702,6,0,B|456:116|456:116|440:112|440:112|440:192,1,165
480,244,73123,2,0,B|464:301|464:301|464:301|464:301|413:313,1,110,8|0
208,336,73547,1,0
252,280,73652,1,0
284,216,73758,1,2
304,148,73864,1,0
304,76,73969,1,8
304,76,74075,5,0
372,100,74180,1,2
392,168,74286,1,0
368,240,74385,6,0,B|433:266|431:343|368:363,1,165
328,304,74807,2,0,B|208:312,1,110,8|0
128,232,75230,1,0
144,336,75441,1,0
56,216,75652,2,0,B|72:152|160:152,1,110,8|0
248,48,76075,5,0
448,352,76488,2,0,B|480:304|488:240,1,110,8|0
456,40,77122,1,2
424,88,77228,1,0
384,128,77333,1,8
296,168,77545,1,2
184,184,77756,6,0,B|144:240|80:320,1,165
56,240,78179,1,8
16,112,78390,1,0
144,256,78601,5,0
96,128,78812,1,0
224,248,79024,5,8
168,104,79235,1,0
264,344,79446,6,0,B|312:288,1,55,0|0
356,240,79657,2,0,B|396:296,1,55,0|0
448,344,79869,2,0,B|400:376|320:368,1,110,8|0
424,160,80291,6,0,B|464:216|472:288,1,110
464,32,80714,6,0,B|400:40|368:104,1,110,8|0
312,160,81136,6,2,B|200:128,1,110
320,248,81559,2,2,B|208:216,1,110,0|2
472,272,81981,6,0,B|360:240,1,110,0|2
480,176,82404,2,2,B|368:144,1,110,2|0
88,56,83038,2,0,B|96:216|88:216|8:224,1,220
308,32,83883,1,0
344,64,83988,1,0
340,112,84094,1,0
384,96,84200,1,0
420,128,84305,1,0
376,298,84517,6,0,B|435:252|448:202|449:202|466:136,1,165
459,160,84964,1,8
338,203,85175,1,0
238,267,85387,1,0
138,342,85598,1,0
309,343,85800,5,8
468,340,86011,2,0,B|362:265|314:117|442:81|482:169|482:169|290:173,1,440,0|0
46,339,86856,2,0,B|152:264|200:116|72:80|32:168|32:168|224:172,1,440,0|0
60,40,87490,1,0
256,88,87701,1,0
452,40,87912,1,4
