osu file format v9

[General]
AudioFilename: Denpa_Onna_to_Seishun_Otoko_OP.mp3
AudioLeadIn: 2000
PreviewTime: 37307
Countdown: 0
SampleSet: Soft
StackLeniency: 0.7
Mode: 0
LetterboxInBreaks: 1

[Editor]
Bookmarks: 20403
DistanceSpacing: 0.9
BeatDivisor: 2
GridSize: 8

[Metadata]
Title:Os-Uchuujin (TV Size)
Artist:Erio wo Kamatte-chan
Creator:TTTTTTTTTTTT
Version:Hard
Source:Denpa Onna to Seishun Otoko
Tags:Opening theme OP Electric Wave Woman and Youthful Man Dian bo nv Yu Qing chun nan The Alien Child Uchujin no Tokai Touwa Niwa Makoto Oogame asuka Irino Miyu LKs Denpa woodrockman

[Difficulty]
HPDrainRate:4
CircleSize:5
OverallDifficulty:6
ApproachRate:7
SliderMultiplier:1.7
SliderTickRate:1

[Events]
//Background and Video events
Video,-192,"Denpa_Onna_to_Seishun_Otoko_OP.avi"
0,0,"bg.jpg"
//Break Periods
2,64432,69407
//Storyboard Layer 0 (Background)
//Storyboard Layer 1 (Fail)
//Storyboard Layer 2 (Pass)
//Storyboard Layer 3 (Foreground)
//Storyboard Sound Samples
//Background Colour Transformations
3,100,163,162,255

[TimingPoints]
25,422.535211267606,4,2,1,70,1,0
21679,-100,4,1,0,60,0,0
23158,-100,4,1,0,50,0,0
23370,-100,4,2,0,80,0,0
24003,-100,4,1,0,55,0,0
24215,-100,4,2,0,80,0,0
25165,-100,4,1,0,50,0,0
25482,-100,4,1,0,60,0,0
26213,-100,4,2,0,80,0,0
28440,-100,4,1,0,55,0,0
28748,-100,4,1,0,60,0,0
29919,-100,4,1,0,50,0,0
30130,-100,4,2,0,80,0,0
30764,-100,4,1,0,50,0,0
30975,-100,4,2,0,80,0,0
31820,-100,4,1,0,57,0,0
32551,-100,4,2,0,80,0,0
33616,-100,4,1,0,55,0,0
33722,-100,4,2,0,80,0,0
33933,-100,4,1,0,55,0,0
34461,-100,4,1,0,45,0,0
34567,-100,4,2,0,80,0,0
37102,-100,4,1,0,60,0,0
40582,422.535211267606,4,1,1,60,1,0
64232,422.535211267606,4,1,1,60,1,0
67029,422.535211267606,4,1,1,60,1,0
67631,422.535211267606,4,1,1,60,1,0
70157,-100,4,2,0,80,0,0
71011,-100,4,1,0,57,0,1
74385,422.535211267606,4,1,1,57,1,1
76488,422.535211267606,4,1,1,57,1,1
84964,422.535211267606,4,1,1,57,1,1
85800,422.535211267606,4,1,1,67,1,1
87912,-100,4,1,0,57,0,0

[Colours]
Combo1 : 176,0,66
Combo2 : 13,156,242
Combo3 : 249,230,0

[HitObjects]
72,72,6574,1,0
72,72,6785,2,0,B|104:152|64:240,1,170,4|0
304,328,7841,1,0
328,264,8053,1,2
392,264,8264,1,0
416,328,8475,2,0,B|499:284|456:152,1,170,0|2
256,32,9532,5,0
224,88,9743,1,2
192,32,9954,1,0
128,32,10165,2,0,B|64:106|127:192,1,170,0|2
344,320,11222,5,0
392,272,11433,1,2
352,216,11644,1,0
288,232,11855,2,0,B|208:264|112:227,1,170,0|2
0,16,12912,5,0
48,64,13123,2,0,B|64:160,1,85,0|0
56,216,13546,1,4
56,216,13968,1,0
296,304,14602,5,0
344,256,14813,2,0,B|384:168|328:88,1,170,2|0
272,64,15447,1,0
272,64,15658,1,2
40,168,16292,5,0
104,192,16503,2,0,B|168:216|112:320|224:312,1,170,2|0
232,248,17137,1,0
264,184,17348,1,2
480,48,17982,5,0
424,88,18194,2,0,B|320:112,1,85,2|0
272,96,18616,1,4
112,48,19039,1,0
168,296,19672,5,2
224,256,19884,1,0
288,272,20095,1,0
304,336,20306,6,0,B|416:336,1,85,4|2
432,264,20729,2,0,B|336:264,1,85,0|2
304,192,21151,2,0,B|416:192,1,85,0|2
456,192,21574,1,0
456,192,21785,5,0
336,72,22208,1,0
184,152,22630,1,0
280,296,23053,1,0
216,312,23264,6,0,B|216:208,1,85,0|2
216,56,23898,1,2
216,56,24109,1,0
128,56,24320,2,0,B|48:96|176:160|88:216,2,170,0|2|0
264,160,25588,1,0
408,64,26010,1,0
488,216,26433,5,0
424,248,26644,1,0
424,184,26855,1,0
360,224,27067,6,0,B|360:320,1,85,4|2
280,336,27489,2,0,B|280:232,1,85,0|2
200,216,27912,2,0,B|200:312,1,85,0|2
200,368,28334,1,0
200,368,28546,5,0
80,248,28968,1,0
208,144,29391,1,0
328,264,29813,1,0
392,264,30024,5,0
392,264,30236,2,0,B|472:233|456:152|392:112,1,170,2|2
360,88,30870,1,0
296,56,31081,5,2
232,40,31292,2,0,B|143:25|108:85|120:152,1,170,0|0
136,192,31926,5,0
256,312,32348,1,0
376,192,32771,6,0,B|384:128|448:128|480:168|464:208|448:224,2,170,0|2|0
336,248,33827,1,0
296,304,34039,2,0,B|224:321|167:293|160:216,1,170,0|0
160,64,34884,1,4
160,64,35306,1,0
256,192,35517,12,0,36785
448,56,37208,5,4
336,136,37630,1,0
272,112,37841,1,0
120,48,38264,1,0
56,24,38475,2,0,B|48:112,1,85
40,176,38898,6,2,B|122:239|216:152,1,170
232,112,39532,1,8
344,240,39954,1,8
344,240,40165,1,0
424,88,40582,5,4
256,48,41004,2,0,B|200:24|168:80,1,85
80,200,41638,1,0
128,248,41849,1,0
176,200,42060,1,0
240,200,42272,5,2
408,200,42694,1,2
472,200,42905,2,8,B|464:88|352:56,1,170
320,48,43539,1,0
256,40,43751,1,0
192,48,43962,5,4
256,208,44384,1,0
256,208,44596,1,0
424,232,45018,1,0
456,296,45229,2,0,B|400:328|344:272,1,85,8|0
352,232,45652,6,2,B|272:184|176:216,1,170
24,248,46497,1,2
184,176,46920,5,0
240,208,47131,1,0
304,224,47342,2,0,B|360:232|392:152,1,85,2|0
336,136,47765,2,2,B|264:128|256:208,1,85,2|0
266,171,48187,1,0
152,40,48610,1,0
128,104,48821,1,0
104,168,49032,6,8,B|208:168,1,85
264,240,49455,2,2,B|152:240,1,85
108,240,49877,1,8
37,239,50089,1,8
72,176,50300,1,2
144,176,50511,1,0
216,176,50722,5,4
416,176,51145,1,0
384,112,51356,1,0
232,40,51779,1,0
208,104,51990,1,0
256,152,52201,1,0
320,144,52412,6,2,B|400:176|408:296,1,170
384,344,53046,1,8
224,288,53469,1,8
224,288,53680,1,0
344,168,54103,5,4
464,288,54525,1,0
400,288,54736,2,0,B|400:176|504:168,1,170
440,128,55370,1,0
376,144,55581,1,0
312,128,55793,5,2
144,128,56215,1,2
80,128,56427,2,8,B|104:32|224:48,1,170
248,104,57060,2,0,B|208:200|96:184,1,170,0|4
32,336,57905,5,0
32,264,58117,2,0,B|144:288|152:384,1,170
208,344,58751,1,0
248,288,58962,1,0
280,232,59173,6,2,B|304:296|376:288,1,85,2|0
384,232,59596,2,2,B|368:192|304:168,1,85,2|0
264,144,60018,1,8
200,160,60229,1,8
136,176,60441,1,2
72,192,60652,1,0
88,128,60863,6,8,B|96:64|56:32,1,85
8,56,61286,2,2,B|0:120|40:152,1,85
56,200,61708,1,8
72,264,61920,1,0
88,328,62131,5,2
232,248,62553,1,4
400,240,62976,1,0
400,240,63187,1,0
256,192,63398,12,4,64232
320,184,70307,5,0
320,184,70588,2,0,B|320:80,1,85
320,24,71011,5,4
248,56,71222,1,0
176,24,71433,1,0
104,56,71645,2,0,B|104:168,1,85
32,168,72067,2,0,B|32:72,1,85
104,142,72490,1,0
176,128,72701,6,2,B|240:184|336:144|352:120,1,170
360,208,73335,1,8
328,280,73546,2,2,B|264:224|168:264|152:288,1,170
104,232,74180,1,8
104,152,74385,6,0,B|176:64,1,85,4|0
232,112,74807,2,0,B|176:184,1,85,0|0
200,256,75230,1,0
272,232,75441,1,0
336,272,75652,1,0
272,232,75863,1,0
336,272,76075,5,2
464,192,76488,1,2
421,128,76699,1,8
480,80,76910,2,2,B|384:8|304:112,1,170
264,144,77544,1,8
288,216,77755,5,4
368,352,78178,2,0,B|496:344|528:232,1,170
464,216,78811,1,0
400,176,79023,1,0
336,136,79234,1,0
272,96,79445,5,2
88,144,79868,1,2
160,168,80079,1,8
104,224,80290,1,2
176,240,80502,1,2
128,304,80713,1,8
200,312,80924,1,0
256,256,81135,5,2
224,104,81558,1,0
352,184,81980,1,2
328,32,82403,1,0
32,160,83037,5,2
152,304,83459,1,0
312,208,83882,1,2
192,64,84304,1,0
192,64,84516,5,6
32,224,84964,1,0
216,336,85386,1,2
270,281,85597,1,0
320,336,85800,1,0
320,336,86011,5,2
440,128,86433,1,0
208,64,86856,1,2
88,272,87278,1,0
152,232,87490,1,2
152,232,87701,1,0
88,272,87912,1,4
