osu file format v9

[General]
AudioFilename: Denpa_Onna_to_Seishun_Otoko_OP.mp3
AudioLeadIn: 2000
PreviewTime: 37307
Countdown: 0
SampleSet: Normal
StackLeniency: 0.7
Mode: 0
LetterboxInBreaks: 1

[Editor]
Bookmarks: 20403
DistanceSpacing: 0.8
BeatDivisor: 2
GridSize: 8

[Metadata]
Title:Os-Uchuujin (TV Size)
Artist:Erio wo Kamatte-chan
Creator:TTTTTTTTTTTT
Version:Easy
Source:Denpa Onna to Seishun Otoko
Tags:Opening theme OP Electric Wave Woman and Youthful Man Dian bo nv Yu Qing chun nan The Alien Child Uchujin no Tokai Touwa Niwa Makoto Oogame asuka Irino Miyu LKs Denpa woodrockman

[Difficulty]
HPDrainRate:2
CircleSize:3
OverallDifficulty:2
ApproachRate:2
SliderMultiplier:0.8
SliderTickRate:1

[Events]
//Background and Video events
Video,-192,"Denpa_Onna_to_Seishun_Otoko_OP.avi"
0,0,"bg.jpg"
//Break Periods
2,64443,69451
//Storyboard Layer 0 (Background)
//Storyboard Layer 1 (Fail)
//Storyboard Layer 2 (Pass)
//Storyboard Layer 3 (Foreground)
//Storyboard Sound Samples
//Background Colour Transformations
3,100,163,162,255

[TimingPoints]
25,422.535211267606,4,1,1,60,1,0
37084,-100,4,1,0,60,0,0
40582,422.535211267606,4,1,1,58,1,0
64232,422.535211267606,4,1,1,58,1,0
67029,422.535211267606,4,1,1,58,1,0
67631,422.535211267606,4,1,1,58,1,0
71011,-100,4,1,0,58,0,1
74385,422.535211267606,4,1,1,58,1,1
76488,422.535211267606,4,1,1,58,1,1
84964,422.535211267606,4,1,1,58,1,1
85800,422.535211267606,4,1,1,58,1,1
87912,-100,4,1,0,55,0,0

[Colours]
Combo1 : 176,0,66
Combo2 : 13,156,242
Combo3 : 249,230,0

[HitObjects]
40,40,6785,5,4
152,104,7630,1,0
256,176,8475,2,0,B|256:280,1,80,2|0
80,328,10165,5,4
192,264,11010,1,0
296,192,11855,2,0,B|296:104,1,80,2|0
104,88,13546,5,4
168,200,14391,1,0
248,304,15236,2,0,B|344:304,1,80,2|0
392,120,16926,5,4
392,248,17771,1,0
280,312,18616,2,0,B|280:216,1,80,2|0
184,64,20306,5,4
112,168,21151,1,0
208,168,21785,1,0
272,168,22208,1,0
336,168,22630,2,0,B|336:272,1,80,2|0
392,280,23475,1,0
336,168,24320,5,0
280,136,24743,1,0
224,104,25165,2,0,B|64:104,1,160,4|0
184,216,27067,5,4
256,112,27912,1,0
160,112,28546,1,0
96,112,28969,1,0
32,112,29391,2,0,B|32:8,1,80,2|0
96,32,30236,1,0
16,136,31081,5,0
72,168,31504,1,0
128,200,31926,2,0,B|240:200,1,80,4|0
248,152,32771,6,0,B|328:184,2,80,0|0|0
248,216,34039,2,0,B|160:176,2,80
256,192,35306,12,4,37208
112,96,38053,21,0
48,208,38898,1,0
112,208,39320,1,0
176,208,39743,1,8
120,320,40582,21,0
248,296,41427,1,0
368,264,42272,1,0
368,200,42694,1,0
368,136,43117,1,8
248,80,43962,22,0,B|56:80,1,160
56,200,45652,2,0,B|248:200,1,160,0|8
296,296,47342,5,0
352,264,47765,1,8
296,232,48187,1,0
240,200,48610,1,8
184,168,49032,6,0,B|121:176|81:87|152:40,1,160
193,32,50300,1,8
256,48,50722,5,4
376,96,51567,1,0
256,144,52412,1,0
256,208,52834,1,0
256,272,53257,1,8
160,192,54103,5,4
88,296,54948,1,0
16,192,55793,1,0
16,128,56215,1,0
16,64,56638,1,8
144,48,57483,6,0,B|336:48,1,160,4|0
392,144,59173,1,0
424,200,59596,1,8
360,216,60018,1,0
296,232,60441,1,8
232,240,60863,6,0,B|169:248|129:159|200:112,2,160,0|0|4
256,192,62765,12,0,64243
456,64,71011,5,4
352,136,71856,1,0
232,88,72701,1,0
168,104,73123,1,8
104,120,73546,1,0
96,248,74385,5,4
216,296,75230,1,0
304,200,76075,1,0
360,176,76488,1,8
416,152,76910,1,0
336,56,77755,5,4
256,152,78600,1,0
176,56,79445,1,0
144,112,79868,1,8
112,168,80290,1,0
72,288,81135,6,0,B|232:288,1,160
296,288,82403,1,0
352,208,83037,6,0,B|192:208,1,160
128,208,84304,2,0,B|64:208,1,40,0|0
20,208,84964,1,0
256,192,85386,12,4,87912
