osu file format v5

[General]
AudioFilename: Erika - Relations.mp3
AudioLeadIn: 0
PreviewTime: -1
Countdown: 1
SampleSet: Normal
StackLeniency: 0.7
Mode: 0
LetterboxInBreaks: 1

[Metadata]
Title:Relations
Artist:Erika
Creator:emanuele
Version:Hard
Source:
Tags:

[Difficulty]
HPDrainRate:6
CircleSize:6
OverallDifficulty:6
SliderMultiplier:1.4
SliderTickRate:2

[Events]
//Background and Video events
//Break Periods
2,28221,41638
2,85556,98526
2,155553,162526
//Storyboard Layer 0 (Background)
//Storyboard Layer 1 (Failing)
//Storyboard Layer 2 (Passing)
//Storyboard Layer 3 (Foreground)
//Storyboard Sound Samples
//Background Colour Transformations
3,100,163,162,255

[TimingPoints]
14318,444.442161470062,4,1,0,100,1

[HitObjects]
64,64,14243,1,0
64,160,14688,1,0
64,256,15132,1,0
64,352,15577,1,0
160,352,16021,6,0,B|160:288|192:256|256:256,1,140
224,352,16910,2,0,B|320:352|320:256,1,140
416,352,17799,5,0
416,256,18243,1,0
416,160,18688,1,0
416,64,19132,1,0
288,64,19577,6,0,B|288:160|192:128,1,140
224,64,20466,2,0,B|128:64|128:160|160:160,1,140
64,64,21355,5,0
64,64,21799,1,0
64,160,22243,5,0
64,160,22688,1,0
64,256,23132,5,0
64,256,23577,1,0
64,352,24021,5,0
64,352,24466,1,0
160,352,24910,5,0
256,352,25354,1,0
352,352,25799,1,0
448,352,26243,1,0
448,256,26688,6,0,B|288:256,3,140
64,320,42688,5,4
160,320,43132,1,0
160,224,43577,2,0,B|320:224,1,140
300,224,44465,2,0,B|151:223,1,140
64,64,45354,5,0
128,128,45799,1,0
192,192,46243,1,0
320,192,46688,1,0
384,128,47132,5,0
448,64,47577,1,0
448,160,48021,2,0,B|448:256|352:224,1,140
384,160,48910,2,0,B|288:160|288:256,1,140
352,224,49799,6,0,B|352:320|256:288,1,140,0|0
288,224,50688,2,0,B|192:224|192:320,1,140
256,320,51577,2,0,B|192:384|160:352|128:320,1,140
192,288,52465,2,0,B|192:32|192:32|320:32|320:128|192:160|192:160|352:320,1,700
352,288,55132,5,0
256,288,55577,1,0
256,192,56021,1,0
256,192,56910,1,4
64,32,57799,5,0
160,32,58243,1,0
160,128,58688,1,0
64,128,59132,2,0,B|64:224|160:224,1,140
224,224,60021,5,0
320,224,60465,1,0
416,224,60910,1,0
416,128,61354,2,0,B|416:32|320:32,1,140
320,128,62243,5,0
224,128,62688,1,0
224,32,63132,1,0
128,32,63577,2,0,B|32:32|64:128,1,140
128,128,64465,5,0
128,224,64910,1,0
64,288,65354,1,0
128,352,65799,1,0
192,288,66243,5,0
320,288,66688,1,0
384,192,67132,1,0
256,192,67576,1,4
448,32,71132,5,4
384,64,71576,1,4
384,128,71799,1,0
320,96,72021,1,4
320,160,72243,5,0
256,192,72465,1,4
310,225,72688,2,0,B|311:257|256:256,1,70,0|4
128,64,73354,5,4
128,128,73577,1,0
192,96,73799,1,4
192,160,74021,5,0
256,192,74243,1,4
192,224,74466,2,0,B|192:256|256:256,1,70,0|4
128,320,75132,5,4
128,256,75355,1,0
192,288,75577,1,4
192,224,75799,5,0
256,192,76021,1,4
192,160,76244,2,0,B|192:128|256:128,1,70,0|4
384,320,76910,5,4
384,256,77133,1,0
320,288,77355,1,4
320,224,77577,5,0
256,192,77799,1,4
320,160,78022,2,0,B|320:128|256:128,1,70,0|4
384,64,78688,1,4
384,128,78911,1,0
320,96,79133,1,4
320,160,79355,5,0
256,192,79577,1,4
310,225,79800,2,0,B|311:257|256:256,1,70,0|4
128,64,80466,5,4
128,128,80689,1,0
192,96,80911,1,4
192,160,81133,5,0
256,192,81355,1,4
192,224,81578,2,0,B|192:256|256:256,1,70,0|4
128,320,82244,5,4
128,256,82467,1,0
192,288,82689,1,4
192,224,82911,5,0
256,192,83133,1,4
192,160,83356,2,0,B|192:128|256:128,1,70,0|4
384,320,84022,5,4
384,256,84245,1,0
320,288,84467,1,4
320,224,84689,5,0
256,192,84911,1,4
320,160,85134,2,0,B|320:128|256:128,1,70,0|4
64,64,99576,5,0
64,160,100243,1,0
160,160,100687,1,0
160,256,100910,5,0
256,256,101132,1,0
352,256,101354,1,0
352,352,102021,5,0
448,352,102465,1,0
448,256,102687,1,0
448,160,102910,5,0
448,64,103132,1,0
352,64,103799,1,0
288,128,104243,5,0
224,192,104465,1,0
160,256,104687,1,0
96,320,104910,2,0,B|32:160|160:64,1,280
64,320,106687,5,0
64,192,107354,1,0
64,64,107798,1,0
64,64,108021,5,0
64,64,108243,1,0
64,64,108465,1,0
256,64,109132,5,0
256,192,109576,1,0
256,192,109798,1,0
256,192,110021,5,0
256,192,110243,1,0
256,320,110910,1,0
384,320,111354,5,0
384,320,111576,1,0
384,320,111798,1,0
384,320,112021,2,0,B|320:160|448:64,1,280
256,192,113798,12,0,120021
256,192,120910,12,0,128021
192,192,128465,5,0
320,192,128687,1,0
64,320,129798,1,0
128,320,130021,5,0
192,320,130243,1,0
256,320,130465,1,0
256,320,131576,5,0
320,320,131799,1,0
384,320,132021,1,0
448,320,132243,5,0
448,320,133354,1,0
448,256,133577,1,0
448,192,133799,5,0
448,128,134021,1,0
448,64,135132,1,0
384,64,135355,5,0
320,64,135577,1,0
256,64,135799,1,0
192,64,136909,5,0
128,64,137132,1,0
64,64,137354,1,0
64,128,137576,5,0
64,192,138687,1,0
64,256,138910,1,0
64,320,139132,5,0
128,320,139354,1,0
192,320,140465,2,0,B|256:288,3,70
320,320,142243,6,0,B|352:256,1,70
351,257,142687,2,0,B|288:224,1,70
416,64,144021,6,0,B|416:144,1,70
416,134,144465,2,0,B|417:49|417:50,1,70
64,64,145798,6,0,B|111:126,1,70
106,119,146243,2,0,B|160:64,1,70
96,256,148021,6,0,B|96:192|128:192,1,70
192,320,149354,2,0,B|224:256,3,70
416,96,151132,6,0,B|325:95,3,70
96,96,152909,6,0,B|128:160,3,70
224,224,154687,6,0,B|288:160,3,70
256,192,163576,5,4
256,192,165354,1,4
256,192,167132,1,4
256,192,168909,5,4
256,192,169354,1,4
256,192,169798,1,4
448,32,170687,5,4
384,64,171131,1,4
384,128,171354,1,0
320,96,171576,1,4
320,160,171798,5,0
256,192,172020,1,4
310,225,172243,2,0,B|311:257|256:256,1,70,0|4
128,64,172909,5,4
128,128,173132,1,0
192,96,173354,1,4
192,160,173576,5,0
256,192,173798,1,4
192,224,174021,2,0,B|192:256|256:256,1,70,0|4
128,320,174687,5,4
128,256,174910,1,0
192,288,175132,1,4
192,224,175354,5,0
256,192,175576,1,4
192,160,175799,2,0,B|192:128|256:128,1,70,0|4
384,320,176465,5,4
384,256,176688,1,0
320,288,176910,1,4
320,224,177132,5,0
256,192,177354,1,4
320,160,177577,2,0,B|320:128|256:128,1,70,0|4
384,64,178243,1,4
384,128,178466,1,0
320,96,178688,1,4
320,160,178910,5,0
256,192,179132,1,4
310,225,179355,2,0,B|311:257|256:256,1,70,0|4
128,64,180021,5,4
128,128,180244,1,0
192,96,180466,1,4
192,160,180688,5,0
256,192,180910,1,4
192,224,181133,2,0,B|192:256|256:256,1,70,0|4
128,320,181799,5,4
128,256,182022,1,0
192,288,182244,1,4
192,224,182466,5,0
256,192,182688,1,4
192,160,182911,2,0,B|192:128|256:128,1,70,0|4
384,320,183577,5,4
384,256,183800,1,0
320,288,184022,1,4
320,224,184244,5,0
256,192,184466,1,4
320,160,184689,2,0,B|320:128|256:128,1,70,0|4
384,64,185354,1,4
384,128,185577,1,0
320,96,185799,1,4
320,160,186021,5,0
256,192,186243,1,4
310,225,186466,2,0,B|311:257|256:256,1,70,0|4
128,64,187132,5,4
128,128,187355,1,0
192,96,187577,1,4
192,160,187799,5,0
256,192,188021,1,4
192,224,188244,2,0,B|192:256|256:256,1,70,0|4
128,320,188910,5,4
128,256,189133,1,0
192,288,189355,1,4
192,224,189577,5,0
256,192,189799,1,4
192,160,190022,2,0,B|192:128|256:128,1,70,0|4
384,320,190688,5,4
384,256,190911,1,0
320,288,191133,1,4
320,224,191355,5,0
256,192,191577,1,4
320,160,191800,2,0,B|320:128|256:128,1,70,0|4
384,64,192466,1,4
384,128,192689,1,0
320,96,192911,1,4
320,160,193133,5,0
256,192,193355,1,4
310,225,193578,2,0,B|311:257|256:256,1,70,0|4
128,64,194244,5,4
128,128,194467,1,0
192,96,194689,1,4
192,160,194911,5,0
256,192,195133,1,4
192,224,195356,2,0,B|192:256|256:256,1,70,0|4
128,320,196022,5,4
128,256,196245,1,0
192,288,196467,1,4
192,224,196689,5,0
256,192,196911,1,4
192,160,197134,2,0,B|192:128|256:128,1,70,0|4
384,320,197800,5,4
384,256,198023,1,0
320,288,198245,1,4
320,224,198467,5,0
256,192,198689,1,4
320,160,198912,2,0,B|320:128|256:128,1,70,0|4
384,64,199576,1,4
384,128,199799,1,0
320,96,200021,1,4
320,160,200243,5,0
256,192,200465,1,4
310,225,200688,2,0,B|311:257|256:256,1,70,0|4
128,64,201354,5,4
128,128,201577,1,0
192,96,201799,1,4
192,160,202021,5,0
256,192,202243,1,4
192,224,202466,2,0,B|192:256|256:256,1,70,0|4
128,320,203132,5,4
128,256,203355,1,0
192,288,203577,1,4
192,224,203799,5,0
256,192,204021,1,4
192,160,204244,2,0,B|192:128|256:128,1,70,0|4
384,320,204910,5,4
384,256,205133,1,0
320,288,205355,1,4
320,224,205577,5,0
256,192,205799,1,4
320,160,206022,2,0,B|320:128|256:128,1,70,0|4
384,64,206688,1,4
384,128,206911,1,0
320,96,207133,1,4
320,160,207355,5,0
256,192,207577,1,4
310,225,207800,2,0,B|311:257|256:256,1,70,0|4
128,64,208466,5,4
128,128,208689,1,0
192,96,208911,1,4
192,160,209133,5,0
256,192,209355,1,4
192,224,209578,2,0,B|192:256|256:256,1,70,0|4
128,320,210244,5,4
128,256,210467,1,0
192,288,210689,1,4
192,224,210911,5,0
256,192,211133,1,4
192,160,211356,2,0,B|192:128|256:128,1,70,0|4
384,320,212022,5,4
384,256,212245,1,0
320,288,212467,1,4
320,224,212689,5,0
256,192,212911,1,4
320,160,213134,2,0,B|320:128|256:128,1,70,0|4
64,288,213798,6,0,B|96:224,1,70,4|0
128,288,214242,2,0,B|160:224,1,70,0|0
192,288,214687,2,0,B|224:224,1,70,0|0
224,224,215131,5,0
448,288,215576,6,0,B|416:224,1,70,0|0
384,288,216020,2,0,B|352:224,1,70,0|0
320,288,216465,2,0,B|288:224,1,70,0|0
288,224,216909,5,0
352,192,217353,6,0,B|416:160,1,70,0|0
352,128,217797,2,0,B|416:96,1,70,0|0
352,64,218242,2,0,B|416:32,1,70,0|0
416,32,218687,5,0
96,32,219131,6,0,B|160:64,1,70,0|0
96,96,219575,2,0,B|160:128,1,70,0|0
96,160,220020,2,0,B|160:192,1,70,0|0
160,192,220465,5,0
96,320,220909,6,0,B|160:288,5,70
158,288,222242,5,0
416,320,222687,6,0,B|352:256,5,70
366,270,224020,5,0
416,128,224465,6,0,B|352:64,5,70
369,78,225798,5,0
64,64,227576,1,0
64,160,228021,1,0
64,256,228465,1,0
64,352,228910,1,0
160,352,229354,6,0,B|160:288|192:256|256:256,1,140
224,352,230243,2,0,B|320:352|320:256,1,140
416,352,231132,5,0
416,256,231576,1,0
416,160,232021,1,0
416,64,232465,1,0
288,64,232910,6,0,B|288:160|192:128,1,140
224,64,233799,2,0,B|128:64|128:160|160:160,1,140
64,64,234688,5,0
64,64,235132,1,0
64,160,235576,5,0
64,160,236021,1,0
64,256,236465,5,0
64,256,236910,1,0
64,352,237354,5,0
64,352,237799,1,0
160,352,238243,5,0
256,352,238687,1,0
352,352,239132,1,0
448,352,239576,1,0
448,256,240021,6,0,B|288:256,3,140
256,192,241798,12,0,248464
