osu file format v14

[General]
AudioFilename: The Last Dea Angel.mp3
AudioLeadIn: 0
PreviewTime: -1
Countdown: 0
SampleSet: None
StackLeniency: 0.7
Mode: 0
LetterboxInBreaks: 1
WidescreenStoryboard: 1

[Editor]
DistanceSpacing: 1.2
BeatDivisor: 2
GridSize: 8
TimelineZoom: 2.7

[Metadata]
Title:The Last Dead Angel
TitleUnicode:The Last Dead Angel
Artist:Erik McClure
ArtistUnicode:Erik McClure
Creator:yugijedi
Version:concidet
Source:
Tags:remap melodic newgrounds epic atmospheric
BeatmapID:762001
BeatmapSetID:344701

[Difficulty]
HPDrainRate:4
CircleSize:2.5
OverallDifficulty:3
ApproachRate:4
SliderMultiplier:0.899999999999999
SliderTickRate:1

[Events]
//Background and Video events
0,0,"fallen angel.jpg",0,0
//Break Periods
2,86652,90293
2,107297,116100
2,159839,169003
//Storyboard Layer 0 (Background)
//Storyboard Layer 1 (Fail)
//Storyboard Layer 2 (Pass)
//Storyboard Layer 3 (Foreground)
//Storyboard Sound Samples

[TimingPoints]
1291,322.58064516129,4,2,0,100,1,0

[Colours]
Combo1 : 26,255,209
Combo2 : 98,136,103
Combo3 : 89,92,132
Combo4 : 51,145,49
Combo5 : 75,69,194
Combo6 : 150,216,27
Combo7 : 28,174,217
Combo8 : 179,255,36

[HitObjects]
54,304,1291,6,0,P|102:288|320:286,1,270
416,238,2581,6,0,B|336:198|319:91|319:91|279:113|235:109,1,270
188,9,3871,6,0,P|141:52|210:216,1,270
272,302,5161,6,0,B|312:278|320:232|320:232|369:243|411:243|446:231|471:213|483:185,1,270
458,80,6452,6,0,P|326:93|194:42,1,270
94,71,7742,6,0,P|171:178|193:318,1,270
287,366,9032,6,0,P|341:245|451:156,1,270
403,59,10323,5,0,0:0:0:0:
403,59,11613,6,0,B|312:91|227:56,1,180
121,78,12581,1,0,0:0:0:0:
55,164,12903,6,0,P|62:220|165:280,2,180
162,172,14516,1,0,0:0:0:0:
265,204,14839,2,0,L|354:192,1,89.9999999999999
458,221,15484,6,0,P|406:288|308:291,1,180
223,349,16452,1,0,0:0:0:0:
171,254,16774,6,0,P|161:206|212:90,2,180
105,340,18387,1,0,0:0:0:0:
47,248,18710,2,0,L|69:161,1,89.9999999999999
22,63,19355,6,0,L|113:51,1,89.9999999999999
216,73,20000,1,0,0:0:0:0:
321,47,20323,2,0,L|359:20,2,45
284,148,20968,1,0,0:0:0:0:
323,248,21290,2,0,L|412:260,1,89.9999999999999
353,351,21936,6,0,L|264:356,1,89.9999999999999
173,296,22581,1,0,0:0:0:0:
93,222,22903,1,0,0:0:0:0:
54,121,23226,6,0,P|100:113|145:127,1,89.9999999999999
241,163,23871,2,0,L|236:69,1,89.9999999999999
338,37,24516,6,0,P|384:54|417:173,1,180
320,216,25484,1,0,0:0:0:0:
285,318,25807,2,0,P|244:294|225:166,1,180
329,168,26774,1,0,0:0:0:0:
402,247,27097,6,0,P|407:292|389:333,1,89.9999999999999
285,360,27742,2,0,P|239:363|199:344,1,89.9999999999999
118,274,28387,2,0,P|109:230|151:104,1,180
257,113,29355,1,0,0:0:0:0:
273,219,29678,1,0,0:0:0:0:
232,319,30000,2,0,L|190:337,2,45
338,302,30645,6,0,P|385:295|421:272,1,89.9999999999999
473,178,31290,2,0,P|456:133|426:103,1,89.9999999999999
365,193,31936,1,0,0:0:0:0:
268,240,32258,6,0,P|234:271|106:279,1,180
50,186,33226,1,0,0:0:0:0:
114,98,33549,6,0,L|206:105,1,89.9999999999999
305,68,34194,1,0,0:0:0:0:
345,168,34516,6,0,L|434:155,1,89.9999999999999
493,245,35161,2,0,P|477:286|445:318,1,89.9999999999999
343,280,35807,6,0,P|299:281|255:293,1,89.9999999999999
149,315,36452,2,0,L|113:341,2,45
173,209,37097,1,0,0:0:0:0:
85,146,37420,6,0,P|54:110|115:15,1,180
218,45,38387,1,0,0:0:0:0:
290,124,38710,6,0,L|381:108,1,89.9999999999999
466,170,39355,2,0,P|446:211|452:255,1,89.9999999999999
398,348,40000,6,0,P|359:317|232:289,1,180
133,329,40968,1,0,0:0:0:0:
61,248,41290,6,0,L|99:166,1,89.9999999999999
87,58,41936,2,0,L|177:44,1,89.9999999999999
276,83,42581,6,0,L|370:98,1,89.9999999999999
439,175,43226,2,0,L|366:229,1,89.9999999999999
267,270,43871,6,0,L|223:263,2,45
344,344,44516,2,0,L|434:336,2,89.9999999999999
130,308,45807,2,0,P|86:313|40:306,1,89.9999999999999
12,201,46452,6,0,P|75:220|192:187,2,180
188,76,48387,2,0,P|236:64|359:98,1,180
435,300,49678,2,0,L|346:312,1,89.9999999999999
220,325,50323,6,0,P|172:324|132:315,1,89.9999999999999
109,208,50968,2,0,P|157:209|197:218,1,89.9999999999999
299,254,51613,6,0,P|348:261|437:179,2,180
110,147,53549,1,0,0:0:0:0:
323,114,54194,1,0,0:0:0:0:
117,48,54839,1,0,0:0:0:0:
224,235,55484,6,0,P|259:262|436:176,1,270
349,113,56774,6,0,P|306:102|270:125,1,89.9999999999999
166,157,57420,6,0,L|75:169,2,89.9999999999999
371,222,58710,2,0,P|416:218|457:233,1,89.9999999999999
401,325,59355,2,0,L|311:332,1,89.9999999999999
212,287,60000,2,0,L|126:263,1,89.9999999999999
94,159,60645,6,0,P|186:165|268:129,3,180
356,73,62903,1,0,0:0:0:0:
448,129,63226,6,0,L|431:222,1,89.9999999999999
365,303,63871,2,0,P|321:286|279:293,1,89.9999999999999
221,201,64516,2,0,P|265:184|307:191,1,89.9999999999999
274,87,65161,2,0,L|185:77,1,89.9999999999999
108,154,65807,6,0,P|110:206|62:326,2,180
256,310,67742,1,0,0:0:0:0:
404,154,68387,6,0,P|402:206|450:326,2,180
198,85,70323,2,0,L|106:78,2,89.9999999999999
299,48,71290,2,0,P|345:43|390:51,1,89.9999999999999
463,127,71936,1,0,0:0:0:0:
437,231,72258,6,0,P|412:270|376:297,1,89.9999999999999
274,264,72903,2,0,L|184:280,2,89.9999999999999
334,174,73871,2,0,P|290:159|243:163,1,89.9999999999999
143,191,74516,1,0,0:0:0:0:
74,274,74839,6,0,P|102:309|146:324,1,89.9999999999999
237,271,75484,2,0,L|328:264,2,89.9999999999999
203,168,76452,2,0,P|185:121|186:81,2,89.9999999999999
291,105,77420,6,0,P|335:121|382:236,1,180
314,320,78387,1,0,0:0:0:0:
215,274,78710,6,0,L|126:289,1,89.9999999999999
66,199,79355,2,0,L|137:144,1,89.9999999999999
200,56,80000,2,0,P|286:85|372:72,1,180
473,110,80968,1,0,0:0:0:0:
405,194,81290,6,0,P|360:206|316:200,1,89.9999999999999
212,173,81936,2,0,P|167:161|123:167,1,89.9999999999999
47,242,82581,6,0,P|65:284|187:325,1,180
258,247,83549,1,0,0:0:0:0:
273,353,83871,6,0,L|364:345,1,89.9999999999999
442,272,84516,2,0,L|356:249,1,89.9999999999999
248,232,85161,2,0,L|158:245,1,89.9999999999999
96,333,85807,2,0,L|186:343,2,89.9999999999999
256,192,91613,12,0,95484,0:0:0:0:
256,192,96774,6,0,L|256:102,1,89.9999999999999
193,13,97420,1,0,0:0:0:0:
168,227,98065,6,0,P|195:265|234:284,2,89.9999999999999
344,102,99355,2,0,L|344:191,1,89.9999999999999
407,281,100001,1,0,0:0:0:0:
247,135,100645,2,0,P|240:90|257:46,2,89.9999999999999
305,226,101613,1,0,0:0:0:0:
394,286,101936,6,0,P|412:240|408:197,1,89.9999999999999
359,104,102581,2,0,P|315:118|233:31,3,180
125,16,104839,2,0,L|38:37,1,89.9999999999999
111,115,105484,1,0,0:0:0:0:
66,213,105807,2,0,L|27:297,2,89.9999999999999
171,191,106774,1,0,0:0:0:0:
279,189,107097,5,0,0:0:0:0:
373,265,117420,6,0,B|330:249|330:249|288:266,1,89.9999999999999
218,347,118065,2,0,L|129:337,1,89.9999999999999
54,258,118710,6,0,B|99:248|99:248|197:157,1,180
296,113,119678,1,0,0:0:0:0:
378,182,120000,6,0,B|420:163|420:163|467:166,1,89.9999999999999
450,273,120645,2,0,L|364:298,1,89.9999999999999
273,357,121290,2,0,B|250:319|250:319|117:291,1,180
23,237,122258,1,0,0:0:0:0:
119,188,122581,6,0,B|167:198|167:198|207:179,1,89.9999999999999
298,128,123226,2,0,L|388:140,1,89.9999999999999
363,245,123871,6,0,L|274:255,2,89.9999999999999
448,311,124839,1,0,0:0:0:0:
357,370,125161,6,0,B|317:349|317:349|272:354,1,89.9999999999999
164,348,125807,2,0,L|75:335,1,89.9999999999999
25,238,126452,6,0,L|115:234,1,89.9999999999999
213,189,127097,2,0,L|174:166,2,45
304,246,127742,5,0,0:0:0:0:
76,304,128710,2,0,L|119:286,1,45
171,292,129032,6,0,P|236:313|305:290,2,135
108,203,130323,6,0,P|170:183|242:205,2,135
76,304,131613,5,0,0:0:0:0:
210,192,133871,6,0,B|300:192|300:192|221:124|260:61|314:26|372:65,1,315
394,95,135161,2,0,L|414:137,1,45
212,315,136129,1,0,0:0:0:0:
302,256,136452,2,0,L|346:251,1,45
100,264,138065,6,0,L|279:245,1,180
236,344,139032,6,0,L|196:366,2,45
339,311,139678,2,0,P|383:320|428:309,1,89.9999999999999
472,212,140323,1,0,0:0:0:0:
411,122,140645,6,0,P|372:101|239:120,1,180
166,194,141613,6,0,L|77:204,1,89.9999999999999
100,309,142258,2,0,P|144:320|187:313,1,89.9999999999999
271,113,143226,6,0,P|228:78|101:83,1,180
51,170,144194,1,0,0:0:0:0:
117,254,144516,6,0,L|206:240,2,89.9999999999999
75,353,145484,1,0,0:0:0:0:
182,364,145807,6,0,P|271:338|357:349,1,180
462,330,146774,6,0,L|487:244,1,89.9999999999999
435,148,147420,1,0,0:0:0:0:
338,196,147742,2,0,P|292:200|250:186,1,89.9999999999999
160,126,148387,6,0,P|72:140|21:210,1,180
104,277,149355,2,0,L|152:281,2,45
256,192,149839,12,0,154839,0:0:0:0:
262,231,170323,6,0,P|310:229|397:320,1,180
290,336,171290,1,0,0:0:0:0:
187,300,171613,6,0,P|142:288|97:291,1,89.9999999999999
36,202,172258,2,0,P|81:190|126:193,1,89.9999999999999
229,217,172903,6,0,P|319:241|409:242,2,180
160,133,174516,1,0,0:0:0:0:
116,34,174839,2,0,L|28:49,1,89.9999999999999
67,149,175484,6,0,P|84:195|88:239,1,89.9999999999999
191,203,176129,2,0,P|230:176|252:136,1,89.9999999999999
356,116,176774,6,0,P|326:78|321:32,1,89.9999999999999
428,39,177420,2,0,P|463:71|484:199,2,180
322,63,179032,1,0,0:0:0:0:
218,95,179355,6,0,L|128:70,1,89.9999999999999
52,145,180000,2,0,L|52:235,1,89.9999999999999
149,282,180645,6,0,L|149:192,2,89.9999999999999
240,339,181613,1,0,0:0:0:0:
346,319,181936,6,0,P|391:308|434:314,1,89.9999999999999
409,208,182581,2,0,P|374:175|358:135,1,89.9999999999999
345,29,183226,2,0,P|308:61|181:79,1,180
77,50,184194,1,0,0:0:0:0:
119,148,184516,6,0,P|132:194|129:238,1,89.9999999999999
121,343,185161,2,0,P|160:322|292:320,1,180
395,354,186129,1,0,0:0:0:0:
457,266,186452,2,0,L|368:253,1,89.9999999999999
395,148,187097,5,0,0:0:0:0:
304,88,187420,2,0,L|214:98,1,89.9999999999999
118,48,188065,1,0,0:0:0:0:
40,123,188387,6,0,L|122:167,2,89.9999999999999
12,227,189355,1,0,0:0:0:0:
97,293,189678,6,0,L|17:337,2,89.9999999999999
150,199,190645,1,0,0:0:0:0:
242,142,190968,6,0,P|292:137|406:202,1,180
438,298,191936,1,0,0:0:0:0:
345,353,192258,6,0,P|282:358|166:329,1,180
116,236,193226,1,0,0:0:0:0:
167,141,193549,2,0,P|210:100|331:113,1,180
262,196,194516,1,0,0:0:0:0:
305,295,194839,6,0,L|396:282,2,89.9999999999999
213,352,195807,1,0,0:0:0:0:
130,283,196129,2,0,P|124:238|210:147,1,180
306,195,197097,1,0,0:0:0:0:
401,246,197420,6,0,L|488:224,1,89.9999999999999
437,128,198065,1,0,0:0:0:0:
332,154,198387,2,0,L|243:146,1,89.9999999999999
146,196,199032,1,0,0:0:0:0:
163,89,199355,2,0,L|74:92,2,89.9999999999999
266,56,200323,1,0,0:0:0:0:
369,26,200645,6,0,L|461:26,2,89.9999999999999
