osu file format v14

[General]
AudioFilename: The Last Dea Angel.mp3
AudioLeadIn: 0
PreviewTime: -1
Countdown: 0
SampleSet: Soft
StackLeniency: 0.7
Mode: 0
LetterboxInBreaks: 1
WidescreenStoryboard: 1

[Editor]
DistanceSpacing: 0.8
BeatDivisor: 4
GridSize: 8
TimelineZoom: 2.7

[Metadata]
Title:The Last Dead Angel
TitleUnicode:The Last Dead Angel
Artist:Erik McClure
ArtistUnicode:Erik McClure
Creator:yugijedi
Version:concidebat
Source:
Tags:remap melodic newgrounds epic atmospheric
BeatmapID:761999
BeatmapSetID:344701

[Difficulty]
HPDrainRate:6
CircleSize:3.5
OverallDifficulty:6
ApproachRate:8
SliderMultiplier:1.6
SliderTickRate:1

[Events]
//Background and Video events
0,0,"fallen angel.jpg",0,0
//Break Periods
//Storyboard Layer 0 (Background)
//Storyboard Layer 1 (Fail)
//Storyboard Layer 2 (Pass)
//Storyboard Layer 3 (Foreground)
//Storyboard Sound Samples

[TimingPoints]
1291,322.58064516129,4,2,0,100,1,0
1291,-133.333333333333,4,2,0,100,0,0
11613,-111.111111111111,4,2,0,100,0,0

[Colours]
Combo1 : 26,255,209
Combo2 : 98,136,103
Combo3 : 89,92,132
Combo4 : 51,145,49
Combo5 : 75,69,194
Combo6 : 150,216,27
Combo7 : 28,174,217
Combo8 : 179,255,36

[HitObjects]
136,127,1291,6,0,L|256:121,1,120.000004577637
329,173,1774,1,0,0:0:0:0:
284,243,1936,2,0,L|223:239,2,60.0000022888184
337,309,2420,1,0,0:0:0:0:
415,278,2581,5,0,0:0:0:0:
411,194,2742,1,0,0:0:0:0:
337,309,2903,1,0,0:0:0:0:
247,323,3065,1,0,0:0:0:0:
199,246,3226,2,0,P|179:220|152:213,1,60.0000022888184
64,229,3549,2,0,P|38:249|31:276,1,60.0000022888184
201,347,3871,6,0,L|320:334,1,120.000004577637
386,270,4355,1,0,0:0:0:0:
313,216,4516,2,0,L|254:200,1,60.0000022888184
200,272,4839,1,0,0:0:0:0:
160,191,5000,1,0,0:0:0:0:
111,266,5161,5,0,0:0:0:0:
71,185,5323,1,0,0:0:0:0:
123,111,5484,2,0,P|152:103|183:106,1,60.0000022888184
244,170,5807,2,0,P|273:178|304:175,1,60.0000022888184
358,105,6129,1,0,0:0:0:0:
358,105,6290,1,0,0:0:0:0:
466,242,6452,6,0,P|407:259|346:259,1,120.000004577637
261,234,6936,1,0,0:0:0:0:
198,169,7097,2,0,L|181:110,1,60.0000022888184
270,127,7420,1,0,0:0:0:0:
352,92,7581,6,0,L|414:89,1,60.0000022888184
463,162,7903,1,0,0:0:0:0:
397,223,8065,2,0,P|368:233|340:226,2,60.0000022888184
473,270,8549,1,0,0:0:0:0:
413,336,8710,1,0,0:0:0:0:
324,349,8871,1,0,0:0:0:0:
242,311,9032,6,0,P|181:308|123:324,1,120.000004577637
46,369,9516,1,0,0:0:0:0:
27,280,9678,2,0,L|16:222,1,60.0000022888184
105,220,10000,1,0,0:0:0:0:
194,230,10161,6,0,L|254:218,1,60.0000022888184
233,306,10484,1,0,0:0:0:0:
318,333,10645,2,0,L|379:344,1,60.0000022888184
351,256,10968,1,0,0:0:0:0:
440,264,11129,1,0,0:0:0:0:
404,181,11290,1,0,0:0:0:0:
404,181,11452,1,0,0:0:0:0:
255,147,11613,6,0,P|193:153|114:133,1,143.999995605469
53,222,12097,1,0,0:0:0:0:
155,256,12258,2,0,P|192:258|227:252,1,71.9999978027344
320,305,12581,2,0,P|345:329|383:338,1,71.9999978027344
428,242,12903,5,0,0:0:0:0:
413,216,12984,1,0,0:0:0:0:
392,195,13065,1,0,0:0:0:0:
286,217,13226,2,0,P|252:220|216:212,1,71.9999978027344
111,243,13549,1,0,0:0:0:0:
39,162,13710,1,0,0:0:0:0:
130,105,13871,2,0,P|167:98|201:100,1,71.9999978027344
305,127,14194,6,0,P|342:129|391:120,1,71.9999978027344
459,54,14516,1,0,0:0:0:0:
356,18,14678,1,0,0:0:0:0:
327,16,14758,1,0,0:0:0:0:
298,19,14839,1,0,0:0:0:0:
305,127,15000,1,0,0:0:0:0:
210,74,15161,2,0,L|138:82,1,71.9999978027344
53,150,15484,6,0,P|72:186|76:220,1,71.9999978027344
161,282,15807,1,0,0:0:0:0:
256,231,15968,1,0,0:0:0:0:
283,222,16049,1,0,0:0:0:0:
311,221,16129,2,0,L|383:234,2,71.9999978027344
232,146,16613,1,0,0:0:0:0:
130,180,16774,5,0,0:0:0:0:
113,287,16936,1,0,0:0:0:0:
50,198,17097,2,0,P|48:158|66:128,1,71.9999978027344
84,111,17339,1,0,0:0:0:0:
110,100,17420,1,0,0:0:0:0:
208,142,17581,1,0,0:0:0:0:
267,231,17742,1,0,0:0:0:0:
233,333,17903,1,0,0:0:0:0:
204,338,17984,1,0,0:0:0:0:
175,334,18065,6,0,P|142:317|122:288,1,71.9999978027344
161,188,18387,2,0,P|192:166|227:159,1,71.9999978027344
331,178,18710,1,0,0:0:0:0:
381,273,18871,1,0,0:0:0:0:
434,179,19032,1,0,0:0:0:0:
489,272,19194,1,0,0:0:0:0:
436,365,19355,6,0,P|402:368|366:359,1,71.9999978027344
298,273,19678,1,0,0:0:0:0:
323,261,19758,1,0,0:0:0:0:
351,263,19839,1,0,0:0:0:0:
285,348,20000,2,0,P|249:352|213:345,1,71.9999978027344
194,238,20323,1,0,0:0:0:0:
109,305,20484,1,0,0:0:0:0:
119,197,20645,6,0,P|143:167|177:154,1,71.9999978027344
281,163,20968,1,0,0:0:0:0:
381,123,21129,1,0,0:0:0:0:
367,226,21290,1,0,0:0:0:0:
367,226,21613,1,0,0:0:0:0:
184,341,21936,6,0,P|194:302|283:271,1,143.999995605469
353,354,22420,1,0,0:0:0:0:
433,282,22581,2,0,L|503:272,2,71.9999978027344
353,354,23065,1,0,0:0:0:0:
255,306,23226,6,0,L|181:309,1,71.9999978027344
125,217,23549,2,0,L|199:220,1,71.9999978027344
140,127,23871,2,0,L|66:130,1,71.9999978027344
133,43,24194,1,0,0:0:0:0:
239,27,24355,1,0,0:0:0:0:
285,162,24516,6,0,P|335:173|423:145,1,143.999995605469
456,43,25000,1,0,0:0:0:0:
349,27,25161,2,0,P|276:24|206:48,1,143.999995605469
157,141,25645,1,0,0:0:0:0:
176,247,25807,6,0,P|214:252|249:247,1,71.9999978027344
323,323,26129,2,0,P|285:328|250:323,1,71.9999978027344
326,245,26452,2,0,P|397:235|466:250,1,143.999995605469
431,352,26936,1,0,0:0:0:0:
324,368,27097,6,0,L|250:357,1,71.9999978027344
156,306,27420,2,0,L|223:279,1,71.9999978027344
268,181,27742,1,0,0:0:0:0:
268,181,27903,1,0,0:0:0:0:
161,198,28065,2,0,L|192:133,1,71.9999978027344
87,159,28387,6,0,P|52:161|9:76,1,143.999995605469
108,32,28871,1,0,0:0:0:0:
208,71,29032,2,0,P|279:79|348:57,1,143.999995605469
447,16,29516,1,0,0:0:0:0:
407,116,29678,6,0,P|397:158|398:187,1,71.9999978027344
452,279,30000,1,0,0:0:0:0:
344,266,30161,1,0,0:0:0:0:
397,360,30323,1,0,0:0:0:0:
289,371,30484,1,0,0:0:0:0:
204,304,30645,2,0,L|134:317,1,71.9999978027344
189,224,30968,6,0,P|224:211|263:115,1,143.999995605469
258,90,31371,1,0,0:0:0:0:
243,64,31452,1,0,0:0:0:0:
137,39,31613,2,0,L|63:45,1,71.9999978027344
10,138,31936,2,0,P|44:150|68:183,1,71.9999978027344
45,283,32258,5,0,0:0:0:0:
45,283,32581,1,0,0:0:0:0:
72,275,32661,1,0,0:0:0:0:
100,275,32742,1,0,0:0:0:0:
195,325,32903,2,0,P|234:331|268:327,1,71.9999978027344
351,261,33226,2,0,P|389:257|425:261,1,71.9999978027344
493,178,33549,6,0,P|453:178|371:118,1,143.999995605469
442,37,34032,1,0,0:0:0:0:
336,13,34194,2,0,L|261:18,1,71.9999978027344
181,87,34516,2,0,L|110:76,1,71.9999978027344
19,136,34839,6,0,P|37:170|64:188,1,71.9999978027344
171,199,35161,1,0,0:0:0:0:
278,187,35323,2,0,P|307:166|323:134,1,71.9999978027344
323,134,35807,1,0,0:0:0:0:
427,158,35968,1,0,0:0:0:0:
464,259,36129,6,0,P|439:288|409:303,1,71.9999978027344
380,304,36371,1,0,0:0:0:0:
351,302,36452,1,0,0:0:0:0:
264,366,36613,1,0,0:0:0:0:
212,271,36774,2,0,L|141:282,1,71.9999978027344
43,233,37097,2,0,L|95:182,1,71.9999978027344
193,137,37420,6,0,P|232:139|263:153,1,71.9999978027344
366,127,37742,1,0,0:0:0:0:
432,212,37903,1,0,0:0:0:0:
118,295,38387,2,0,L|189:290,1,71.9999978027344
275,223,38710,5,0,0:0:0:0:
373,267,38871,1,0,0:0:0:0:
376,295,38952,1,0,0:0:0:0:
369,322,39032,2,0,P|337:345|306:356,1,71.9999978027344
208,310,39355,2,0,L|136:318,1,71.9999978027344
71,231,39678,2,0,L|143:235,1,71.9999978027344
243,196,40000,6,0,P|279:191|313:198,1,71.9999978027344
377,110,40323,2,0,P|341:102|306:107,1,71.9999978027344
199,118,40645,2,0,P|127:147|56:126,1,143.999995605469
123,40,41129,1,0,0:0:0:0:
228,17,41290,6,0,P|265:14|299:16,1,71.9999978027344
400,56,41613,1,0,0:0:0:0:
432,158,41774,1,0,0:0:0:0:
341,217,41936,2,0,P|306:218|270:212,2,71.9999978027344
436,268,42420,1,0,0:0:0:0:
339,315,42581,6,0,L|268:320,1,71.9999978027344
222,221,42903,2,0,L|295:230,1,71.9999978027344
376,159,43226,2,0,L|308:138,1,71.9999978027344
217,76,43549,1,0,0:0:0:0:
315,31,43710,1,0,0:0:0:0:
217,76,43871,6,0,P|180:82|145:79,1,71.9999978027344
45,37,44194,1,0,0:0:0:0:
67,142,44355,1,0,0:0:0:0:
130,229,44516,2,0,L|58:224,1,71.9999978027344
185,292,44839,1,0,0:0:0:0:
281,339,45000,1,0,0:0:0:0:
439,348,45161,5,0,0:0:0:0:
186,145,45645,2,0,L|223:145,2,35.9999989013672
186,145,46290,1,0,0:0:0:0:
259,225,46452,6,0,P|294:231|337:220,2,71.9999978027344
50,283,47097,2,0,P|83:301|187:309,2,143.999995605469
372,312,48226,2,0,L|367:350,2,35.9999989013672
372,312,48871,1,0,0:0:0:0:
281,253,49032,6,0,P|262:287|261:322,2,71.9999978027344
137,90,49678,2,0,P|93:151|75:220,2,143.999995605469
460,115,50807,2,0,L|492:138,2,35.9999989013672
460,115,51452,1,0,0:0:0:0:
364,165,51613,6,0,P|381:193|420:215,2,71.9999978027344
186,41,52258,2,0,P|114:46|47:71,2,143.999995605469
432,251,53387,2,0,L|415:216,2,35.9999989013672
432,251,54032,1,0,0:0:0:0:
341,191,54194,6,0,L|333:117,2,71.9999978027344
193,32,54839,2,0,L|193:177,2,143.999995605469
152,244,55807,2,0,P|186:255|224:250,1,71.9999978027344
325,220,56129,1,0,0:0:0:0:
353,212,56210,1,0,0:0:0:0:
381,210,56290,2,0,P|419:216|448:237,1,71.9999978027344
