osu file format v9

[General]
AudioFilename: The Last Dead Angel.mp3
AudioLeadIn: 0
PreviewTime: 180653
Countdown: 0
SampleSet: Soft
StackLeniency: 0.7
Mode: 0
LetterboxInBreaks: 1

[Editor]
Bookmarks: 11613,24516,45161,65807,86452,96774,116774,122903,128710,139355,170323,180645
DistanceSpacing: 0.8
BeatDivisor: 4
GridSize: 8

[Metadata]
Title:The Last Dead Angel
Artist:Erik McClure
Creator:LKs
Version:Normal
Source:Newgrounds
Tags:Audio Portal trance kirby nintendo n64 Pokie TTTTTTTTTTTT

[Difficulty]
HPDrainRate:4
CircleSize:4
OverallDifficulty:4
ApproachRate:5
SliderMultiplier:1.2
SliderTickRate:1

[Events]
//Background and Video events
0,0,"2.jpg"
//Break Periods
2,45361,54284
2,97619,98155
2,100200,100736
2,102781,103316
2,105361,105897
2,107297,116220
2,149878,157510
2,160200,169123
//Storyboard Layer 0 (Background)
//Storyboard Layer 1 (Fail)
//Storyboard Layer 2 (Pass)
//Storyboard Layer 3 (Foreground)
//Storyboard Sound Samples
//Background Colour Transformations
3,100,163,162,255

[TimingPoints]
1291,322.58064516129,4,1,1,53,1,0
19758,-100,4,1,1,43,0,0
19839,-100,4,1,1,46,0,0
20000,-100,4,1,1,53,0,0
24516,-100,4,1,1,57,0,1
45161,-100,4,1,0,50,0,0
55323,-100,4,1,2,59,0,0
64516,-100,4,1,2,56,0,0
65807,-100,4,1,0,50,0,1
65887,-100,4,2,1,60,0,0
76129,-100,4,2,1,60,0,1
76210,-100,4,2,1,60,0,0
79516,-100,4,2,1,57,0,0
79678,-100,4,2,1,60,0,0
86452,-100,4,2,0,71,0,0
86613,-100,4,2,0,52,0,0
91613,-100,4,2,2,60,0,0
95484,-133.333333333333,4,2,2,71,0,0
96774,-100,4,1,0,61,0,0
116774,-100,4,2,2,56,0,0
122581,-100,4,1,1,56,0,0
128710,-200,4,2,0,50,0,0
131613,-200,4,2,0,40,0,0
138710,-100,4,1,0,30,0,0
139274,-100,4,2,1,46,0,0
139678,-100,4,2,1,36,0,0
139839,-100,4,2,1,46,0,0
158710,-100,4,1,0,40,0,0
160000,-100,4,1,0,50,0,0
170323,-100,4,1,2,58,0,0
175484,-100,4,1,2,65,0,0
178387,-100,4,1,2,58,0,0
180645,-100,4,1,0,50,0,1
180807,-100,4,1,1,60,0,1
183226,-100,4,2,1,60,0,1
183387,-100,4,1,1,60,0,1
185807,-100,4,2,1,60,0,1
185968,-100,4,1,1,60,0,1
190968,-100,4,2,1,60,0,1
191129,-100,4,1,1,60,0,1
196129,-100,4,2,1,60,0,1
196290,-100,4,1,1,60,0,1
197420,-100,4,2,1,60,0,1
197581,-100,4,1,1,60,0,1
201290,-100,4,2,0,30,0,0
204194,-100,4,2,0,5,0,0

[Colours]
Combo1 : 255,159,207
Combo2 : 136,67,177
Combo3 : 66,209,251
Combo4 : 104,185,155
SliderBorder : 255,255,255

[HitObjects]
40,40,11613,1,4
120,96,11936,1,2
40,152,12258,1,8
40,152,12581,1,0
40,248,12903,6,0,B|74:300|74:300|40:360,3,120,0|2|8|0
144,352,14194,5,0
240,352,14516,1,2
192,272,14839,1,8
192,272,15161,1,0
248,192,15484,6,0,B|193:164|193:164|137:200,3,120,0|2|8|0
56,240,16774,5,4
56,240,17420,1,8
56,144,17742,2,0,B|56:64,1,60,0|8
288,40,18710,5,4
288,40,19355,2,8,B|288:136,2,60,8|8|0
192,40,20000,1,8
96,40,20323,2,0,B|96:120,1,60,0|8
200,200,20968,5,8
216,104,21290,1,8
144,40,21613,1,0
48,48,21936,5,2
120,112,22258,2,0,B|176:208|104:280,2,180
32,136,23549,5,0
40,224,23871,1,0
32,136,24194,1,0
52,44,24516,1,4
136,80,24839,5,0
232,80,25161,1,8
320,24,25484,2,0,B|360:104,1,60,8|0
352,224,26129,1,8
256,224,26452,1,2
184,152,26774,6,0,B|136:224,2,60,8|0|2
272,120,27420,1,0
352,152,27742,2,0,B|400:224,3,60,2|0|8|0
432,288,28549,5,8
344,336,28871,2,0,B|272:336,1,60,8|2
224,264,29355,1,0
312,224,29678,2,0,B|392:224,2,60,2|0|8
224,264,30323,5,8
144,320,30645,2,0,B|64:320,1,60,0|8
11,260,31129,1,8
96,208,31452,2,0,B|192:208,1,60,8|2
256,208,31936,1,0
352,208,32258,5,0
304,128,32581,2,0,B|272:72,2,60,0|0|8
496,129,33549,1,0
408,288,34194,1,8
312,288,34516,1,2
280,200,34839,6,0,B|256:256|176:256,1,120
64,216,35484,2,0,B|88:160|168:160,1,120,8|0
224,176,35968,1,0
280,200,36129,6,0,B|352:224|416:128,1,120,8|0
304,80,36774,2,0,B|224:72|168:152,1,120,8|0
155,167,37258,1,0
128,224,37420,6,0,B|88:288|120:360,3,120,8|0|0|0
200,296,38710,1,8
296,296,39032,1,2
376,344,39355,1,8
376,344,39678,1,0
384,248,40000,6,0,B|368:176,1,60,0|8
448,128,40484,2,0,B|464:200,1,60,0|8
384,248,40968,1,2
272,208,41290,6,0,B|288:136,1,60,0|8
208,88,41774,2,0,B|192:160,1,60,0|8
168,240,42258,1,2
256,192,42581,12,4,45161
48,56,55484,5,4
184,192,56129,2,0,B|144:240,1,60,0|8
56,264,56613,2,0,B|64:336|136:344,1,120,0|2
224,352,57258,2,0,B|264:304,1,60,0|8
456,328,58065,5,4
320,192,58710,2,0,B|360:144,1,60,0|8
448,120,59194,2,0,B|440:48|368:40,1,120,0|2
280,32,59839,2,0,B|240:80,1,60,0|8
192,264,60645,5,4
192,264,61290,2,0,B|192:344,1,60,0|8
320,256,61936,1,0
320,256,62581,2,0,B|320:168,1,60,0|8
264,64,63226,5,4
80,120,63871,1,8
264,160,64516,1,0
80,216,65161,2,0,B|80:280,4,60,8|0|0|0|4
136,136,66129,5,8
232,136,66452,2,0,B|296:160|296:160|368:144,1,120,0|8
432,112,67097,1,0
432,112,67742,1,0
392,304,68387,5,0
312,256,68710,2,0,B|248:232|248:232|176:248,1,120,8|0
104,272,69355,1,8
104,272,69678,1,0
48,88,70323,1,0
240,112,70968,5,0
288,192,71290,1,8
192,192,71613,1,0
144,112,71936,1,8
144,112,72258,1,0
40,272,72903,1,0
40,272,73549,5,0
224,312,74194,1,0
336,160,74839,1,0
160,88,75484,1,0
96,160,75807,1,8
192,184,76129,5,0
256,112,76452,1,8
352,120,76774,2,0,B|440:112|464:240|432:288|360:296,2,240
280,192,78387,1,8
200,248,78710,5,0
120,304,79032,1,8
32,352,79355,2,0,B|-16:224|64:160|128:168,2,240
120,304,80968,1,8
192,248,81290,6,0,B|336:248,1,120,0|8
368,168,81936,2,0,B|248:168,1,120,0|8
152,168,82581,1,0
152,168,83226,1,0
24,32,83871,6,0,B|63:83|192:86|192:86|231:137|319:174|373:171,1,360,0|8
440,168,85161,1,0
392,248,85484,1,8
488,248,85807,1,0
488,248,86452,6,0,B|488:104|344:72,1,240
158,74,87742,2,0,B|24:104|24:248,1,240
320,320,89032,6,0,B|408:232|392:200|392:200|344:152|384:120,1,240
192,320,90323,2,0,B|104:232|120:200|120:200|168:152|128:120,1,240
464,48,91613,6,0,B|384:128|288:128,1,180
264,128,92258,1,0
464,336,92903,6,0,B|384:256|288:256,1,180
264,256,93548,1,2
192,192,93871,1,8
96,192,94194,2,0,B|80:104|144:64|224:48|272:104,1,240,0|2
435,213,95484,6,0,B|451:301|387:341|307:357|255:294,1,269.999991953373,0|4
256,200,96774,6,0,B|256:128,4,60
40,344,99355,6,0,B|144:344,4,60
48,32,101936,6,0,B|48:96,4,60
464,352,104516,6,0,B|464:248,4,60,0|0|0|0|0
256,192,107097,5,4
472,48,117420,6,0,B|392:104|392:104|240:136,1,240,0|2
40,336,118710,2,0,B|120:280|120:280|272:248,1,240,0|2
48,32,120000,6,0,B|80:152|80:152|216:176,1,240,0|2
464,352,121290,2,0,B|432:232|432:232|296:208,1,240,0|2
152,120,122581,6,0,B|56:128|32:240,2,180,0|0|8
160,215,123871,2,0,B|64:207|40:95,2,180,0|0|8
248,248,125161,6,0,B|352:216|352:216|408:216|464:232,1,180
472,224,125807,1,8
256,144,126452,6,0,B|152:176|152:176|96:176|40:160,1,180
32,160,127098,1,8
32,160,127742,1,4
216,32,128710,5,0
256,64,129032,2,0,B|352:64,2,90,2|0|0
216,96,130323,2,0,B|112:96,2,90,2|0|0
240,168,131613,6,2,B|256:80|384:32|472:176|416:240|352:264,1,360,2|0
288,240,133871,1,0
216,240,134194,1,2
96,240,135000,2,0,B|32:240,1,60,0|0
24,120,136129,5,0
96,120,136452,2,0,B|144:120,1,30,0|0
472,112,138065,5,0
472,112,138710,1,0
352,136,139032,1,0
248,192,139355,2,0,B|272:256|272:256|272:320,1,120,8|2
160,264,140000,2,0,B|136:192|136:192|136:112,1,120,0|2
160,32,140645,5,0
256,48,140968,2,0,B|336:80|336:80|416:80,2,120,2|0|2
264,168,141936,5,0
168,152,142259,2,0,B|88:120|88:120|8:120,2,120,2|0|2
256,184,143226,5,0
440,232,143871,1,2
440,232,144194,1,0
360,288,144516,6,0,B|288:328|288:328|200:320,1,120,0|2
248,232,145161,1,8
168,184,145484,1,2
152,96,145807,6,0,B|224:56|224:56|312:64,1,120,0|2
264,152,146452,1,8
208,232,146774,1,2
208,232,147097,5,0
48,336,147742,1,2
200,216,148387,1,2
104,192,148710,1,8
16,160,149032,1,2
104,120,149355,1,0
192,88,149678,5,4
256,192,158710,12,4,160000
472,40,170323,5,4
392,96,170646,1,2
472,152,170968,1,8
472,152,171291,1,0
472,248,171613,6,0,B|438:300|438:300|472:360,3,120,0|2|8|0
368,352,172904,5,4
272,352,173226,1,2
320,272,173549,1,8
320,272,173871,1,0
264,192,174194,6,0,B|319:164|319:164|375:200,3,120,0|2|8|0
456,240,175484,5,4
392,56,176129,1,2
296,96,176452,1,0
344,184,176774,1,4
376,96,177097,1,0
256,120,177420,1,2
288,232,177742,1,0
408,208,178065,5,4
408,208,178710,1,4
408,208,179355,1,4
312,200,179678,1,0
216,216,180000,1,2
120,224,180323,1,0
32,184,180645,5,4
112,96,180968,1,2
224,40,181290,2,0,B|320:40|392:136,1,180,2|8
392,176,181936,1,2
392,296,182258,1,0
280,344,182581,1,8
280,224,182903,5,2
168,176,183226,1,0
168,296,183548,1,2
280,344,183871,1,8
280,224,184194,6,0,B|280:136,1,60
392,96,184678,2,0,B|392:168,1,60,0|8
392,272,185161,1,10
490,213,185484,1,0
392,156,185807,1,0
352,296,186290,2,0,B|344:360,1,60
176,264,186936,1,0
232,224,187097,6,0,B|232:136,1,60
120,96,187581,2,0,B|120:168,1,60,0|8
120,272,188064,1,10
23,214,188387,1,0
120,156,188710,1,0
136,152,189678,5,0
336,24,190323,1,8
336,128,190645,1,2
280,208,190968,6,0,B|248:272|176:264,1,120,0|8
129,184,191613,1,2
197,117,191935,1,8
242,200,192258,6,0,B|274:264|346:256,1,120,0|8
389,258,192742,1,0
440,256,192903,2,0,B|504:256,2,60,2|0|8
338,257,193549,5,0
232,257,193871,1,8
120,257,194194,2,0,B|40:257,2,60,2|0|8
192,184,194839,5,0
296,184,195161,1,2
328,288,195484,1,8
216,288,195807,1,0
192,184,196129,6,0,B|176:112,1,60,0|8
296,184,196613,2,0,B|320:264,1,60,0|8
400,168,197097,1,2
464,256,197420,6,0,B|400:280,1,60,0|8
328,344,197904,2,0,B|264:368,1,60,0|8
168,344,198388,1,2
80,296,198710,6,0,B|40:245|64:176,1,120,0|8
16,96,199355,2,0,B|67:56|136:80,1,120,0|8
216,32,200000,2,0,B|256:83|232:152,1,120,0|8
280,232,200645,2,0,B|229:272|160:248,1,120,0|8
166,250,201290,5,4
256,192,201452,12,4,204194
