osu file format v9

[General]
AudioFilename: The Last Dead Angel.mp3
AudioLeadIn: 1000
PreviewTime: 180653
Countdown: 0
SampleSet: Normal
StackLeniency: 0.7
Mode: 0
LetterboxInBreaks: 1

[Editor]
Bookmarks: 11613,24516,45161,65807,86452,96774,116774,122903,128710,139355,170323,180645
DistanceSpacing: 0.8
BeatDivisor: 4
GridSize: 8

[Metadata]
Title:The Last Dead Angel
Artist:Erik McClure
Creator:LKs
Version:Extra
Source:Newgrounds
Tags:Audio Portal trance kirby nintendo n64 Pokie TTTTTTTTTTTT

[Difficulty]
HPDrainRate:6
CircleSize:5
OverallDifficulty:7
ApproachRate:9
SliderMultiplier:1.6
SliderTickRate:1

[Events]
//Background and Video events
0,0,"2.jpg"
//Break Periods
2,45361,54884
2,97620,98755
2,100201,101336
2,102781,103916
2,105361,106174
2,107297,116174
2,149878,158110
2,160200,169723
//Storyboard Layer 0 (Background)
//Storyboard Layer 1 (Fail)
//Storyboard Layer 2 (Pass)
//Storyboard Layer 3 (Foreground)
//Storyboard Sound Samples
//Background Colour Transformations
3,100,163,162,255

[TimingPoints]
1291,322.58064516129,4,1,1,50,1,0
16774,-100,4,1,1,59,0,0
17097,-100,4,1,1,50,0,0
18710,-133.333333333333,4,1,1,50,0,0
19355,-100,4,1,1,50,0,0
19516,-100,4,1,1,56,0,0
19678,-100,4,1,1,50,0,0
21936,-200,4,1,1,50,0,0
22420,-200,4,1,1,60,0,0
22581,-200,4,1,1,56,0,0
22742,-200,4,1,1,50,0,0
23226,-200,4,1,1,63,0,0
23307,-200,4,1,1,50,0,0
23549,-200,4,1,1,60,0,0
23629,-200,4,1,1,50,0,0
23871,-200,4,1,1,53,0,0
24032,-200,4,1,1,59,0,0
24194,-100,4,1,1,61,0,0
24355,-100,4,1,1,65,0,0
24516,-100,4,1,1,57,0,1
26452,-66.6666666666667,4,1,1,54,0,1
26694,-100,4,1,1,54,0,1
34032,-100,4,1,1,57,0,1
45161,-100,4,1,0,50,0,0
55323,-100,4,1,2,62,0,0
63065,-100,4,1,2,59,0,0
63226,-100,4,1,2,62,0,0
63549,-100,4,1,2,52,0,0
63790,-100,4,1,2,62,0,0
64516,-100,4,1,2,56,0,0
64597,-100,4,1,2,50,0,0
64678,-100,4,1,2,56,0,0
64758,-100,4,1,2,50,0,0
64839,-100,4,1,2,56,0,0
64920,-100,4,1,2,50,0,0
65000,-100,4,1,2,56,0,0
65081,-100,4,1,2,50,0,0
65161,-100,4,1,2,56,0,0
65242,-100,4,1,2,50,0,0
65403,-100,4,1,2,56,0,0
65565,-100,4,1,2,50,0,0
65645,-100,4,1,2,56,0,0
65807,-100,4,2,1,50,0,1
65887,-100,4,2,1,56,0,0
70323,-66.6666666666667,4,2,1,60,0,0
70645,-100,4,2,1,60,0,0
75484,-100,4,2,1,54,0,0
75645,-100,4,2,1,57,0,0
75807,-100,4,2,1,60,0,0
76129,-100,4,2,1,60,0,1
76210,-100,4,2,1,60,0,0
86452,-200,4,2,0,57,0,0
91613,-200,4,2,2,63,0,0
95000,-200,4,2,2,71,0,0
96774,-100,4,1,0,50,0,0
116774,-100,4,2,2,56,0,0
122581,-100,4,1,0,50,0,0
122621,-100,4,2,0,50,0,0
122742,-100,4,1,1,53,0,0
122903,-100,4,2,1,47,0,0
123065,-100,4,1,1,53,0,0
128710,-200,4,2,0,50,0,0
131613,-200,4,2,0,40,0,0
133871,-200,4,2,0,50,0,0
136774,-200,4,2,0,40,0,0
138065,-200,4,2,0,50,0,0
138710,-100,4,1,0,30,0,0
139274,-100,4,2,1,46,0,0
158710,-100,4,1,0,40,0,0
160000,-100,4,1,0,50,0,0
170323,-100,4,1,2,58,0,0
180645,-100,4,1,0,50,0,1
180807,-100,4,1,1,60,0,1
183226,-100,4,2,1,60,0,1
183387,-100,4,1,1,60,0,1
185807,-100,4,2,1,60,0,1
185968,-100,4,1,1,60,0,1
190968,-100,4,2,1,60,0,1
191129,-100,4,1,1,60,0,1
193549,-100,4,2,1,60,0,1
193710,-100,4,2,1,50,0,1
193871,-100,4,1,1,60,0,1
196129,-100,4,2,1,60,0,1
196290,-100,4,1,1,60,0,1
197420,-100,4,2,1,60,0,1
197581,-100,4,1,1,60,0,1
198710,-100,4,2,1,60,0,1
198871,-100,4,1,1,60,0,1
199032,-100,4,1,1,64,0,1
200323,-100,4,1,1,67,0,1
201290,-100,4,2,0,30,0,0
204194,-100,4,2,0,5,0,0

[Colours]
Combo1 : 255,159,207
Combo2 : 136,67,177
Combo3 : 66,209,251
Combo4 : 104,185,155
SliderBorder : 255,255,255

[HitObjects]
72,336,1291,2,0,B|136:272|80:184,1,160,4|0
56,96,1774,1,0
156,128,1936,1,0
256,144,2097,1,0
356,128,2258,1,0
456,96,2420,1,0
472,248,2581,6,0,B|488:336,1,80
486,326,2903,1,0
352,232,3065,2,0,B|368:320,1,80
366,310,3387,1,0
248,320,3549,1,0
252,340,3629,1,0
256,360,3710,1,0
192,216,3871,6,0,B|224:48,1,160
104,72,4355,1,0
106,189,4517,1,0
224,176,4678,1,0
221,58,4839,1,0
104,72,5000,1,0
336,40,5161,6,0,B|416:48,1,80
415,47,5484,1,0
504,192,5645,2,0,B|424:200,1,80
424,199,5968,1,0
312,312,6129,1,0
332,316,6210,1,0
352,320,6290,1,0
208,360,6452,6,0,B|138:392|49:369,1,160
16,272,6936,1,0
48,176,7097,1,0
16,72,7258,1,0
168,272,7420,1,0
136,168,7581,1,0
224,152,7742,6,0,B|192:48,1,80
200,75,8065,1,0
336,200,8226,2,0,B|304:96,1,80
312,123,8549,1,0
440,56,8710,1,0
432,80,8790,1,0
424,104,8871,1,0
480,224,9032,6,0,B|496:304|432:328,1,120
408,312,9355,1,0
320,304,9678,5,0
240,352,9839,5,0
288,192,10000,1,0
408,312,10161,1,0
256,32,10484,5,0
128,144,10645,1,0
288,192,10806,1,0
256,32,10968,5,0
239,25,11049,1,0
225,19,11129,1,0
209,13,11210,1,0
195,7,11290,1,0
232,360,11613,6,0,B|136:344,1,80,4|0
8,208,11936,2,0,B|-32:280|40:320,1,120,8|0
56,304,12258,1,0
232,240,12420,2,0,B|144:256,1,80,0|8
320,272,12742,1,0
336,256,12823,1,0
352,240,12903,1,0
488,88,13065,6,0,B|480:176,1,80,8|0
368,32,13387,1,8
376,48,13468,1,0
384,64,13549,2,0,B|376:144,1,80
408,344,13871,2,0,B|416:264,1,80,8|0
272,40,14194,6,0,B|264:120,1,80
104,200,14516,2,0,B|160:240|216:208,1,120,8|0
240,184,14839,1,0
96,112,15000,1,0
96,112,15081,1,0
96,112,15161,2,0,B|48:112|24:160,1,80,8|0
88,320,15484,5,0
80,304,15565,1,0
72,288,15645,1,8
208,344,15807,1,0
240,184,15968,1,8
357,212,16129,2,0,B|240:184,1,120,0|0
392,144,16452,2,0,B|258:114,1,80,8|0
208,32,16774,5,8
89,46,16936,1,8
16,152,17097,1,0
32,272,17258,1,0
48,288,17339,1,0
64,304,17420,6,0,B|224:328,1,160,8|0
352,344,17903,1,8
296,248,18065,1,0
320,136,18226,1,8
416,88,18387,1,0
416,88,18468,1,0
416,88,18549,1,0
496,232,18710,2,0,B|408:200,1,80,8|0
421,205,19032,5,0
421,205,19194,1,0
480,32,19355,2,0,B|496:112,1,80,0|8
368,104,19678,2,0,B|344:56,4,40,8|0|0|0|8
248,96,20161,1,0
232,72,20242,1,8
75,152,20484,1,8
56,24,20645,5,0
0,192,20807,1,0
152,232,20968,1,8
59,54,21129,1,0
58,39,21210,1,0
56,23,21290,1,8
5,255,21452,1,8
4,239,21532,1,0
3,223,21613,1,0
2,208,21694,1,0
0,192,21774,1,8
112,344,21936,6,0,B|184:360|184:360|240:352,1,120,4|8
229,353,22581,1,8
264,232,22742,1,8
336,240,22903,1,0
368,352,23064,1,8
440,360,23226,1,8
464,328,23307,1,0
480,296,23387,1,0
488,264,23468,1,0
488,232,23549,5,8
480,200,23629,1,0
464,168,23710,1,0
448,136,23790,1,0
432,104,23871,5,8
424,72,23952,1,0
432,40,24032,1,8
456,16,24113,1,0
488,8,24194,6,0,B|416:40,1,80,8|8
272,56,24516,5,6
272,184,24678,1,8
400,184,24839,1,0
392,200,24920,1,0
384,216,25000,2,0,B|480:208,1,80,8|2
256,312,25323,2,0,B|440:296,1,160,10|8
200,248,25807,5,0
144,360,25968,1,0
16,328,26129,2,0,B|144:336,1,120,8|0
144,360,26452,2,0,B|184:240,1,120,0|8
200,248,26774,5,8
72,208,26936,1,8
16,64,27097,2,0,B|104:72|104:72,1,80,0|8
288,96,27420,2,0,B|200:104,1,80,8|0
384,120,27742,1,2
400,136,27823,1,0
416,152,27903,2,0,B|512:144,2,80,10|0|8
416,152,28387,1,0
448,256,28549,5,8
500,142,28710,1,2
432,32,28871,1,8
302,41,29032,1,2
242,159,29193,1,2
321,260,29354,1,8
448,256,29516,1,2
504,336,29678,5,4
224,368,30000,2,0,B|192:280,1,80,2|0
176,288,30242,1,0
157,283,30323,1,8
312,264,30484,2,0,B|328:184,1,80,8|0
152,136,30807,2,0,B|120:48,2,80,8|2|2
352,56,31290,1,0
356,31,31371,1,0
361,6,31452,1,8
400,104,31613,5,0
496,296,31936,2,0,B|464:344,2,40,8|0|0
496,296,32258,5,2
384,272,32420,1,8
272,320,32581,1,2
256,328,32661,1,0
240,336,32742,1,8
224,328,32823,1,0
208,320,32903,1,2
88,384,33065,1,8
104,376,33145,1,0
120,368,33226,1,2
208,320,33387,1,8
160,232,33549,5,2
176,224,33629,1,0
192,216,33710,1,2
280,168,33871,1,8
240,80,34032,5,2
256,72,34112,1,0
272,64,34193,1,2
360,16,34355,1,2
256,72,34516,21,8
272,64,34596,1,0
288,56,34677,1,2
160,24,34839,37,4
46,74,35000,1,8
48,196,35161,1,0
159,245,35323,1,8
362,193,35484,2,0,B|480:216,1,120,8|0
480,216,35807,5,0
456,344,35968,2,0,B|368:368,1,80,8|0
248,360,36290,1,0
224,352,36371,1,0
200,344,36452,1,8
72,360,36613,1,0
56,240,36774,2,0,B|24:152,1,80,8|8
88,32,37097,1,2
200,120,37258,1,10
432,48,37420,6,0,B|512:56,1,80
440,128,37742,1,8
448,208,37903,2,0,B|368:200,1,80
456,288,38226,1,0
483,290,38307,1,0
508,292,38387,1,8
312,272,38549,2,0,B|232:264,1,80
304,80,38871,1,8
308,112,38952,1,0
312,144,39032,1,0
144,144,39194,5,8
176,140,39275,1,0
208,136,39355,1,0
129,52,39516,1,8
51,153,39678,1,2
152,232,39839,1,2
192,368,40000,6,0,B|208:288,1,80,8|0
272,336,40323,2,0,B|288:256,1,80,0|8
316,223,40565,1,0
344,192,40645,2,0,B|309:368,1,160,2|8
224,40,41129,2,0,B|259:216,1,160,2|8
120,304,41613,1,0
104,296,41694,1,0
88,288,41774,1,2
96,272,41855,1,0
104,256,41936,1,8
320,72,42258,2,0,B|336:160,1,80,2|10
488,200,42581,5,0
456,112,42742,1,8
408,200,42903,1,10
402,225,42984,1,0
390,254,43065,1,0
371,271,43145,1,0
352,288,43226,1,8
296,208,43387,5,8
240,128,43548,1,2
200,224,43710,1,10
160,320,43871,1,8
136,312,43952,1,0
112,304,44032,1,0
96,280,44113,1,0
80,256,44194,1,10
4,332,44355,5,10
186,111,44678,1,10
58,155,44839,1,2
88,40,45000,1,10
338,218,45161,5,4
64,120,55484,5,4
192,96,55807,1,8
256,80,55968,1,0
272,96,56049,1,0
288,112,56129,2,0,B|432:64,1,120,2|0
456,120,56452,6,0,B|360:152,1,80,8|2
327,184,56774,1,0
352,248,56936,1,2
416,264,57097,1,8
464,216,57258,1,0
368,312,57420,6,0,B|254:349,1,120,2|0
192,320,57742,2,0,B|96:352,1,80,8|10
56,320,58065,5,4
176,112,58387,1,8
128,160,58549,1,0
64,144,58710,2,0,B|24:16,1,120,2|0
85,1,59032,2,0,B|111:77,1,80,8|2
256,136,59355,2,0,B|256:32,1,80,0|2
426,1,59678,1,8
426,1,59758,1,0
426,1,59839,2,0,B|401:77,1,80,0|2
256,240,60242,1,2
256,216,60323,2,0,B|256:112,1,80,8|2
256,72,60645,5,2
320,96,60807,1,2
384,80,60968,1,8
440,112,61129,1,0
440,112,61210,1,0
440,112,61290,2,0,B|496:176|496:176|472:248,1,160,2|8
408,272,61774,2,0,B|464:336,1,80,2|0
344,296,62097,2,0,B|400:360,1,80,2|8
136,360,62581,6,0,B|224:360|224:360|280:312,1,160,2|8
344,296,63065,1,10
408,272,63226,1,0
472,248,63387,1,2
456,184,63549,1,8
464,152,63629,1,0
472,120,63710,1,0
464,88,63790,1,0
456,56,63871,1,2
456,56,64194,5,8
336,32,64355,1,2
216,64,64516,1,2
192,48,64597,1,0
168,32,64678,1,2
144,48,64758,1,0
120,64,64839,1,8
96,80,64920,1,0
72,64,65000,1,10
48,48,65081,1,0
32,72,65161,2,0,B|8:112,3,40,2|0|0|2
32,136,65484,2,0,B|8:176,3,40,8|0|2|0
32,200,65807,6,0,B|112:240|192:200,1,160,2|2
256,216,66290,1,0
256,200,66371,1,0
256,184,66452,1,8
325,181,66613,2,0,B|400:144|480:184,1,160,2|2
496,256,67097,1,0
496,272,67178,1,0
496,288,67258,1,8
480,360,67420,2,0,B|405:397|325:357,1,160,2|2
256,384,67903,1,0
256,368,67984,1,0
256,352,68065,1,8
256,288,68226,1,2
184,360,68387,6,0,B|109:322|29:362,1,160,2|2
16,256,68871,1,0
16,272,68952,1,0
16,288,69032,1,8
32,184,69194,2,0,B|106:221|186:181,1,160,2|2
256,144,69678,1,0
256,128,69758,1,0
256,112,69839,1,0
256,96,69920,1,0
256,80,70000,1,2
304,224,70242,1,0
326,202,70323,2,0,B|405:162|480:200,1,160,2|0
496,224,70645,1,8
496,224,70807,1,2
504,136,70968,6,0,B|416:112,1,80,2|0
504,64,71290,2,0,B|416:40,1,80,8|2
296,32,71613,6,0,B|208:56,1,80,2|0
296,104,71935,2,0,B|208:128,1,80,8|2
80,136,72258,6,0,B|-8:112,1,80,0|2
80,64,72580,2,0,B|-8:40,1,80,8|0
80,248,72903,6,0,B|-8:272,1,80,2|0
42,292,73145,1,0
80,320,73225,2,0,B|-8:344,1,80,8|2
296,352,73549,6,0,B|208:328,1,80,2|0
296,280,73871,2,0,B|208:256,1,80,8|2
504,248,74194,6,0,B|416:272,1,80,2|0
504,320,74516,2,0,B|416:344,1,80,8|2
200,320,74839,6,0,B|224:240,1,80,0|2
312,64,75161,2,0,B|288:144,1,80,8|2
168,301,75484,1,0
143,274,75565,1,0
125,242,75645,1,2
117,207,75726,1,0
117,171,75807,1,2
128,136,75887,1,0
146,104,75968,1,2
173,79,76049,1,0
205,61,76129,6,0,B|288:64,1,80,0|8
37,168,76452,2,0,B|120:171,1,80
125,160,76694,1,0
133,150,76774,1,0
192,184,76936,1,0
256,200,77097,1,8
320,176,77258,1,0
328,184,77339,1,0
336,192,77420,6,0,B|424:184,1,80,0|8
512,248,77742,2,0,B|432:255,1,80,0|8
376,296,78065,1,2
320,336,78226,1,0
256,312,78387,1,2
192,336,78549,1,0
176,344,78629,1,0
160,352,78710,6,0,B|152:256,1,80,0|8
40,224,79032,2,0,B|48:128,1,80
56,128,79274,1,0
64,112,79355,1,0
56,48,79516,1,0
120,48,79678,1,8
184,64,79839,2,0,B|232:64,1,40
248,48,80000,2,0,B|296:48,1,40
312,32,80161,2,0,B|400:32,1,80,0|8
488,144,80565,6,0,B|440:144,1,40,0|8
384,144,80807,1,2
320,144,80968,1,2
296,168,81049,1,0
288,200,81129,1,0
296,232,81210,1,0
320,256,81290,5,0
424,272,81452,2,0,B|345:265,1,80,8|0
272,352,81774,2,0,B|208:296,1,80,8|2
211,299,82096,1,8
168,384,82258,1,0
88,328,82420,1,0
88,328,82500,1,8
88,328,82581,1,0
115,252,82742,2,0,B|83:340,1,80,8|0
96,160,83065,2,0,B|8:160,2,80,8|2|8
160,80,83549,2,0,B|96:16,1,80,0|0
264,16,83871,5,2
312,72,84032,1,10
256,120,84194,1,0
304,176,84355,1,0
320,176,84436,1,0
336,176,84516,1,2
400,152,84678,5,10
456,192,84839,1,0
416,248,85000,1,2
408,264,85081,1,0
400,280,85161,1,0
392,296,85242,1,0
384,312,85323,1,2
448,336,85484,1,8
496,288,85645,1,2
320,336,85807,5,8
320,336,85887,1,0
320,336,85968,1,2
496,288,86129,1,2
496,288,86210,1,0
496,288,86290,1,2
296,280,86452,6,0,B|272:224,1,40,2|0
472,232,86774,2,0,B|448:176,1,40,0|2
120,328,87258,2,0,B|96:272,2,40,0|0|0
216,280,87742,6,0,B|240:224,1,40,2|0
40,232,88064,2,0,B|64:176,1,40,0|2
392,328,88548,2,0,B|416:272,2,40,0|0|0
320,352,89032,6,0,B|320:288,1,40,2|0
256,384,89355,2,0,B|232:352,1,40,0|2
320,192,89839,1,0
256,192,90000,1,0
192,192,90161,1,0
192,32,90323,6,0,B|192:96,1,40,2|0
256,0,90646,2,0,B|280:32,1,40,0|2
192,192,91129,1,0
256,192,91290,1,0
320,192,91452,1,0
384,192,91613,6,0,B|424:168,1,40,8|0
256,272,91936,2,0,B|296:248,1,40,0|0
128,192,92258,2,0,B|88:216,1,40,8|0
256,112,92581,2,0,B|216:136,1,40,0|0
256,320,92903,6,0,B|280:360,1,40,0|8
176,192,93226,2,0,B|200:232,1,40,0|0
256,64,93548,2,0,B|232:24,1,40,8|0
336,192,93871,2,0,B|312:152,1,40,0|0
110,316,94194,6,0,B|172:296,1,40,8|8
401,67,94516,2,0,B|339:87,1,40
401,316,94839,2,0,B|339:296,1,40,8|0
110,67,95161,2,0,B|172:87,1,40
352,192,95484,5,8
256,288,95645,1,0
160,192,95807,1,0
256,96,95968,1,8
395,256,96129,5,8
190,331,96290,1,0
115,126,96452,1,8
320,51,96613,1,8
320,51,96774,5,4
248,24,96936,1,0
160,40,97097,1,0
80,120,97258,1,0
64,272,97420,1,0
191,332,99355,5,0
264,360,99517,1,0
352,344,99678,1,0
432,264,99839,1,0
448,112,100001,1,0
69,322,101936,5,0
135,274,102097,1,0
240,248,102258,1,0
371,270,102420,1,0
496,352,102581,1,0
443,62,104516,5,0
377,110,104677,1,0
272,136,104838,1,0
141,114,105000,1,0
16,32,105161,1,0
256,32,106774,5,0
264,48,106855,1,0
256,64,106936,1,0
248,80,107016,1,0
256,96,107097,1,4
488,192,116774,6,0,B|464:192,16,20,0|0|0|0|0|0|0|0|0|0|0|0|0|0|0|0|0
488,192,117581,1,4
400,192,117742,2,0,B|344:176|304:208|240:192,1,160,0|2
24,192,118387,1,4
488,192,118871,1,4
24,192,119355,1,2
511,260,119678,5,0
511,260,120161,1,4
414,234,120322,2,0,B|362:202|304:223|262:190,1,160,0|2
0,123,120967,1,4
511,260,121451,1,4
0,123,121935,1,2
512,339,122258,6,0,B|472:339,5,40,4|0|4|4|0|0
511,339,122741,1,0
424,360,122903,2,0,B|408:280,1,80,8|0
368,273,123145,1,0
328,264,123226,2,0,B|344:344,1,80,8|0
264,56,123549,6,0,B|248:136,1,80,0|8
168,152,123872,2,0,B|184:72,1,80,0|8
96,312,124194,5,0
88,296,124274,1,0
80,280,124355,1,0
184,344,124516,2,0,B|144:264,1,80,8|0
256,336,124839,2,0,B|216:256,1,80,0|8
214,251,125081,1,0
206,235,125161,1,0
256,176,125323,1,8
392,320,125484,6,0,B|416:240,1,80,0|8
424,232,125726,1,0
433,220,125807,1,8
385,84,125968,1,8
376,96,126049,1,0
366,107,126129,2,0,B|344:184,3,80,0|8|0|8
256,176,126774,1,8
168,152,126936,1,0
104,88,127097,1,0
72,0,127258,1,8
176,64,127420,6,0,B|200:120|168:184,1,120
152,208,127742,1,4
440,48,128710,5,0
480,104,128871,1,0
432,152,129032,2,0,B|384:184|384:184|312:168,2,120
440,224,130323,6,0,B|392:256|392:256|320:240,2,120
256,192,131613,12,0,133871
256,112,134194,5,0
144,344,135000,1,0
88,312,135161,1,0
32,280,135322,1,0
368,40,136129,1,0
480,104,136452,5,0
424,72,136613,1,0
256,192,136774,12,0,138065
400,296,138710,5,0
224,368,138952,1,0
224,368,139032,2,0,B|232:280,1,80
280,95,139355,5,0
264,104,139516,1,0
248,112,139678,1,0
72,72,140000,2,0,B|200:112,1,120,8|0
342,110,140323,2,0,B|446:142,1,80
213,165,140645,2,0,B|181:245,1,80,0|0
16,240,140968,6,0,B|144:280,1,120
130,275,141290,1,8
216,336,141452,1,0
312,296,141613,1,0
400,352,141774,1,0
472,272,141936,2,0,B|429:195|480:120,1,160
400,352,142581,5,8
312,296,142742,2,0,B|288:136,2,160
112,344,143549,6,0,B|176:384|224:336,1,120
232,320,143871,1,8
480,32,144194,5,0
392,64,144355,1,0
304,96,144516,2,0,B|144:72,2,160,0|0|8
104,176,145484,6,0,B|88:96,1,80
80,248,145807,2,0,B|18:301,1,80
150,232,146129,2,0,B|262:272,1,120
280,278,146452,1,8
32,56,146774,5,0
128,40,146936,1,0
216,80,147097,2,0,B|280:72|280:72|304:48|304:48|376:40,2,160,0|0|8
464,32,148065,5,0
496,144,148226,2,0,B|480:224,3,80,8|0|8|0
272,360,149032,1,8
248,32,149355,5,0
157,172,149516,1,0
291,262,149678,1,4
256,192,158710,12,4,160000
64,344,170323,6,0,B|40:264,1,80,2|0
41,267,170645,1,8
184,200,170807,1,0
192,216,170887,1,0
200,232,170968,2,0,B|200:328,1,80,2|2
328,352,171290,2,0,B|352:272,1,80,8|2
344,260,171532,1,0
337,244,171613,1,2
448,304,171774,1,0
424,208,171936,1,8
369,292,172097,5,2
486,326,172258,1,2
457,211,172420,1,2
369,292,172581,1,8
486,326,172742,1,0
384,128,172903,6,0,B|472:96,1,80,2|0
459,100,173226,1,8
280,80,173387,1,0
280,80,173549,2,0,B|400:40,1,120,2|2
414,36,173871,1,8
296,144,174032,1,0
152,40,174194,1,2
160,56,174274,1,0
168,72,174355,1,0
176,88,174436,1,0
184,104,174516,1,8
88,128,174678,5,0
88,296,174839,1,2
56,144,175000,1,2
104,288,175161,1,8
24,160,175323,1,0
120,280,175484,6,0,B|24:328,1,80,2|0
216,248,175807,2,0,B|264:344,1,80,8|0
424,224,176129,2,0,B|424:296|360:312,1,120,2|0
344,304,176452,1,8
416,204,176613,1,0
464,320,176774,5,2
344,304,176936,1,2
240,352,177097,1,8
128,328,177258,1,0
32,352,177420,2,0,B|40:272,1,80,2|2
8,112,177742,2,0,B|16:192,1,80,8|0
128,40,178065,5,2
128,40,178226,1,0
288,56,178387,1,8
288,56,178468,1,0
288,56,178549,1,2
288,56,178629,1,0
288,56,178710,5,2
288,56,178871,1,0
136,160,179032,1,8
136,160,179113,1,0
136,160,179194,1,8
136,160,179274,1,0
136,160,179355,5,2
136,160,179516,1,0
304,176,179678,1,8
320,168,179758,1,0
336,160,179839,1,8
352,152,179920,1,0
384,112,179999,5,2
392,128,180080,1,0
400,144,180161,1,2
408,160,180241,1,0
448,192,180323,5,8
432,200,180404,1,0
416,208,180485,1,8
400,216,180565,1,0
352,208,180645,6,0,B|392:288,1,80,4|0
64,296,181129,1,0
80,288,181210,1,0
96,280,181290,1,8
32,80,181774,1,8
48,88,181855,1,0
64,96,181936,1,0
40,192,182097,1,8
56,192,182178,1,0
72,192,182259,1,0
168,336,182420,5,0
392,384,182581,1,8
440,40,183065,5,0
432,56,183146,1,0
424,72,183227,1,8
320,328,183710,1,0
328,312,183791,1,0
336,296,183872,1,8
472,248,184355,1,8
464,232,184436,1,0
456,216,184517,1,0
288,120,184677,1,8
296,136,184758,1,0
304,152,184839,1,0
224,264,185000,5,0
112,141,185161,1,8
16,288,185323,1,2
112,141,185484,1,2
104,125,185565,1,0
96,109,185646,1,2
88,93,185726,1,0
80,77,185807,6,0,B|160:80,1,80,8|0
288,120,186129,1,0
256,16,186290,1,0
256,16,186371,1,0
256,16,186452,1,8
56,192,186613,6,0,B|136:195,1,80,0|0
264,235,186935,1,8
264,235,187016,1,0
264,235,187097,1,0
232,131,187258,1,8
400,64,187420,6,0,B|376:192,1,120
392,192,187742,1,8
464,272,187903,1,2
360,304,188065,1,0
344,312,188145,1,0
328,320,188226,1,2
312,328,188307,1,0
296,336,188387,5,8
201,380,188549,1,8
283,272,188710,1,0
283,272,188790,2,0,B|205:309,1,80
150,335,189032,1,8
272,208,189193,1,8
101,289,189355,1,0
261,144,189516,1,0
49,242,189678,5,8
101,289,189839,1,8
73,181,190000,1,0
73,181,190081,2,0,B|152:255,1,80
160,263,190323,1,8
97,118,190484,1,8
218,238,190645,1,8
123,58,190807,1,8
432,24,190968,6,0,B|344:48,1,80,8|0
410,192,191290,1,2
443,207,191371,1,0
467,234,191452,1,0
486,267,191532,1,2
488,304,191613,2,0,B|400:288,1,80,8|8
409,289,191936,5,0
354,45,192097,1,8
240,136,192258,2,0,B|224:56,1,80
40,176,192581,1,2
40,208,192661,1,0
56,240,192742,1,0
80,256,192823,1,2
112,264,192903,2,0,B|120:184,1,80,8|8
248,304,193226,2,0,B|264:384,1,80,0|8
80,360,193549,5,8
80,360,193710,1,8
292,257,193871,1,2
323,250,193952,1,0
357,254,194032,1,0
388,271,194113,1,2
408,304,194194,2,0,B|328:328,1,80,8|8
400,176,194516,2,0,B|480:152,1,80,0|8
456,128,194758,1,2
448,96,194839,1,0
464,64,194920,1,0
495,49,195000,6,0,B|408:32,1,80,10|0
216,72,195323,1,8
240,64,195403,1,0
264,56,195484,2,0,B|352:72,1,80,8|8
96,104,195807,2,0,B|144:112,2,40,0|0|8
32,200,196129,5,8
104,304,196290,1,0
8,280,196452,1,8
8,256,196532,1,0
88,176,196694,1,0
112,184,196774,2,0,B|192:208,1,80,8|0
240,320,197097,1,8
336,264,197258,5,8
416,344,197420,2,0,B|464:304|464:304|472:240,1,120,8|0
448,224,197742,2,0,B|464:168,1,40,0|0
440,160,197903,2,0,B|456:104,1,40,8|0
480,96,198065,5,8
304,48,198226,2,0,B|288:104,4,40,8|0|0|0|8
160,344,198710,5,8
40,352,198872,1,0
160,232,199033,5,8
128,120,199194,1,0
147,332,199355,5,0
26,329,199517,1,0
157,220,199678,5,8
134,106,199839,1,0
135,319,200000,5,0
15,306,200162,1,0
154,209,200323,5,8
142,93,200484,1,0
125,305,200645,5,0
8,282,200807,1,0
154,197,200968,5,8
152,81,201129,1,0
280,16,201290,5,0
256,192,201371,12,0,204194
