osu file format v14

[General]
AudioFilename: Blackhole - Diosynth.mp3
AudioLeadIn: 0
PreviewTime: 20469
Countdown: 0
SampleSet: Normal
StackLeniency: 0.7
Mode: 1
LetterboxInBreaks: 0
WidescreenStoryboard: 0

[Editor]
Bookmarks: 1249,6049,8449,10849,15655,20449,30049,39649,49249,58849,68449,78049,87649,97249,106849,116449,126049,135649
DistanceSpacing: 1.2
BeatDivisor: 1
GridSize: 32
TimelineZoom: 2.5

[Metadata]
Title:DioSynth
TitleUnicode:DioSynth
Artist:Erik McClure
ArtistUnicode:Erik McClure
Creator:xfraczynho
Version:Kantan
Source:
Tags:Blackhole Newgrounds Techno Blackhole12 Audio Deathmatch NGADM _yu68
BeatmapID:1297311
BeatmapSetID:615009

[Difficulty]
HPDrainRate:8
CircleSize:2
OverallDifficulty:3
ApproachRate:0
SliderMultiplier:1.2
SliderTickRate:1

[Events]
//Background and Video events
0,0,"bg.jpg",0,0
//Break Periods
//Storyboard Layer 0 (Background)
//Storyboard Layer 1 (Fail)
//Storyboard Layer 2 (Pass)
//Storyboard Layer 3 (Foreground)
//Storyboard Sound Samples

[TimingPoints]
1269,300,4,1,0,50,1,0
10869,-100,4,1,0,70,0,0
20469,-100,4,1,0,90,0,1
39669,-100,4,1,0,70,0,0
58869,-100,4,1,0,60,0,0
68469,-100,4,1,0,50,0,0
87669,-100,4,1,0,60,0,0
97269,-100,4,1,0,50,0,0
106869,-100,4,1,0,70,0,0
108069,-100,4,1,0,75,0,0
109269,-100,4,1,0,80,0,0
111669,-100,4,1,0,85,0,0
116469,-100,4,1,0,90,0,1
135669,-100,4,1,0,70,0,0
136869,-100,4,1,0,55,0,0
138069,-100,4,1,0,40,0,0
139269,-100,4,1,0,25,0,0
140469,-100,4,1,0,10,0,0

[HitObjects]
256,192,1269,5,12,0:0:0:0:
256,192,6069,1,0,0:0:0:0:
256,192,7269,1,0,0:0:0:0:
256,192,8469,1,0,0:0:0:0:
256,192,9069,1,0,0:0:0:0:
256,192,9669,1,0,0:0:0:0:
256,192,9969,1,8,0:0:0:0:
256,192,10269,1,0,0:0:0:0:
256,192,10869,1,4,0:0:0:0:
256,192,12069,1,8,0:0:0:0:
256,192,12669,1,8,0:0:0:0:
256,192,13269,1,0,0:0:0:0:
256,192,14469,1,0,0:0:0:0:
256,192,15069,1,0,0:0:0:0:
256,192,15669,1,0,0:0:0:0:
256,192,16869,1,8,0:0:0:0:
256,192,17469,1,8,0:0:0:0:
256,192,18069,1,0,0:0:0:0:
256,192,19269,1,8,0:0:0:0:
256,192,20469,1,0,0:0:0:0:
256,192,21069,1,8,0:0:0:0:
256,192,21669,1,0,0:0:0:0:
256,192,21969,1,0,0:0:0:0:
256,192,22269,1,0,0:0:0:0:
256,192,22869,1,0,0:0:0:0:
224,288,24069,1,8,0:0:0:0:
224,288,24369,1,8,0:0:0:0:
256,192,24669,1,8,0:0:0:0:
256,192,25269,1,0,0:0:0:0:
256,192,25869,1,8,0:0:0:0:
256,192,26469,1,0,0:0:0:0:
256,192,26769,1,0,0:0:0:0:
256,192,27069,1,0,0:0:0:0:
256,192,27669,1,0,0:0:0:0:
256,192,28869,1,8,0:0:0:0:
256,192,29469,1,0,0:0:0:0:
256,192,29769,1,8,0:0:0:0:
256,192,30069,1,0,0:0:0:0:
256,192,31269,1,0,0:0:0:0:
256,192,31569,1,8,0:0:0:0:
256,192,31869,1,0,0:0:0:0:
256,192,32469,1,0,0:0:0:0:
256,192,33069,1,0,0:0:0:0:
256,192,33669,1,8,0:0:0:0:
256,192,33969,1,0,0:0:0:0:
256,192,34269,1,8,0:0:0:0:
256,192,34869,1,0,0:0:0:0:
256,192,36069,1,8,0:0:0:0:
256,192,36369,1,8,0:0:0:0:
256,192,36669,1,0,0:0:0:0:
256,192,37269,1,0,0:0:0:0:
256,192,37869,1,0,0:0:0:0:
256,192,38469,1,8,0:0:0:0:
256,192,38769,1,0,0:0:0:0:
256,192,39069,1,8,0:0:0:0:
256,192,39369,1,8,0:0:0:0:
256,192,39669,1,4,0:0:0:0:
256,192,40869,1,0,0:0:0:0:
256,192,41469,1,8,0:0:0:0:
256,192,42069,1,0,0:0:0:0:
256,192,43269,1,0,0:0:0:0:
256,192,43569,1,8,0:0:0:0:
256,192,43869,1,0,0:0:0:0:
256,192,44469,1,0,0:0:0:0:
256,192,45669,1,0,0:0:0:0:
256,192,46269,1,8,0:0:0:0:
256,192,46869,1,0,0:0:0:0:
256,192,48069,1,0,0:0:0:0:
256,192,48369,1,8,0:0:0:0:
256,192,48669,1,0,0:0:0:0:
256,192,49269,1,8,0:0:0:0:
256,192,50469,1,0,0:0:0:0:
256,192,51069,1,0,0:0:0:0:
256,192,51369,1,0,0:0:0:0:
256,192,51669,1,0,0:0:0:0:
256,192,52869,1,8,0:0:0:0:
256,192,53469,1,8,0:0:0:0:
256,192,53769,1,0,0:0:0:0:
256,192,54069,1,8,0:0:0:0:
256,192,55269,1,0,0:0:0:0:
256,192,55869,1,0,0:0:0:0:
256,192,56169,1,8,0:0:0:0:
256,192,56469,1,0,0:0:0:0:
256,192,57669,1,8,0:0:0:0:
256,192,58269,1,8,0:0:0:0:
256,192,58569,1,0,0:0:0:0:
256,192,58869,1,12,0:0:0:0:
256,192,60069,1,0,0:0:0:0:
256,192,61269,1,0,0:0:0:0:
256,192,61869,1,0,0:0:0:0:
256,192,62469,1,8,0:0:0:0:
256,192,63669,1,8,0:0:0:0:
256,192,64869,1,0,0:0:0:0:
256,192,66069,1,0,0:0:0:0:
256,192,66669,1,0,0:0:0:0:
256,192,67269,1,8,0:0:0:0:
256,192,68469,1,12,0:0:0:0:
256,192,69669,1,0,0:0:0:0:
256,192,70869,1,0,0:0:0:0:
256,192,72069,1,8,0:0:0:0:
256,192,72969,1,0,0:0:0:0:
256,192,73269,1,8,0:0:0:0:
256,192,74469,1,0,0:0:0:0:
256,192,75669,1,0,0:0:0:0:
256,192,76869,1,8,0:0:0:0:
256,192,77769,1,0,0:0:0:0:
256,192,78069,1,12,0:0:0:0:
256,192,80469,1,0,0:0:0:0:
256,192,81669,1,0,0:0:0:0:
256,192,82869,1,8,0:0:0:0:
256,192,85269,1,0,0:0:0:0:
256,192,86469,1,8,0:0:0:0:
256,192,87669,1,0,0:0:0:0:
256,192,88869,1,0,0:0:0:0:
256,192,90069,1,0,0:0:0:0:
256,192,90669,1,8,0:0:0:0:
256,192,91269,1,0,0:0:0:0:
256,192,92469,1,8,0:0:0:0:
256,192,93069,1,0,0:0:0:0:
256,192,93669,1,0,0:0:0:0:
256,192,93969,1,0,0:0:0:0:
256,192,94269,1,0,0:0:0:0:
256,192,94869,1,8,0:0:0:0:
256,192,95469,1,0,0:0:0:0:
256,192,96069,1,8,0:0:0:0:
256,192,96369,1,8,0:0:0:0:
256,192,96669,1,8,0:0:0:0:
256,192,97269,8,0,99069,0:0:0:0:
256,192,99669,5,0,0:0:0:0:
256,192,100869,1,0,0:0:0:0:
256,192,101469,1,0,0:0:0:0:
256,192,102069,1,8,0:0:0:0:
256,192,103269,1,0,0:0:0:0:
256,192,103869,1,8,0:0:0:0:
256,192,104469,1,0,0:0:0:0:
256,192,105669,1,0,0:0:0:0:
256,192,106269,1,0,0:0:0:0:
256,192,106869,1,8,0:0:0:0:
256,192,108069,1,0,0:0:0:0:
256,192,108669,1,8,0:0:0:0:
256,192,109269,1,8,0:0:0:0:
256,192,110469,1,0,0:0:0:0:
256,192,111069,1,0,0:0:0:0:
256,192,111669,1,8,0:0:0:0:
256,192,112869,1,0,0:0:0:0:
256,192,113469,1,8,0:0:0:0:
256,192,114069,1,8,0:0:0:0:
256,192,115269,1,0,0:0:0:0:
256,192,115869,1,8,0:0:0:0:
224,288,116469,1,0,0:0:0:0:
224,288,117069,1,8,0:0:0:0:
224,288,117669,1,8,0:0:0:0:
224,288,117969,1,8,0:0:0:0:
224,288,118269,1,0,0:0:0:0:
224,288,118869,1,0,0:0:0:0:
224,288,120069,1,8,0:0:0:0:
224,288,120369,1,0,0:0:0:0:
256,192,120669,1,8,0:0:0:0:
256,192,121269,1,0,0:0:0:0:
256,192,121869,1,8,0:0:0:0:
256,192,122469,1,8,0:0:0:0:
256,192,122769,1,8,0:0:0:0:
256,192,123069,1,0,0:0:0:0:
256,192,123669,1,0,0:0:0:0:
256,192,124869,1,8,0:0:0:0:
256,192,125169,1,8,0:0:0:0:
256,192,125469,1,8,0:0:0:0:
256,192,126069,1,0,0:0:0:0:
256,192,126669,1,8,0:0:0:0:
256,192,127269,1,8,0:0:0:0:
256,192,127569,1,8,0:0:0:0:
256,192,127869,1,0,0:0:0:0:
256,192,128469,1,0,0:0:0:0:
256,192,129669,1,8,0:0:0:0:
256,192,129969,1,0,0:0:0:0:
256,192,130269,1,8,0:0:0:0:
256,192,130869,1,0,0:0:0:0:
256,192,131469,1,8,0:0:0:0:
256,192,132069,1,8,0:0:0:0:
256,192,132369,1,8,0:0:0:0:
256,192,132669,1,0,0:0:0:0:
256,192,133269,1,0,0:0:0:0:
256,192,134469,1,8,0:0:0:0:
256,192,134769,1,8,0:0:0:0:
256,192,135069,1,0,0:0:0:0:
256,192,135369,1,0,0:0:0:0:
256,192,135669,8,8,140469,0:0:0:0:
