osu file format v14

[General]
AudioFilename: Blackhole - Diosynth.mp3
AudioLeadIn: 0
PreviewTime: 20469
Countdown: 0
SampleSet: Normal
StackLeniency: 0.7
Mode: 1
LetterboxInBreaks: 0
WidescreenStoryboard: 0

[Editor]
Bookmarks: 1249,6049,8449,10849,20455,30049,39649,49249,58849,68449,78049,87649,92469,97249,106849,116449,126049,135649
DistanceSpacing: 1.2
BeatDivisor: 4
GridSize: 32
TimelineZoom: 2.7

[Metadata]
Title:DioSynth
TitleUnicode:DioSynth
Artist:Erik McClure
ArtistUnicode:Erik McClure
Creator:xfraczynho
Version:Muzukashii
Source:
Tags:Blackhole Newgrounds Techno Blackhole12 Audio Deathmatch NGADM _yu68
BeatmapID:1297312
BeatmapSetID:615009

[Difficulty]
HPDrainRate:6
CircleSize:2
OverallDifficulty:5
ApproachRate:0
SliderMultiplier:1.4
SliderTickRate:1

[Events]
//Background and Video events
0,0,"bg.jpg",0,0
//Break Periods
//Storyboard Layer 0 (Background)
//Storyboard Layer 1 (Fail)
//Storyboard Layer 2 (Pass)
//Storyboard Layer 3 (Foreground)
//Storyboard Sound Samples

[TimingPoints]
1269,300,4,1,0,50,1,0
10869,-100,4,1,0,70,0,0
20469,-100,4,1,0,90,0,1
39669,-100,4,1,0,70,0,0
58869,-100,4,1,0,60,0,0
68469,-100,4,1,0,50,0,0
87669,-100,4,1,0,60,0,0
97269,-100,4,1,0,50,0,0
106869,-100,4,1,0,70,0,0
108069,-100,4,1,0,75,0,0
109269,-100,4,1,0,80,0,0
111669,-100,4,1,0,85,0,0
116469,-100,4,1,0,90,0,1
135669,-100,4,1,0,70,0,0
136869,-100,4,1,0,55,0,0
138069,-100,4,1,0,40,0,0
139269,-100,4,1,0,25,0,0
140469,-100,4,1,0,10,0,0

[HitObjects]
256,192,1269,5,12,0:0:0:0:
256,192,6069,1,0,0:0:0:0:
256,192,6219,1,8,0:0:0:0:
256,192,6669,1,0,0:0:0:0:
256,192,7269,1,0,0:0:0:0:
256,192,7419,1,8,0:0:0:0:
256,192,7869,1,0,0:0:0:0:
256,192,8169,1,0,0:0:0:0:
256,192,8319,1,0,0:0:0:0:
256,192,8469,1,0,0:0:0:0:
256,192,8619,1,8,0:0:0:0:
256,192,8769,1,8,0:0:0:0:
256,192,9069,1,0,0:0:0:0:
256,192,9369,1,8,0:0:0:0:
256,192,9669,1,0,0:0:0:0:
256,192,9819,1,8,0:0:0:0:
256,192,9969,1,8,0:0:0:0:
256,192,10269,1,0,0:0:0:0:
256,192,10569,1,8,0:0:0:0:
256,192,10869,1,4,0:0:0:0:
256,192,11319,1,8,0:0:0:0:
256,192,11469,1,8,0:0:0:0:
256,192,11769,1,8,0:0:0:0:
256,192,12069,1,8,0:0:0:0:
256,192,12219,1,0,0:0:0:0:
256,192,12519,1,0,0:0:0:0:
256,192,12669,1,8,0:0:0:0:
256,192,12969,1,0,0:0:0:0:
256,192,13269,1,0,0:0:0:0:
256,192,13719,1,8,0:0:0:0:
256,192,13869,1,8,0:0:0:0:
256,192,14169,1,8,0:0:0:0:
256,192,14469,1,0,0:0:0:0:
256,192,14619,1,8,0:0:0:0:
256,192,14919,1,0,0:0:0:0:
256,192,15069,1,8,0:0:0:0:
256,192,15369,1,0,0:0:0:0:
256,192,15669,1,0,0:0:0:0:
256,192,16119,1,8,0:0:0:0:
256,192,16269,1,8,0:0:0:0:
256,192,16569,1,8,0:0:0:0:
256,192,16869,1,8,0:0:0:0:
256,192,17019,1,0,0:0:0:0:
256,192,17319,1,0,0:0:0:0:
256,192,17469,1,8,0:0:0:0:
256,192,17769,1,0,0:0:0:0:
256,192,18069,1,0,0:0:0:0:
256,192,18519,1,8,0:0:0:0:
256,192,18669,1,8,0:0:0:0:
256,192,18969,1,8,0:0:0:0:
256,192,19119,1,8,0:0:0:0:
256,192,19269,1,0,0:0:0:0:
256,192,19419,1,8,0:0:0:0:
256,192,19719,1,0,0:0:0:0:
256,192,19869,1,8,0:0:0:0:
256,192,20169,1,8,0:0:0:0:
256,192,20469,1,0,0:0:0:0:
256,192,20619,1,8,0:0:0:0:
256,192,20769,1,8,0:0:0:0:
256,192,21069,1,0,0:0:0:0:
256,192,21369,1,8,0:0:0:0:
256,192,21669,1,8,0:0:0:0:
256,192,21819,1,0,0:0:0:0:
256,192,21894,1,0,0:0:0:0:
256,192,21969,1,0,0:0:0:0:
256,192,22119,1,0,0:0:0:0:
256,192,22269,1,8,0:0:0:0:
256,192,22569,1,0,0:0:0:0:
256,192,22869,1,0,0:0:0:0:
256,192,23019,1,8,0:0:0:0:
256,192,23169,1,8,0:0:0:0:
256,192,23319,1,8,0:0:0:0:
256,192,23469,1,0,0:0:0:0:
256,192,23769,1,8,0:0:0:0:
256,192,24069,1,0,0:0:0:0:
256,192,24219,1,8,0:0:0:0:
256,192,24294,1,8,0:0:0:0:
256,192,24369,1,8,0:0:0:0:
256,192,24519,1,0,0:0:0:0:
256,192,24669,1,8,0:0:0:0:
256,192,24819,1,0,0:0:0:0:
256,192,24969,1,8,0:0:0:0:
256,192,25269,1,0,0:0:0:0:
256,192,25419,1,8,0:0:0:0:
256,192,25569,1,8,0:0:0:0:
256,192,25869,1,0,0:0:0:0:
256,192,26169,1,8,0:0:0:0:
256,192,26469,1,8,0:0:0:0:
256,192,26619,1,0,0:0:0:0:
256,192,26694,1,0,0:0:0:0:
256,192,26769,1,0,0:0:0:0:
256,192,26919,1,0,0:0:0:0:
256,192,27069,1,8,0:0:0:0:
256,192,27369,1,0,0:0:0:0:
256,192,27669,1,0,0:0:0:0:
256,192,27819,1,0,0:0:0:0:
256,192,27969,1,8,0:0:0:0:
256,192,28119,1,8,0:0:0:0:
256,192,28269,1,0,0:0:0:0:
256,192,28569,1,8,0:0:0:0:
256,192,28869,1,0,0:0:0:0:
256,192,29019,1,8,0:0:0:0:
256,192,29094,1,8,0:0:0:0:
256,192,29169,1,8,0:0:0:0:
256,192,29319,1,0,0:0:0:0:
256,192,29469,1,0,0:0:0:0:
256,192,29619,1,8,0:0:0:0:
256,192,29769,1,8,0:0:0:0:
256,192,30069,1,0,0:0:0:0:
256,192,30219,1,8,0:0:0:0:
256,192,30369,1,8,0:0:0:0:
256,192,30669,1,8,0:0:0:0:
256,192,30819,1,0,0:0:0:0:
256,192,30969,1,8,0:0:0:0:
256,192,31269,1,0,0:0:0:0:
256,192,31569,1,8,0:0:0:0:
256,192,31719,1,0,0:0:0:0:
256,192,31869,1,8,0:0:0:0:
256,192,31944,1,8,0:0:0:0:
256,192,32019,1,8,0:0:0:0:
256,192,32169,1,0,0:0:0:0:
256,192,32469,1,0,0:0:0:0:
256,192,32619,1,8,0:0:0:0:
256,192,32769,1,8,0:0:0:0:
256,192,33069,1,8,0:0:0:0:
256,192,33219,1,8,0:0:0:0:
256,192,33369,1,0,0:0:0:0:
256,192,33669,1,0,0:0:0:0:
256,192,33969,1,8,0:0:0:0:
256,192,34119,1,0,0:0:0:0:
256,192,34269,1,0,0:0:0:0:
256,192,34344,1,0,0:0:0:0:
256,192,34419,1,0,0:0:0:0:
256,192,34569,1,8,0:0:0:0:
256,192,34869,1,0,0:0:0:0:
256,192,35019,1,8,0:0:0:0:
256,192,35169,1,8,0:0:0:0:
256,192,35469,1,8,0:0:0:0:
256,192,35619,1,0,0:0:0:0:
256,192,35769,1,8,0:0:0:0:
256,192,36069,1,0,0:0:0:0:
256,192,36369,1,8,0:0:0:0:
256,192,36519,1,0,0:0:0:0:
256,192,36669,1,8,0:0:0:0:
256,192,36744,1,8,0:0:0:0:
256,192,36819,1,8,0:0:0:0:
256,192,36969,1,0,0:0:0:0:
256,192,37269,1,0,0:0:0:0:
256,192,37419,1,8,0:0:0:0:
256,192,37569,1,8,0:0:0:0:
256,192,37869,1,8,0:0:0:0:
256,192,38019,1,8,0:0:0:0:
256,192,38169,1,0,0:0:0:0:
256,192,38469,1,0,0:0:0:0:
256,192,38769,1,8,0:0:0:0:
256,192,38919,1,0,0:0:0:0:
256,192,39069,1,0,0:0:0:0:
256,192,39144,1,0,0:0:0:0:
256,192,39219,1,0,0:0:0:0:
256,192,39369,1,8,0:0:0:0:
256,192,39519,1,8,0:0:0:0:
256,192,39669,1,4,0:0:0:0:
256,192,40269,1,0,0:0:0:0:
256,192,40569,1,8,0:0:0:0:
256,192,40869,1,0,0:0:0:0:
256,192,41019,1,0,0:0:0:0:
256,192,41469,1,0,0:0:0:0:
256,192,41769,1,8,0:0:0:0:
256,192,42069,1,0,0:0:0:0:
224,192,42369,1,0,0:0:0:0:
224,192,42519,1,8,0:0:0:0:
256,192,42969,1,8,0:0:0:0:
256,192,43269,1,0,0:0:0:0:
256,192,43419,1,0,0:0:0:0:
256,192,43569,1,8,0:0:0:0:
256,192,43869,1,8,0:0:0:0:
256,192,44169,1,0,0:0:0:0:
256,192,44319,1,0,0:0:0:0:
256,192,44394,1,0,0:0:0:0:
256,192,44469,1,0,0:0:0:0:
256,192,45069,1,0,0:0:0:0:
256,192,45369,1,8,0:0:0:0:
256,192,45669,1,0,0:0:0:0:
256,192,45819,1,0,0:0:0:0:
256,192,46269,1,0,0:0:0:0:
256,192,46569,1,8,0:0:0:0:
256,192,46869,1,0,0:0:0:0:
256,192,47169,1,8,0:0:0:0:
256,192,47469,1,0,0:0:0:0:
256,192,47619,1,8,0:0:0:0:
256,192,48069,1,8,0:0:0:0:
256,192,48369,1,0,0:0:0:0:
256,192,48669,1,8,0:0:0:0:
256,192,48819,1,8,0:0:0:0:
256,192,48969,1,0,0:0:0:0:
256,192,49269,1,0,0:0:0:0:
256,192,49419,1,8,0:0:0:0:
256,192,49569,1,8,0:0:0:0:
256,192,49869,1,0,0:0:0:0:
256,192,50169,1,8,0:0:0:0:
256,192,50469,1,8,0:0:0:0:
256,192,50619,1,8,0:0:0:0:
256,192,50769,1,0,0:0:0:0:
256,192,51069,1,0,0:0:0:0:
256,192,51369,1,0,0:0:0:0:
256,192,51669,1,0,0:0:0:0:
256,192,51819,1,8,0:0:0:0:
256,192,51969,1,8,0:0:0:0:
256,192,52269,1,0,0:0:0:0:
256,192,52569,1,8,0:0:0:0:
256,192,52869,1,8,0:0:0:0:
256,192,53019,1,0,0:0:0:0:
256,192,53169,1,8,0:0:0:0:
256,192,53469,1,0,0:0:0:0:
256,192,53544,1,0,0:0:0:0:
256,192,53619,1,0,0:0:0:0:
256,192,53769,1,8,0:0:0:0:
256,192,54069,1,0,0:0:0:0:
256,192,54219,1,8,0:0:0:0:
256,192,54369,1,8,0:0:0:0:
256,192,54669,1,0,0:0:0:0:
256,192,54969,1,8,0:0:0:0:
256,192,55269,1,8,0:0:0:0:
256,192,55419,1,8,0:0:0:0:
256,192,55569,1,0,0:0:0:0:
256,192,55869,1,0,0:0:0:0:
256,192,56169,1,0,0:0:0:0:
256,192,56469,1,0,0:0:0:0:
256,192,56619,1,8,0:0:0:0:
256,192,56769,1,8,0:0:0:0:
256,192,57069,1,0,0:0:0:0:
256,192,57369,1,8,0:0:0:0:
256,192,57669,1,0,0:0:0:0:
256,192,57819,1,0,0:0:0:0:
256,192,57969,1,8,0:0:0:0:
256,192,58269,1,0,0:0:0:0:
256,192,58344,1,0,0:0:0:0:
256,192,58419,1,0,0:0:0:0:
256,192,58569,1,8,0:0:0:0:
256,192,58869,1,0,0:0:0:0:
256,192,59169,1,8,0:0:0:0:
256,192,59469,1,8,0:0:0:0:
256,192,59919,1,0,0:0:0:0:
256,192,60369,1,0,0:0:0:0:
256,192,60669,1,0,0:0:0:0:
256,192,60819,1,8,0:0:0:0:
256,192,61119,1,0,0:0:0:0:
256,192,61194,1,0,0:0:0:0:
256,192,61269,1,0,0:0:0:0:
256,192,61419,1,8,0:0:0:0:
256,192,61569,1,8,0:0:0:0:
256,192,61869,1,8,0:0:0:0:
256,192,62319,1,0,0:0:0:0:
256,192,62769,1,0,0:0:0:0:
256,192,63069,1,8,0:0:0:0:
256,192,63219,1,0,0:0:0:0:
256,192,63519,1,0,0:0:0:0:
256,192,63594,1,0,0:0:0:0:
256,192,63669,1,0,0:0:0:0:
256,192,63819,1,8,0:0:0:0:
256,192,63969,1,8,0:0:0:0:
256,192,64269,1,8,0:0:0:0:
256,192,64719,1,0,0:0:0:0:
256,192,65169,1,8,0:0:0:0:
256,192,65469,1,8,0:0:0:0:
256,192,65619,1,0,0:0:0:0:
256,192,65919,1,0,0:0:0:0:
256,192,65994,1,0,0:0:0:0:
256,192,66069,1,0,0:0:0:0:
256,192,66219,1,8,0:0:0:0:
256,192,66369,1,8,0:0:0:0:
256,192,66669,1,8,0:0:0:0:
256,192,67119,1,0,0:0:0:0:
256,192,67569,1,8,0:0:0:0:
256,192,67869,1,0,0:0:0:0:
256,192,68019,1,0,0:0:0:0:
256,192,68169,1,8,0:0:0:0:
256,192,68244,1,8,0:0:0:0:
256,192,68319,1,8,0:0:0:0:
256,192,68469,1,4,0:0:0:0:
256,192,68919,1,8,0:0:0:0:
256,192,69369,1,8,0:0:0:0:
256,192,69669,1,0,0:0:0:0:
256,192,70119,1,0,0:0:0:0:
256,192,70569,1,8,0:0:0:0:
256,192,70869,1,0,0:0:0:0:
256,192,71319,1,0,0:0:0:0:
256,192,71769,1,8,0:0:0:0:
256,192,72069,1,0,0:0:0:0:
256,192,72519,1,8,0:0:0:0:
256,192,72969,1,8,0:0:0:0:
256,192,73119,1,0,0:0:0:0:
256,192,73194,1,0,0:0:0:0:
256,192,73269,1,0,0:0:0:0:
256,192,73719,1,0,0:0:0:0:
256,192,74169,1,8,0:0:0:0:
256,192,74469,1,0,0:0:0:0:
256,192,74919,1,8,0:0:0:0:
256,192,75369,1,0,0:0:0:0:
256,192,75669,1,8,0:0:0:0:
256,192,76119,1,0,0:0:0:0:
256,192,76569,1,8,0:0:0:0:
256,192,76869,1,8,0:0:0:0:
256,192,77319,1,0,0:0:0:0:
256,192,77619,1,8,0:0:0:0:
256,192,77769,1,0,0:0:0:0:
256,192,78069,1,12,0:0:0:0:
256,192,80469,1,0,0:0:0:0:
256,192,81669,1,8,0:0:0:0:
256,192,82869,1,8,0:0:0:0:
256,192,85269,1,8,0:0:0:0:
256,192,86469,1,8,0:0:0:0:
256,192,86919,1,0,0:0:0:0:
256,192,87219,1,8,0:0:0:0:
256,192,87369,1,0,0:0:0:0:
256,192,87669,1,8,0:0:0:0:
256,192,87819,1,0,0:0:0:0:
256,192,88269,1,8,0:0:0:0:
256,192,88869,1,8,0:0:0:0:
256,192,89019,1,0,0:0:0:0:
256,192,89469,1,8,0:0:0:0:
256,192,89769,1,0,0:0:0:0:
256,192,89919,1,0,0:0:0:0:
256,192,90069,1,8,0:0:0:0:
256,192,90369,1,8,0:0:0:0:
256,192,90669,1,0,0:0:0:0:
256,192,90969,1,8,0:0:0:0:
256,192,91269,1,0,0:0:0:0:
256,192,91419,1,0,0:0:0:0:
256,192,91569,1,8,0:0:0:0:
256,192,91869,1,0,0:0:0:0:
256,192,92169,1,8,0:0:0:0:
256,192,92319,1,0,0:0:0:0:
256,192,92469,1,0,0:0:0:0:
256,192,92619,1,0,0:0:0:0:
256,192,92769,1,8,0:0:0:0:
256,192,93069,1,8,0:0:0:0:
256,192,93219,1,0,0:0:0:0:
256,192,93369,1,0,0:0:0:0:
256,192,93669,1,0,0:0:0:0:
256,192,93819,1,0,0:0:0:0:
256,192,93969,1,8,0:0:0:0:
256,192,94269,1,8,0:0:0:0:
256,192,94419,1,0,0:0:0:0:
256,192,94569,1,0,0:0:0:0:
256,192,94869,1,0,0:0:0:0:
256,192,95019,1,8,0:0:0:0:
256,192,95169,1,8,0:0:0:0:
256,192,95469,1,8,0:0:0:0:
256,192,95769,1,0,0:0:0:0:
256,192,96069,1,8,0:0:0:0:
256,192,96219,1,8,0:0:0:0:
256,192,96369,1,0,0:0:0:0:
256,192,96669,1,0,0:0:0:0:
256,192,96969,1,8,0:0:0:0:
256,192,97269,1,8,0:0:0:0:
256,192,97719,1,0,0:0:0:0:
256,192,98019,1,0,0:0:0:0:
256,192,98469,1,8,0:0:0:0:
256,192,98919,1,8,0:0:0:0:
256,192,99219,1,0,0:0:0:0:
256,192,99669,1,8,0:0:0:0:
256,192,100119,1,0,0:0:0:0:
256,192,100419,1,0,0:0:0:0:
256,192,100869,1,8,0:0:0:0:
256,192,101319,1,8,0:0:0:0:
256,192,101619,1,8,0:0:0:0:
256,192,102069,1,8,0:0:0:0:
256,192,102519,1,8,0:0:0:0:
256,192,102819,1,0,0:0:0:0:
256,192,103269,1,8,0:0:0:0:
256,192,103719,1,8,0:0:0:0:
256,192,104019,1,0,0:0:0:0:
256,192,104469,1,8,0:0:0:0:
256,192,104919,1,0,0:0:0:0:
256,192,105219,1,0,0:0:0:0:
256,192,105669,1,8,0:0:0:0:
256,192,106119,1,8,0:0:0:0:
256,192,106419,1,8,0:0:0:0:
256,192,106869,1,0,0:0:0:0:
256,192,107169,1,8,0:0:0:0:
256,192,107319,1,0,0:0:0:0:
256,192,107469,1,0,0:0:0:0:
256,192,107769,1,8,0:0:0:0:
256,192,108069,1,0,0:0:0:0:
256,192,108219,1,8,0:0:0:0:
256,192,108369,1,8,0:0:0:0:
288,192,108519,1,0,0:0:0:0:
256,192,108819,1,8,0:0:0:0:
256,192,109269,1,0,0:0:0:0:
256,192,109569,1,8,0:0:0:0:
256,192,109719,1,0,0:0:0:0:
256,192,109869,1,0,0:0:0:0:
256,192,110169,1,8,0:0:0:0:
256,192,110469,1,0,0:0:0:0:
256,192,110619,1,0,0:0:0:0:
256,192,110769,1,8,0:0:0:0:
256,192,110919,1,0,0:0:0:0:
256,192,111219,1,8,0:0:0:0:
256,192,111669,1,8,0:0:0:0:
256,192,111969,1,8,0:0:0:0:
256,192,112119,1,8,0:0:0:0:
256,192,112269,1,0,0:0:0:0:
256,192,112569,1,8,0:0:0:0:
256,192,112869,1,0,0:0:0:0:
256,192,113169,1,8,0:0:0:0:
256,192,113319,1,0,0:0:0:0:
256,192,113619,1,8,0:0:0:0:
256,192,114069,1,8,0:0:0:0:
256,192,114369,1,8,0:0:0:0:
256,192,114519,1,8,0:0:0:0:
256,192,114669,1,0,0:0:0:0:
256,192,114969,1,8,0:0:0:0:
256,192,115269,1,0,0:0:0:0:
256,192,115569,1,8,0:0:0:0:
256,192,115719,1,8,0:0:0:0:
256,192,116019,1,0,0:0:0:0:
256,192,116469,1,0,0:0:0:0:
256,192,116619,1,8,0:0:0:0:
256,192,116769,1,8,0:0:0:0:
256,192,116919,1,0,0:0:0:0:
256,192,117069,1,8,0:0:0:0:
256,192,117369,1,8,0:0:0:0:
256,192,117669,1,8,0:0:0:0:
256,192,117819,1,0,0:0:0:0:
256,192,117894,1,0,0:0:0:0:
256,192,117969,1,0,0:0:0:0:
256,192,118119,1,0,0:0:0:0:
256,192,118269,1,8,0:0:0:0:
256,192,118569,1,0,0:0:0:0:
256,192,118869,1,0,0:0:0:0:
256,192,119019,1,8,0:0:0:0:
256,192,119169,1,8,0:0:0:0:
256,192,119319,1,8,0:0:0:0:
256,192,119469,1,0,0:0:0:0:
256,192,119769,1,8,0:0:0:0:
256,192,120069,1,8,0:0:0:0:
256,192,120219,1,0,0:0:0:0:
256,192,120294,1,0,0:0:0:0:
256,192,120369,1,0,0:0:0:0:
256,192,120519,1,0,0:0:0:0:
256,192,120669,1,8,0:0:0:0:
256,192,120819,1,0,0:0:0:0:
256,192,120969,1,8,0:0:0:0:
256,192,121269,1,0,0:0:0:0:
256,192,121419,1,8,0:0:0:0:
256,192,121569,1,8,0:0:0:0:
256,192,121719,1,0,0:0:0:0:
256,192,121869,1,8,0:0:0:0:
256,192,122169,1,8,0:0:0:0:
256,192,122469,1,8,0:0:0:0:
256,192,122619,1,0,0:0:0:0:
256,192,122694,1,0,0:0:0:0:
256,192,122769,1,0,0:0:0:0:
256,192,122919,1,0,0:0:0:0:
256,192,123069,1,8,0:0:0:0:
256,192,123369,1,0,0:0:0:0:
256,192,123669,1,0,0:0:0:0:
256,192,123819,1,8,0:0:0:0:
256,192,123969,1,8,0:0:0:0:
256,192,124119,1,8,0:0:0:0:
256,192,124269,1,0,0:0:0:0:
256,192,124569,1,8,0:0:0:0:
256,192,124869,1,8,0:0:0:0:
256,192,125019,1,0,0:0:0:0:
256,192,125094,1,0,0:0:0:0:
256,192,125169,1,0,0:0:0:0:
256,192,125319,1,0,0:0:0:0:
256,192,125469,1,8,0:0:0:0:
256,192,125769,1,0,0:0:0:0:
256,192,125919,1,0,0:0:0:0:
256,192,126069,1,0,0:0:0:0:
256,192,126219,1,0,0:0:0:0:
256,192,126369,1,8,0:0:0:0:
256,192,126669,1,8,0:0:0:0:
256,192,126744,1,8,0:0:0:0:
256,192,126819,1,8,0:0:0:0:
256,192,127119,1,0,0:0:0:0:
256,192,127269,1,0,0:0:0:0:
256,192,127569,1,8,0:0:0:0:
256,192,127719,1,0,0:0:0:0:
256,192,127869,1,0,0:0:0:0:
256,192,127944,1,0,0:0:0:0:
256,192,128019,1,0,0:0:0:0:
256,192,128169,1,0,0:0:0:0:
256,192,128469,1,0,0:0:0:0:
256,192,128619,1,0,0:0:0:0:
256,192,128769,1,8,0:0:0:0:
256,192,129069,1,8,0:0:0:0:
256,192,129144,1,8,0:0:0:0:
256,192,129219,1,8,0:0:0:0:
256,192,129519,1,8,0:0:0:0:
256,192,129669,1,0,0:0:0:0:
256,192,129969,1,8,0:0:0:0:
256,192,130119,1,0,0:0:0:0:
256,192,130269,1,8,0:0:0:0:
256,192,130344,1,8,0:0:0:0:
256,192,130419,1,8,0:0:0:0:
256,192,130569,1,0,0:0:0:0:
256,192,130869,1,0,0:0:0:0:
256,192,131019,1,0,0:0:0:0:
256,192,131169,1,8,0:0:0:0:
256,192,131469,1,8,0:0:0:0:
256,192,131544,1,8,0:0:0:0:
256,192,131619,1,8,0:0:0:0:
256,192,131919,1,0,0:0:0:0:
256,192,132069,1,0,0:0:0:0:
256,192,132369,1,8,0:0:0:0:
256,192,132519,1,0,0:0:0:0:
256,192,132669,1,0,0:0:0:0:
256,192,132744,1,0,0:0:0:0:
256,192,132819,1,0,0:0:0:0:
256,192,132969,1,0,0:0:0:0:
256,192,133269,1,0,0:0:0:0:
256,192,133419,1,0,0:0:0:0:
256,192,133569,1,8,0:0:0:0:
256,192,133869,1,8,0:0:0:0:
256,192,133944,1,8,0:0:0:0:
256,192,134019,1,8,0:0:0:0:
256,192,134319,1,0,0:0:0:0:
256,192,134469,1,8,0:0:0:0:
256,192,134769,1,8,0:0:0:0:
256,192,134919,1,0,0:0:0:0:
256,192,135069,1,8,0:0:0:0:
256,192,135144,1,8,0:0:0:0:
256,192,135219,1,8,0:0:0:0:
256,192,135369,1,0,0:0:0:0:
256,192,135519,1,8,0:0:0:0:
256,192,135669,12,0,140469,0:0:0:0:
