osu file format v14

[General]
AudioFilename: Blackhole - Diosynth.mp3
AudioLeadIn: 0
PreviewTime: 20469
Countdown: 0
SampleSet: Normal
StackLeniency: 0.7
Mode: 1
LetterboxInBreaks: 0
WidescreenStoryboard: 0

[Editor]
Bookmarks: 1249,6049,8449,10849,20449,30049,39649,49249,58849,68449,78049,87649,97249,106849,116449,126049,135649
DistanceSpacing: 1.2
BeatDivisor: 2
GridSize: 32
TimelineZoom: 1.900001

[Metadata]
Title:DioSynth
TitleUnicode:DioSynth
Artist:Erik McClure
ArtistUnicode:Erik McClure
Creator:xfraczynho
Version:Futsuu
Source:
Tags:Blackhole Newgrounds Techno Blackhole12 Audio Deathmatch NGADM _yu68
BeatmapID:1297309
BeatmapSetID:615009

[Difficulty]
HPDrainRate:7
CircleSize:2
OverallDifficulty:4
ApproachRate:0
SliderMultiplier:1.2
SliderTickRate:1

[Events]
//Background and Video events
0,0,"bg.jpg",0,0
//Break Periods
//Storyboard Layer 0 (Background)
//Storyboard Layer 1 (Fail)
//Storyboard Layer 2 (Pass)
//Storyboard Layer 3 (Foreground)
//Storyboard Sound Samples

[TimingPoints]
1269,300,4,1,0,50,1,0
10869,-100,4,1,0,70,0,0
20469,-100,4,1,0,90,0,1
39669,-100,4,1,0,70,0,0
58869,-100,4,1,0,60,0,0
68469,-100,4,1,0,50,0,0
87669,-100,4,1,0,60,0,0
97269,-100,4,1,0,50,0,0
106869,-100,4,1,0,70,0,0
108069,-100,4,1,0,75,0,0
109269,-100,4,1,0,80,0,0
111669,-100,4,1,0,85,0,0
116469,-100,4,1,0,90,0,1
135669,-100,4,1,0,70,0,0
136869,-100,4,1,0,55,0,0
138069,-100,4,1,0,40,0,0
139269,-100,4,1,0,25,0,0
140469,-100,4,1,0,10,0,0

[HitObjects]
256,192,1269,5,12,0:0:0:0:
256,192,6069,1,0,0:0:0:0:
256,192,6219,1,8,0:0:0:0:
256,192,6669,1,0,0:0:0:0:
256,192,7269,1,0,0:0:0:0:
256,192,7419,1,8,0:0:0:0:
256,192,7869,1,0,0:0:0:0:
256,192,8169,1,0,0:0:0:0:
256,192,8319,1,0,0:0:0:0:
256,192,8469,1,0,0:0:0:0:
256,192,8769,1,8,0:0:0:0:
256,192,9069,1,0,0:0:0:0:
256,192,9669,1,0,0:0:0:0:
256,192,9969,1,8,0:0:0:0:
256,192,10269,1,0,0:0:0:0:
256,192,10869,1,4,0:0:0:0:
256,192,11469,1,8,0:0:0:0:
256,192,12069,1,0,0:0:0:0:
256,192,12369,1,0,0:0:0:0:
256,192,12669,1,8,0:0:0:0:
256,192,13269,1,0,0:0:0:0:
256,192,13869,1,8,0:0:0:0:
256,192,14469,1,0,0:0:0:0:
256,192,14769,1,8,0:0:0:0:
256,192,15069,1,0,0:0:0:0:
256,192,15369,1,8,0:0:0:0:
256,192,15669,1,0,0:0:0:0:
256,192,16269,1,8,0:0:0:0:
256,192,16869,1,0,0:0:0:0:
256,192,17169,1,0,0:0:0:0:
256,192,17469,1,8,0:0:0:0:
256,192,18069,1,0,0:0:0:0:
256,192,18669,1,8,0:0:0:0:
256,192,19269,1,0,0:0:0:0:
256,192,19569,1,8,0:0:0:0:
256,192,19869,1,0,0:0:0:0:
256,192,20169,1,0,0:0:0:0:
256,192,20469,1,8,0:0:0:0:
256,192,21069,1,0,0:0:0:0:
256,192,21369,1,8,0:0:0:0:
256,192,21669,1,0,0:0:0:0:
256,192,21969,1,8,0:0:0:0:
256,192,22119,1,8,0:0:0:0:
256,192,22269,1,0,0:0:0:0:
256,192,22569,1,8,0:0:0:0:
256,192,22869,1,0,0:0:0:0:
256,192,23469,1,0,0:0:0:0:
256,192,23769,1,8,0:0:0:0:
256,192,24069,1,0,0:0:0:0:
256,192,24369,1,8,0:0:0:0:
256,192,24519,1,8,0:0:0:0:
256,192,24669,1,8,0:0:0:0:
256,192,24969,1,8,0:0:0:0:
256,192,25269,1,0,0:0:0:0:
256,192,25869,1,0,0:0:0:0:
256,192,26169,1,8,0:0:0:0:
256,192,26469,1,0,0:0:0:0:
256,192,26769,1,8,0:0:0:0:
256,192,26919,1,8,0:0:0:0:
256,192,27069,1,0,0:0:0:0:
256,192,27369,1,8,0:0:0:0:
256,192,27669,1,0,0:0:0:0:
256,192,28269,1,0,0:0:0:0:
256,192,28569,1,8,0:0:0:0:
256,192,28869,1,0,0:0:0:0:
256,192,29169,1,8,0:0:0:0:
256,192,29319,1,8,0:0:0:0:
256,192,29469,1,0,0:0:0:0:
256,192,29769,1,8,0:0:0:0:
256,192,30069,1,8,0:0:0:0:
256,192,30669,1,0,0:0:0:0:
256,192,30969,1,8,0:0:0:0:
256,192,31269,1,0,0:0:0:0:
256,192,31569,1,8,0:0:0:0:
256,192,31719,1,0,0:0:0:0:
256,192,31869,1,8,0:0:0:0:
256,192,32169,1,8,0:0:0:0:
256,192,32469,1,0,0:0:0:0:
256,192,33069,1,0,0:0:0:0:
256,192,33369,1,8,0:0:0:0:
256,192,33669,1,0,0:0:0:0:
256,192,33969,1,8,0:0:0:0:
256,192,34119,1,8,0:0:0:0:
256,192,34269,1,8,0:0:0:0:
256,192,34569,1,0,0:0:0:0:
256,192,34869,1,8,0:0:0:0:
256,192,35469,1,0,0:0:0:0:
256,192,35769,1,0,0:0:0:0:
256,192,36069,1,8,0:0:0:0:
256,192,36369,1,8,0:0:0:0:
256,192,36519,1,0,0:0:0:0:
256,192,36669,1,8,0:0:0:0:
256,192,36969,1,0,0:0:0:0:
256,192,37269,1,0,0:0:0:0:
256,192,37869,1,0,0:0:0:0:
256,192,38169,1,8,0:0:0:0:
256,192,38469,1,0,0:0:0:0:
256,192,38769,1,8,0:0:0:0:
256,192,38919,1,8,0:0:0:0:
256,192,39069,1,8,0:0:0:0:
256,192,39369,1,0,0:0:0:0:
256,192,39669,1,12,0:0:0:0:
256,192,40869,1,8,0:0:0:0:
256,192,41169,1,0,0:0:0:0:
256,192,41769,1,8,0:0:0:0:
256,192,42069,1,0,0:0:0:0:
256,192,42369,1,0,0:0:0:0:
256,192,42669,1,8,0:0:0:0:
256,192,43269,1,8,0:0:0:0:
256,192,43569,1,8,0:0:0:0:
256,192,43869,1,0,0:0:0:0:
256,192,44469,1,8,0:0:0:0:
256,192,45669,1,8,0:0:0:0:
256,192,45969,1,0,0:0:0:0:
256,192,46569,1,0,0:0:0:0:
256,192,46869,1,8,0:0:0:0:
256,192,47169,1,0,0:0:0:0:
256,192,47469,1,8,0:0:0:0:
256,192,48069,1,8,0:0:0:0:
256,192,48369,1,0,0:0:0:0:
256,192,48669,1,8,0:0:0:0:
256,192,49269,1,8,0:0:0:0:
256,192,49869,1,8,0:0:0:0:
256,192,50469,1,8,0:0:0:0:
256,192,50769,1,0,0:0:0:0:
256,192,51069,1,8,0:0:0:0:
256,192,51369,1,0,0:0:0:0:
256,192,51669,1,0,0:0:0:0:
256,192,52269,1,0,0:0:0:0:
256,192,52869,1,0,0:0:0:0:
256,192,53169,1,0,0:0:0:0:
256,192,53469,1,8,0:0:0:0:
256,192,53769,1,0,0:0:0:0:
256,192,54069,1,8,0:0:0:0:
256,192,54669,1,8,0:0:0:0:
256,192,55269,1,8,0:0:0:0:
256,192,55569,1,0,0:0:0:0:
256,192,55869,1,8,0:0:0:0:
256,192,56169,1,8,0:0:0:0:
256,192,56469,1,0,0:0:0:0:
256,192,57069,1,0,0:0:0:0:
256,192,57669,1,0,0:0:0:0:
256,192,57969,1,0,0:0:0:0:
256,192,58269,1,8,0:0:0:0:
256,192,58569,1,0,0:0:0:0:
256,192,58869,1,12,0:0:0:0:
256,192,59469,1,8,0:0:0:0:
256,192,60069,1,0,0:0:0:0:
256,192,60969,1,0,0:0:0:0:
256,192,61269,1,8,0:0:0:0:
256,192,61869,1,0,0:0:0:0:
256,192,62469,1,0,0:0:0:0:
256,192,62769,1,0,0:0:0:0:
256,192,63069,1,8,0:0:0:0:
256,192,63669,1,8,0:0:0:0:
256,192,64269,1,0,0:0:0:0:
256,192,64869,1,0,0:0:0:0:
256,192,65769,1,0,0:0:0:0:
256,192,66069,1,8,0:0:0:0:
256,192,66669,1,0,0:0:0:0:
256,192,67269,1,8,0:0:0:0:
256,192,67569,1,0,0:0:0:0:
256,192,67869,1,8,0:0:0:0:
256,192,68469,1,4,0:0:0:0:
256,192,69369,1,8,0:0:0:0:
256,192,69669,1,0,0:0:0:0:
256,192,70569,1,8,0:0:0:0:
256,192,70869,1,0,0:0:0:0:
256,192,71769,1,8,0:0:0:0:
256,192,72069,1,8,0:0:0:0:
256,192,72969,1,0,0:0:0:0:
256,192,73119,1,0,0:0:0:0:
256,192,73269,1,8,0:0:0:0:
256,192,74169,1,8,0:0:0:0:
256,192,74469,1,0,0:0:0:0:
256,192,75369,5,8,0:0:0:0:
256,192,75669,1,8,0:0:0:0:
256,192,76569,5,0,0:0:0:0:
256,192,76869,1,8,0:0:0:0:
256,192,77769,1,0,0:0:0:0:
256,192,78069,1,12,0:0:0:0:
256,192,80469,1,0,0:0:0:0:
256,192,81669,1,8,0:0:0:0:
256,192,82269,1,8,0:0:0:0:
256,192,82869,1,8,0:0:0:0:
256,192,84069,1,0,0:0:0:0:
256,192,85269,1,0,0:0:0:0:
256,192,86469,1,8,0:0:0:0:
256,192,87069,1,8,0:0:0:0:
256,192,87669,1,8,0:0:0:0:
256,192,87819,1,0,0:0:0:0:
256,192,88269,1,0,0:0:0:0:
256,192,88869,1,8,0:0:0:0:
256,192,89019,1,0,0:0:0:0:
256,192,89469,1,0,0:0:0:0:
256,192,89769,1,0,0:0:0:0:
256,192,89919,1,0,0:0:0:0:
256,192,90069,1,8,0:0:0:0:
256,192,90369,1,8,0:0:0:0:
256,192,90669,1,0,0:0:0:0:
256,192,91269,1,8,0:0:0:0:
256,192,91569,1,8,0:0:0:0:
256,192,91869,1,0,0:0:0:0:
256,192,92469,1,0,0:0:0:0:
256,192,92769,1,0,0:0:0:0:
256,192,92919,1,0,0:0:0:0:
256,192,93069,1,0,0:0:0:0:
256,192,93669,1,8,0:0:0:0:
256,192,93969,1,8,0:0:0:0:
256,192,94269,1,0,0:0:0:0:
256,192,94869,1,0,0:0:0:0:
256,192,95169,1,0,0:0:0:0:
256,192,95319,1,0,0:0:0:0:
256,192,95469,1,8,0:0:0:0:
256,192,96069,1,8,0:0:0:0:
256,192,96369,1,0,0:0:0:0:
256,192,96669,1,0,0:0:0:0:
256,192,96969,1,8,0:0:0:0:
256,192,97269,8,0,99069,0:0:0:0:
256,192,99669,5,0,0:0:0:0:
256,192,100869,1,8,0:0:0:0:
256,192,101169,1,0,0:0:0:0:
256,192,101469,1,8,0:0:0:0:
256,192,102069,1,0,0:0:0:0:
256,192,103269,1,8,0:0:0:0:
256,192,103569,1,8,0:0:0:0:
256,192,103869,1,0,0:0:0:0:
256,192,104469,1,8,0:0:0:0:
256,192,105669,1,0,0:0:0:0:
256,192,105969,1,0,0:0:0:0:
256,192,106269,1,8,0:0:0:0:
256,192,106869,1,0,0:0:0:0:
256,192,107469,1,0,0:0:0:0:
256,192,108069,1,0,0:0:0:0:
256,192,108369,1,8,0:0:0:0:
256,192,108669,1,0,0:0:0:0:
256,192,108969,1,0,0:0:0:0:
256,192,109269,1,8,0:0:0:0:
256,192,109869,1,8,0:0:0:0:
256,192,110469,1,8,0:0:0:0:
256,192,110769,1,0,0:0:0:0:
256,192,111069,1,8,0:0:0:0:
256,192,111369,1,8,0:0:0:0:
256,192,111669,1,0,0:0:0:0:
256,192,112269,1,0,0:0:0:0:
256,192,112869,1,0,0:0:0:0:
256,192,113169,1,8,0:0:0:0:
256,192,113469,1,0,0:0:0:0:
256,192,113769,1,0,0:0:0:0:
256,192,114069,1,8,0:0:0:0:
256,192,114669,1,8,0:0:0:0:
256,192,115269,1,8,0:0:0:0:
256,192,115569,1,0,0:0:0:0:
256,192,115869,1,8,0:0:0:0:
256,192,116469,5,8,0:0:0:0:
256,192,117069,1,0,0:0:0:0:
256,192,117369,1,8,0:0:0:0:
256,192,117669,1,0,0:0:0:0:
256,192,117969,1,8,0:0:0:0:
256,192,118119,1,8,0:0:0:0:
256,192,118269,1,0,0:0:0:0:
256,192,118569,1,8,0:0:0:0:
256,192,118869,1,0,0:0:0:0:
256,192,119469,1,8,0:0:0:0:
256,192,119769,1,8,0:0:0:0:
256,192,120069,1,0,0:0:0:0:
256,192,120369,1,0,0:0:0:0:
256,192,120519,1,0,0:0:0:0:
256,192,120669,1,8,0:0:0:0:
256,192,120969,1,0,0:0:0:0:
256,192,121269,1,8,0:0:0:0:
256,192,121869,1,0,0:0:0:0:
256,192,122169,1,0,0:0:0:0:
256,192,122469,1,8,0:0:0:0:
256,192,122769,1,8,0:0:0:0:
256,192,122919,1,8,0:0:0:0:
256,192,123069,1,0,0:0:0:0:
256,192,123369,1,8,0:0:0:0:
256,192,123669,1,0,0:0:0:0:
256,192,124269,1,0,0:0:0:0:
256,192,124569,1,8,0:0:0:0:
256,192,124869,1,0,0:0:0:0:
256,192,125169,1,8,0:0:0:0:
256,192,125319,1,8,0:0:0:0:
256,192,125469,1,8,0:0:0:0:
256,192,125769,1,0,0:0:0:0:
256,192,126069,1,8,0:0:0:0:
256,192,126669,1,8,0:0:0:0:
256,192,126969,1,8,0:0:0:0:
256,192,127269,1,0,0:0:0:0:
256,192,127569,1,0,0:0:0:0:
256,192,127719,1,8,0:0:0:0:
256,192,127869,1,0,0:0:0:0:
256,192,128169,1,8,0:0:0:0:
256,192,128469,1,0,0:0:0:0:
256,192,129069,1,0,0:0:0:0:
256,192,129369,1,0,0:0:0:0:
256,192,129669,1,8,0:0:0:0:
256,192,129969,1,8,0:0:0:0:
256,192,130119,1,0,0:0:0:0:
256,192,130269,1,8,0:0:0:0:
256,192,130569,1,0,0:0:0:0:
256,192,130869,1,8,0:0:0:0:
256,192,131469,1,8,0:0:0:0:
256,192,131769,1,0,0:0:0:0:
256,192,132069,1,8,0:0:0:0:
256,192,132369,1,0,0:0:0:0:
256,192,132519,1,8,0:0:0:0:
256,192,132669,1,0,0:0:0:0:
256,192,132969,1,8,0:0:0:0:
256,192,133269,1,0,0:0:0:0:
256,192,133869,1,0,0:0:0:0:
256,192,134169,1,8,0:0:0:0:
256,192,134469,1,0,0:0:0:0:
256,192,134769,1,8,0:0:0:0:
256,192,134919,1,8,0:0:0:0:
256,192,135069,1,8,0:0:0:0:
256,192,135369,1,8,0:0:0:0:
256,192,135669,8,0,140469,0:0:0:0:
