osu file format v9

[General]
AudioFilename: Pjanoo ( Radio Edit ).mp3
AudioLeadIn: 0
PreviewTime: 59222
Countdown: 3
SampleSet: Normal
StackLeniency: 0.7
Mode: 0
LetterboxInBreaks: 1

[Editor]
DistanceSpacing: 0.8
BeatDivisor: 4
GridSize: 8

[Metadata]
Title:Pjanoo (Radio Edit)
Artist:Eric Prydz ft Pryda
Creator:Annie the Eagle
Version:Hard
Source:
Tags:

[Difficulty]
HPDrainRate:6
CircleSize:4
OverallDifficulty:7
ApproachRate:7
SliderMultiplier:1.4
SliderTickRate:1

[Events]
//Background and Video events
0,0,"title.PNG"
//Break Periods
2,14964,18150
2,32583,33388
//Storyboard Layer 0 (Background)
//Storyboard Layer 1 (Fail)
//Storyboard Layer 2 (Pass)
//Storyboard Layer 3 (Foreground)
//Storyboard Sound Samples
//Background Colour Transformations
3,100,163,162,255

[TimingPoints]
3,476.190476190476,4,1,0,100,1,0
40002,-66.6666666666667,4,1,0,100,0,1
45717,-100,4,1,0,100,0,0
78098,-66.6666666666667,4,1,0,100,0,1
85717,-100,4,1,0,100,0,0

[HitObjects]
256,192,1907,6,0,B|112:128,1,140
128,80,2621,5,0
184,80,2860,2,0,B|176:152|248:152|248:80,1,140
288,40,3574,1,0
344,40,3812,1,0
400,40,4050,1,0
448,64,4288,5,8
448,88,4407,1,8
448,112,4526,1,8
416,160,4764,1,0
368,192,5002,1,0
312,192,5240,1,0
200,192,5717,6,0,B|160:168|128:200,2,70
200,248,6431,1,0
200,304,6669,2,8,B|240:328|272:304,2,70
312,312,7621,6,0,B|312:240,1,70
368,240,8098,2,0,B|368:152,1,70
368,112,8574,2,0,B|288:24|248:128,2,140
424,112,9764,2,0,B|424:72,2,35
424,168,10240,1,0
424,224,10479,2,6,B|264:224,1,140
256,192,11431,12,2,14764
88,64,19050,5,0
144,64,19288,1,0
200,64,19526,2,0,B|256:64|288:120|264:160|232:120|264:64|352:64,1,210
408,64,20479,2,0,B|464:64,2,35
408,120,20955,6,0,B|352:176,1,70
320,136,21431,2,0,B|264:192,1,70
224,216,21907,2,2,B|152:304|56:136|200:48|224:144,1,280
280,128,23098,2,0,B|328:128,14,35
336,184,25002,1,2
288,160,25240,6,0,B|288:80,1,70
344,88,25717,2,0,B|384:88,1,35
432,88,26074,2,0,B|432:176,1,70
432,216,26550,2,0,B|384:216,1,35
344,216,26907,1,0
288,216,27145,1,0
288,160,27383,2,2,B|216:96|152:160,1,140
160,208,28098,2,0,B|160:248,1,35
232,288,28574,5,12
288,288,28812,1,12
256,192,29050,12,0,32383
104,64,34288,5,0
160,72,34526,1,0
208,96,34764,1,0
232,144,35002,1,0
232,200,35241,1,0
232,256,35479,2,0,B|184:256,2,35
72,56,36193,5,0
88,112,36431,1,0
128,152,36669,1,0
168,112,36907,1,0
184,56,37145,1,0
240,56,37383,1,0
296,56,37621,1,0
296,56,37740,1,0
296,56,37860,1,0
296,56,37979,1,0
296,56,38098,1,0
352,56,38336,6,0,B|352:96,4,35
408,56,39050,1,2
104,144,40002,5,0
104,200,40240,1,0
160,200,40479,1,2
216,200,40717,6,0,B|280:200|280:144|344:144|344:200|416:200|416:256|344:256|344:312|464:312,1,314.999990612269
464,256,42383,6,0,B|464:136,1,104.999996870756
424,80,42860,2,0,B|368:80,1,52.4999984353781
296,120,43217,2,0,B|240:144|176:112,1,104.999996870756
160,40,43693,2,0,B|88:40,1,52.4999984353781
176,184,44050,1,0
208,232,44288,1,0
256,192,44526,1,8
280,192,44645,1,8
304,192,44764,1,8
328,200,44883,1,8
344,224,45002,1,8
344,248,45121,1,8
336,272,45239,1,8
320,288,45360,1,8
296,288,45479,2,12,B|232:288,2,52.4999984353781
48,48,47621,5,0
104,48,47860,1,0
160,48,48098,2,8,B|160:88,2,35
216,48,48574,2,0,B|288:48|288:120|248:152,1,140
200,144,49288,6,0,B|200:352,1,210
312,352,50479,5,0
336,352,50598,1,0
336,328,50717,1,0
312,328,50836,1,0
312,304,50955,2,0,B|312:208,1,70
312,176,51431,5,0
312,120,51669,1,0
368,120,51907,2,0,B|368:40|192:40|192:128|184:128|200:128|192:136|192:256,1,350
248,256,53336,5,0
272,256,53455,1,0
296,256,53574,1,0
320,256,53693,1,0
344,256,53812,1,0
400,256,54050,2,2,B|400:176|400:176|304:176|304:176|304:120,1,210
224,64,55240,2,4,B|224:24|224:24|88:24|88:24|88:80|88:80|88:272,1,420
168,288,57145,5,0
192,288,57264,1,0
216,288,57383,1,0
240,288,57502,1,0
264,288,57621,1,0
288,288,57740,1,0
320,288,57860,1,0
376,288,58098,1,4
376,232,58336,1,4
376,176,58574,2,0,B|288:176,2,70
296,96,59526,6,0,B|296:48|296:48|328:48|328:48|328:96|328:96|352:96|352:96|352:48|352:48|384:48|384:48|384:96,1,280
200,96,60955,6,2,B|72:96|72:96|72:216|72:216|192:216,1,350
208,256,62383,1,0
232,256,62502,1,0
256,256,62621,1,0
288,256,62741,1,0
312,256,62860,6,8,B|312:136|344:104|376:144|224:136,2,210
216,200,64764,6,0,B|216:120|216:120|280:120|280:120|280:136|280:136,3,140
304,120,66312,2,8,B|352:120,3,35
256,192,67145,12,0,68336
144,88,68574,5,0
168,88,68693,1,0
192,88,68812,1,0
216,88,68931,1,0
240,104,69050,2,0,B|296:168|248:248,1,140
200,232,69764,2,0,B|128:232|128:232|72:272,1,140
48,320,70479,1,0
104,320,70717,1,0
200,320,70955,5,0
224,328,71074,1,0
248,320,71193,1,0
272,312,71312,1,0
296,328,71431,1,0
264,64,71907,6,0,B|192:64,1,70
194,64,72383,1,0
192,120,72621,1,0
216,120,72740,1,0
248,120,72860,1,0
272,120,72979,1,0
296,120,73098,1,0
256,192,73336,12,0,74288
88,72,74526,5,0
144,72,74764,1,0
200,72,75002,1,8
224,72,75121,1,8
248,72,75240,1,8
304,72,75479,2,0,B|384:72,2,70
304,96,76074,1,0
304,120,76193,5,0
360,120,76431,1,0
416,120,76669,1,0
416,176,76907,2,2,B|376:176,6,35
416,288,78098,5,0
376,288,78217,1,0
336,288,78336,2,0,B|336:224,4,52.4999984353781
296,288,78931,2,0,B|296:232,5,52.4999984353781
256,256,79645,1,0
216,232,79764,2,0,B|136:176,1,70
80,40,80479,5,12
392,40,80955,1,12
392,256,81431,1,12
80,256,81907,1,12
256,192,82383,12,14,91431
