osu file format v12

[General]
AudioFilename: 05 (1).mp3
AudioLeadIn: 0
PreviewTime: 33350
Countdown: 0
SampleSet: Normal
StackLeniency: 0.7
Mode: 0
LetterboxInBreaks: 1

[Editor]
DistanceSpacing: 1
BeatDivisor: 4
GridSize: 4

[Metadata]
Title:Call On Me
TitleUnicode:Call On Me
Artist:Eric Prydz
ArtistUnicode:Eric Prydz
Creator:MoodyRPG
Version:Normal
Source:
Tags:electro house pryda
BeatmapID:234561
BeatmapSetID:85329

[Difficulty]
HPDrainRate:5
CircleSize:3
OverallDifficulty:4
ApproachRate:4
SliderMultiplier:1.1
SliderTickRate:1

[Events]
//Background and Video events
0,0,"BG hot.jpg",0,0
//Break Periods
2,46851,56733
2,100058,109939
//Storyboard Layer 0 (Background)
//Storyboard Layer 1 (Fail)
//Storyboard Layer 2 (Pass)
//Storyboard Layer 3 (Foreground)
//Storyboard Sound Samples
//Background Colour Transformations
3,100,163,162,255

[TimingPoints]
1046,475.059382422803,4,1,0,60,1,0
73255,-100,4,1,0,40,0,0
77055,-100,4,2,1,55,0,0
84656,-100,4,1,0,35,0,0
111259,-100,4,2,1,30,0,0
115060,-100,4,2,1,40,0,0
118860,-100,4,2,1,50,0,0
126461,-100,4,1,0,60,0,0
130262,-100,4,1,0,60,0,1
143088,-100,4,1,0,60,0,0
145464,-100,4,1,0,60,0,1
156865,-100,4,1,0,60,0,0

[Colours]
Combo1 : 255,128,255
Combo2 : 255,0,0
Combo3 : 128,128,255
Combo4 : 0,255,255

[HitObjects]
256,192,27649,12,0,30499,0:0:0:0:
408,71,31449,6,0,P|459:70|490:130,2,110,4|8|0,0:0|0:0|0:0,0:0:0:0:
324,143,32874,1,8,0:0:0:0:
287,247,33350,2,0,L|277:306,1,55
171,330,34062,1,2,0:0:0:0:
77,264,34537,1,0,0:0:0:0:
77,264,34775,1,8,0:0:0:0:
26,166,35250,6,0,P|64:109|213:107,1,220,0|0,0:0|0:0,0:0:0:0:
253,199,36675,1,8,0:0:0:0:
350,148,37150,2,0,L|364:85,1,55
452,31,37863,1,2,0:0:0:0:
445,140,38338,2,0,L|428:212,1,55,0|8,0:0|0:0,0:0:0:0:
371,285,39050,6,0,P|436:296|522:238,2,165,0|0|8,0:0|0:0|0:0,0:0:0:0:
344,178,40950,2,0,P|243:183|188:213,1,165,0|2,0:0|0:0,0:0:0:0:
100,279,42138,2,0,L|78:213,1,55,0|8,0:0|0:0,0:0:0:0:
31,129,42851,6,0,P|112:108|186:57,1,165,0|0,0:0|0:0,0:0:0:0:
269,126,44038,2,0,L|293:186,1,55,0|8,0:0|0:0,0:0:0:0:
256,192,44751,12,4,46651,0:0:0:0:
256,192,58053,12,0,60903,0:0:0:0:
185,281,61853,6,0,P|255:322|324:283,2,165,0|0|8,0:0|0:0|0:0,0:0:0:0:
81,317,63753,2,0,L|63:148,1,165,0|2,0:0|0:0,0:0:0:0:
118,57,64941,1,0,0:0:0:0:
118,57,65179,1,8,0:0:0:0:
222,23,65654,6,0,P|277:49|296:100,2,110,0|8|0,0:0|0:0|0:0,0:0:0:0:
166,118,67079,1,8,0:0:0:0:
92,199,67554,2,0,L|105:268,1,55
148,352,68266,1,2,0:0:0:0:
233,282,68741,1,0,0:0:0:0:
233,282,68979,1,8,0:0:0:0:
340,287,69454,6,0,P|410:311|489:203,1,220
418,126,70879,2,0,L|355:107,1,55,8|0,0:0|0:0,0:0:0:0:
322,75,71354,2,0,P|289:132|189:147,1,165,0|2,0:0|0:0,0:0:0:0:
119,72,72542,1,0,0:0:0:0:
119,72,72779,1,8,0:0:0:0:
44,153,73255,6,0,P|22:206|46:260,1,110,0|8,0:0|0:0,0:0:0:0:
141,213,74205,2,8,P|160:265|136:319,1,110,0|8,0:0|0:0,0:0:0:0:
250,322,75155,2,0,P|354:324|438:241,1,220,0|0,0:0|0:0,0:0:0:0:
475,146,76580,1,8,0:0:0:0:
378,93,77055,6,0,P|340:120|267:127,1,110,4|2,0:0|0:0,0:0:0:0:
175,89,78005,2,0,L|159:20,2,55,0|0|2,0:0|0:0|0:0,0:0:0:0:
171,200,78955,2,0,P|102:225|8:214,2,165,0|0|2,0:0|0:0|0:0,0:0:0:0:
276,168,80855,6,0,P|321:134|383:135,1,110,0|2,0:0|0:0,0:0:0:0:
456,203,81806,2,0,L|483:142,2,55,0|0|2,0:0|0:0|0:0,0:0:0:0:
360,257,82756,2,0,P|427:307|519:296,2,165,0|0|2,0:0|0:0|0:0,0:0:0:0:
309,159,84656,6,0,P|245:168|162:111,1,165,4|0,0:0|0:0,0:0:0:0:
63,71,85844,1,0,0:0:0:0:
63,71,86081,1,8,0:0:0:0:
28,175,86556,2,0,P|28:246|112:288,1,165
201,239,87744,1,0,0:0:0:0:
201,239,87981,1,8,0:0:0:0:
257,333,88456,6,0,P|316:292|414:301,1,165
471,211,89644,1,0,0:0:0:0:
471,211,89882,1,8,0:0:0:0:
396,129,90357,2,0,P|441:104|509:112,2,110,0|8|0,0:0|0:0|0:0,0:0:0:0:
311,58,91782,1,8,0:0:0:0:
311,58,92257,6,0,B|311:138|193:138|193:249,1,220
256,324,93682,1,8,0:0:0:0:
319,234,94157,2,0,B|319:138|201:138|201:58,1,220
111,123,95582,5,8,0:0:0:0:
111,123,95820,1,0,0:0:0:0:
111,123,96057,2,0,P|70:207|161:275,1,220
256,228,97483,1,8,0:0:0:0:
256,192,97958,12,4,99858,0:0:0:0:
97,284,111259,5,0,0:0:0:0:
97,284,111734,2,0,L|221:268,1,110,2|0,0:0|0:0,0:0:0:0:
287,343,112684,1,2,0:0:0:0:
376,279,113160,2,0,P|438:227|416:134,2,165,0|0|2,0:0|0:0|0:0,0:0:0:0:
301,198,115060,6,0,L|315:133,2,55,0|0|2,0:0|0:0|0:0,0:0:0:0:
191,197,116010,2,0,P|142:231|86:230,1,110,0|2,0:0|0:0,0:0:0:0:
28,142,116960,2,0,L|41:81,1,55
125,19,117673,1,2,0:0:0:0:
210,88,118148,1,0,0:0:0:0:
210,88,118385,1,2,0:0:0:0:
318,71,118860,6,0,L|433:65,2,110,0|2|0,0:0|0:0|0:0,0:0:0:0:
359,172,120285,1,2,0:0:0:0:
359,172,120523,1,0,0:0:0:0:
359,172,120760,2,0,P|420:227|388:309,1,165,0|2,0:0|0:0,0:0:0:0:
294,329,121948,2,0,L|280:262,1,55,0|2,0:0|0:0,0:0:0:0:
180,233,122661,6,0,P|133:266|65:260,1,110,0|2,0:0|0:0,0:0:0:0:
13,180,123611,1,0,0:0:0:0:
52,77,124086,1,2,0:0:0:0:
148,129,124561,2,0,P|222:95|313:102,1,165,0|2,0:0|0:0,0:0:0:0:
401,149,125749,1,0,0:0:0:0:
401,149,125986,1,2,0:0:0:0:
256,192,126461,12,0,129312,0:0:0:0:
184,262,130262,6,0,P|256:330|332:262,1,220,4|0,0:0|0:0,0:0:0:0:
410,186,131687,1,8,0:0:0:0:
345,96,132162,2,0,L|321:162,1,55
234,209,132874,1,2,0:0:0:0:
175,117,133350,1,0,0:0:0:0:
175,117,133587,1,8,0:0:0:0:
116,209,134062,6,0,P|60:199|20:163,2,110,0|8|0,0:0|0:0|0:0,0:0:0:0:
180,297,135487,2,0,L|246:274,1,55,8|0,0:0|0:0,0:0:0:0:
282,262,135962,2,0,P|320:293|381:301,1,110,0|0,0:0|0:0,0:0:0:0:
430,282,136675,1,2,0:0:0:0:
493,192,137150,1,0,0:0:0:0:
493,192,137388,1,8,0:0:0:0:
415,114,137863,6,0,P|354:37|273:106,1,220
252,205,139288,2,0,L|185:213,1,55,8|0,0:0|0:0,0:0:0:0:
144,195,139763,2,0,P|129:240|24:235,2,165,0|2|8,0:0|0:0|0:0,0:0:0:0:
230,267,141663,5,0,0:0:0:0:
339,261,142138,2,0,L|468:286,2,110,8|0|8,0:0|0:0|0:0,0:0:0:0:
343,151,143563,2,0,L|463:176,1,110,0|8,0:0|0:0,0:0:0:0:
482,68,144513,2,0,L|502:7,2,55,0|0|8,0:0|0:0|0:0,0:0:0:0:
372,77,145464,6,0,P|316:148|188:123,1,220
110,200,146889,2,0,L|171:237,1,55,8|0,0:0|0:0,0:0:0:0:
202,259,147364,2,0,P|223:327|319:337,1,165,0|2,0:0|0:0,0:0:0:0:
346,240,148551,1,0,0:0:0:0:
346,240,148789,1,8,0:0:0:0:
434,305,149264,6,0,L|451:184,1,110,0|8,0:0|0:0,0:0:0:0:
467,87,150214,2,0,L|532:81,2,55,0|0|8,0:0|0:0|0:0,0:0:0:0:
361,117,151164,1,0,0:0:0:0:
361,117,151402,2,0,P|306:152|255:152,1,110,0|2,0:0|0:0,0:0:0:0:
181,81,152352,2,0,L|167:13,2,55,0|8|0,0:0|0:0|0:0,0:0:0:0:
171,135,153065,6,0,P|104:119|36:187,1,165
92,274,154252,1,0,0:0:0:0:
92,274,154490,1,8,0:0:0:0:
193,224,154965,2,0,L|201:291,1,55
291,339,155677,1,2,0:0:0:0:
388,287,156152,2,0,L|459:298,2,55,0|8|4,0:0|0:0|0:0,0:0:0:0:
256,192,156865,12,4,160665,0:0:0:0:
