osu file format v12

[General]
AudioFilename: 05 (1).mp3
AudioLeadIn: 0
PreviewTime: 33350
Countdown: 0
SampleSet: Soft
StackLeniency: 0.7
Mode: 0
LetterboxInBreaks: 1

[Editor]
DistanceSpacing: 1
BeatDivisor: 4
GridSize: 4

[Metadata]
Title:Call On Me
TitleUnicode:Call On Me
Artist:Eric Prydz
ArtistUnicode:Eric Prydz
Creator:MoodyRPG
Version:Easy
Source:
Tags:electro house pryda
BeatmapID:234559
BeatmapSetID:85329

[Difficulty]
HPDrainRate:2
CircleSize:3
OverallDifficulty:2
ApproachRate:2
SliderMultiplier:0.9
SliderTickRate:1

[Events]
//Background and Video events
0,0,"BG hot.jpg",0,0
//Break Periods
2,46851,56493
2,100058,109699
//Storyboard Layer 0 (Background)
//Storyboard Layer 1 (Fail)
//Storyboard Layer 2 (Pass)
//Storyboard Layer 3 (Foreground)
//Storyboard Sound Samples
//Background Colour Transformations
3,100,163,162,255

[TimingPoints]
1046,475.059382422803,4,1,0,60,1,0
73255,-100,4,1,0,40,0,0
77055,-100,4,2,1,55,0,0
84656,-100,4,1,0,35,0,0
111259,-100,4,2,1,30,0,0
115060,-100,4,2,1,40,0,0
118860,-100,4,2,1,50,0,0
126461,-100,4,1,0,60,0,0
130262,-100,4,1,0,60,0,1
143088,-100,4,1,0,60,0,0
145464,-100,4,1,0,60,0,1
156865,-100,4,1,0,60,0,0

[Colours]
Combo1 : 255,128,255
Combo2 : 255,0,0
Combo3 : 128,128,255
Combo4 : 0,255,255

[HitObjects]
256,192,27649,12,0,30499,0:0:0:0:
81,162,31449,6,0,P|33:229|99:300,1,180,4|0,0:0|0:0,0:0:0:0:
163,253,32874,1,8,0:0:0:0:
238,301,33350,2,0,L|384:287,2,135,0|2|8,0:0|0:0|0:0,0:0:0:0:
242,211,35250,6,0,P|289:137|385:137,1,180
458,164,36675,1,8,0:0:0:0:
393,226,37150,2,0,P|431:275|504:279,2,135,0|2|8,0:0|0:0|0:0,0:0:0:0:
334,294,39050,6,0,P|241:314|166:260,1,180
88,299,40475,1,8,0:0:0:0:
64,212,40950,2,0,P|52:170|73:122,1,90,0|8,0:0|0:0,0:0:0:0:
157,132,41901,2,0,P|169:90|148:42,1,90,0|8,0:0|0:0,0:0:0:0:
240,25,42851,6,0,P|338:17|374:89,1,180
454,120,44276,1,8,0:0:0:0:
256,192,44751,12,4,46651,0:0:0:0:
256,192,58053,12,0,60903,0:0:0:0:
196,250,61853,6,0,P|255:307|314:251,2,180,4|0|0,0:0|0:0|0:0,0:0:0:0:
132,185,64228,2,0,L|39:175,2,90,8|0|8,0:0|0:0|0:0,0:0:0:0:
180,110,65654,6,0,P|264:69|358:57,1,180
423,107,67079,1,8,0:0:0:0:
380,186,67554,2,0,P|447:193|505:151,2,135,0|2|8,0:0|0:0|0:0,0:0:0:0:
315,122,69454,6,0,P|283:148|262:192,1,90,0|8,0:0|0:0,0:0:0:0:
222,272,70404,2,0,L|192:317,2,45,0|0|8,0:0|0:0|0:0,0:0:0:0:
181,192,71354,2,0,L|26:211,2,135,0|2|8,0:0|0:0|0:0,0:0:0:0:
206,105,73255,6,0,P|305:83|368:139,1,180
421,195,74680,1,8,0:0:0:0:
354,259,75155,2,0,P|405:300|491:292,2,135,0|0|8,0:0|0:0|0:0,0:0:0:0:
270,291,77055,6,0,L|178:314,1,90,4|2,0:0|0:0,0:0:0:0:
169,223,78005,2,0,L|81:244,1,90,0|2,0:0|0:0,0:0:0:0:
32,163,78955,2,0,P|59:82|150:85,1,180
224,116,80380,1,2,0:0:0:0:
312,98,80855,6,0,L|454:76,2,135,0|0|2,0:0|0:0|0:0,0:0:0:0:
293,186,82756,2,0,L|156:207,2,135,0|0|2,0:0|0:0|0:0,0:0:0:0:
359,246,84656,6,0,P|407:252|447:280,2,90,4|8|0,0:0|0:0|0:0,0:0:0:0:
273,218,86081,1,8,0:0:0:0:
212,284,86556,2,0,P|129:311|75:241,1,180
13,183,87981,1,8,0:0:0:0:
66,111,88456,6,0,P|140:122|233:73,1,180
318,54,89882,1,8,0:0:0:0:
364,129,90357,2,0,P|438:132|504:174,2,135,0|0|8,0:0|0:0|0:0,0:0:0:0:
300,192,92257,6,0,L|207:192,1,90,0|8,0:0|0:0,0:0:0:0:
212,281,93207,2,0,L|306:281,1,90,0|8,0:0|0:0,0:0:0:0:
379,320,94157,2,0,P|457:288|489:233,2,135,0|0|8,0:0|0:0|0:0,0:0:0:0:
391,230,96057,6,0,L|351:147,1,90,0|8,0:0|0:0,0:0:0:0:
398,72,97007,2,0,L|455:67,2,45,0|0|8,0:0|0:0|0:0,0:0:0:0:
256,192,97958,12,4,99858,0:0:0:0:
140,323,111259,6,0,L|44:297,2,90,0|2|0,0:0|0:0|0:0,0:0:0:0:
193,250,112684,1,2,0:0:0:0:
150,170,113160,2,0,P|95:127|19:139,2,135,0|0|2,0:0|0:0|0:0,0:0:0:0:
228,125,115060,6,0,P|290:74|386:94,1,180,0|0,0:0|0:0,0:0:0:0:
410,176,116485,1,2,0:0:0:0:
355,247,116960,2,0,P|312:275|267:282,1,90,0|2,0:0|0:0,0:0:0:0:
206,223,117910,2,0,L|189:169,2,45,0|0|2,0:0|0:0|0:0,0:0:0:0:
168,304,118860,6,0,P|104:331|25:260,1,180
73,190,120285,1,2,0:0:0:0:
26,117,120760,2,0,P|104:53|168:80,1,180
256,61,122186,1,2,0:0:0:0:
304,136,122661,6,0,L|311:277,1,135
193,337,124086,1,2,0:0:0:0:
162,252,124561,2,0,P|109:216|41:229,2,135,0|0|2,0:0|0:0|0:0,0:0:0:0:
256,192,126461,12,0,129312,0:0:0:0:
204,106,130262,6,0,P|256:46|304:108,1,180,4|0,0:0|0:0,0:0:0:0:
257,184,131687,1,8,0:0:0:0:
311,260,132162,2,0,P|255:289|195:251,2,135,0|2|8,0:0|0:0|0:0,0:0:0:0:
389,304,134062,6,0,P|432:289|459:238,1,90,0|8,0:0|0:0,0:0:0:0:
432,166,135012,2,0,L|493:157,2,45,0|0|8,0:0|0:0|0:0,0:0:0:0:
360,112,135962,2,0,P|321:85|269:82,1,90,0|8,0:0|0:0,0:0:0:0:
198,119,136912,2,0,L|212:167,2,45,0|0|8,0:0|0:0|0:0,0:0:0:0:
151,41,137863,6,0,P|71:21|-1:101,2,180,0|0|0,0:0|0:0|0:0,0:0:0:0:
144,130,140238,2,0,L|241:122,2,90,8|0|8,0:0|0:0|0:0,0:0:0:0:
168,216,141663,6,0,P|105:233|21:222,2,135,0|0|8,0:0|0:0|0:0,0:0:0:0:
243,266,143563,2,0,P|287:283|346:286,1,90,0|8,0:0|0:0,0:0:0:0:
388,219,144513,2,0,L|446:231,2,45,0|0|8,0:0|0:0|0:0,0:0:0:0:
339,143,145464,6,0,P|257:58|170:158,1,270,4|8,0:0|0:0,0:0:0:0:
169,235,147364,2,0,P|257:322|339:237,1,270,0|8,0:0|0:0,0:0:0:0:
405,176,149264,6,0,L|422:37,2,135,0|0|8,0:0|0:0|0:0,0:0:0:0:
316,161,151164,2,0,L|299:305,2,135,0|2|8,0:0|0:0|0:0,0:0:0:0:
240,111,153065,6,0,P|202:85|146:79,1,90,0|8,0:0|0:0,0:0:0:0:
116,157,154015,2,0,L|153:197,2,45,0|0|8,0:0|0:0|0:0,0:0:0:0:
39,204,154965,2,0,P|25:246|46:297,1,90,0|8,0:0|0:0,0:0:0:0:
126,267,155915,1,0,0:0:0:0:
157,351,156390,1,8,0:0:0:0:
256,192,156865,12,4,160665,0:0:0:0:
