osu file format v7

[General]
AudioFilename: Cartman_ft_Lady_Gaga_-_Poker_F.mp3
AudioLeadIn: 0
PreviewTime: 57198
Countdown: 1
SampleSet: Normal
StackLeniency: 0.7
Mode: 0
LetterboxInBreaks: 0

[Editor]
Bookmarks: 111022
DistanceSpacing: 1.10000002384186
BeatDivisor: 4
GridSize: 8

[Metadata]
Title:Poker Face
Artist:Eric Cartman
Creator:Larto
Version:Hard
Source:South Park
Tags:Trey Parker Lady Gaga Pokerface Wales Whales

[Difficulty]
HPDrainRate:5
CircleSize:4
OverallDifficulty:6
SliderMultiplier:1.6
SliderTickRate:2

[Events]
//Background and Video events
0,0,"cartmanpokerface.png"
//Break Periods
2,73787,80604
2,138324,144654
//Storyboard Layer 0 (Background)
//Storyboard Layer 1 (Fail)
//Storyboard Layer 2 (Pass)
//Storyboard Layer 3 (Foreground)
//Storyboard Sound Samples
//Background Colour Transformations
3,100,163,162,255

[TimingPoints]
982,504.201680672269,4,2,0,71,1,0
55435,-100,4,2,0,0,0,0
57199,-100,4,1,0,71,0,0
57451,-100,4,1,0,71,0,1
73587,-100,4,1,0,71,0,0
73713,-100,4,2,0,71,0,0
111906,-100,4,2,0,0,0,0
113670,-100,4,1,0,71,0,0
113922,-100,4,1,0,71,0,1
130059,-100,4,1,0,71,0,0
145704,504.201680672269,4,1,0,71,1,0
146208,504.201680672269,4,1,0,71,1,0
160325,-100,4,1,0,0,0,0
162090,-100,4,2,0,71,0,0
170157,-100,4,1,0,71,0,0
170389,504.201680672269,4,1,0,71,1,1
178461,504.201680672269,4,1,0,71,1,1
194595,-100,4,1,0,71,0,0

[HitObjects]
256,192,25183,5,4
176,240,25435,1,0
80,232,25687,1,8
16,160,25939,1,0
64,72,26192,2,0,B|128:8|232:32,2,160,2|8|2
152,120,27452,1,0
256,120,27704,1,8
360,120,27956,1,0
336,215,28208,2,2,B|160:215,1,160,2|10
40,352,29217,6,0,B|216:352,1,160,4|8
256,272,29973,1,0
312,192,30225,2,0,B|488:192,1,160,2|8
432,104,30981,1,0
360,40,31234,2,0,B|248:40,1,80,2|0
200,96,31738,2,0,B|96:96,1,80,8|0
24,88,32242,2,0,B|-8:152|24:256,1,160,2|4
96,352,33250,5,4
176,328,33503,1,0
256,296,33755,1,8
392,216,34259,1,2
256,136,34763,1,8
392,48,35267,2,0,B|496:56|512:152,2,160,2|8|2
256,136,36780,1,2
104,40,37284,6,0,B|72:120|104:216,1,160,4|8
176,184,38040,1,0
248,160,38292,2,0,B|280:240|248:336,1,160,2|8
176,344,39049,1,0
96,376,39301,2,0,B|96:192,2,160,2|8|2
256,304,40813,1,4
424,248,41318,6,0,B|480:121|384:8,1,240,4|2
332,89,42326,2,0,B|250:134|162:80,1,160,2|8
88,248,43334,6,0,B|32:113|128:8,1,240,4|2
180,89,44343,2,0,B|262:134|342:84,2,160,2|2|6
113,30,45603,5,0
88,120,45855,1,8
160,200,46108,1,0
256,192,46360,1,2
384,120,47116,5,0
432,192,47368,1,2
449,274,47620,1,0
385,338,47872,1,8
289,346,48124,1,2
200,344,48376,2,0,B|200:152,1,160,2|2
32,64,49385,6,0,B|288:64,1,240,4|2
360,64,50393,2,0,B|408:144|360:224,1,160,2|8
480,320,51402,6,0,B|224:320,1,240,4|2
152,320,52410,2,0,B|104:240|152:160,2,160,2|8|4
256,360,53671,5,0
256,272,53923,1,8
256,184,54175,1,0
256,96,54427,1,2
256,192,55435,12,0,56948
152,16,57452,5,4
152,16,57704,2,0,B|208:88,1,80,2|0
256,152,58208,1,2
360,16,58713,6,0,B|304:88,1,80,2|0
256,152,59217,1,2
128,272,59721,5,0
208,320,59973,1,8
304,320,60225,1,0
384,272,60477,1,6
256,152,60981,1,8
176,32,61486,6,0,B|227:22|304:17|355:38,1,160,4|8
333,120,62242,2,2,B|333:192|254:223|172:196|179:99,1,240,2|8
96,272,63503,6,0,B|264:272,1,160,4|8
352,272,64259,1,0
416,192,64511,2,0,B|248:192,1,160,4|8
160,192,65267,1,0
88,144,65519,5,4
88,56,65771,2,0,B|168:32|168:32|248:64,1,160,2|2
424,136,66780,2,0,B|344:160|344:160|264:128,1,160,2|2
256,280,67788,5,0
256,280,68040,1,8
256,280,68292,1,0
336,256,68545,1,6
176,256,69049,1,8
176,104,69553,6,0,B|352:104,1,160,4|8
384,32,70309,2,2,B|120:32,1,240,2|8
256,192,71570,12,4,73587
256,48,81654,5,4
168,192,82158,1,8
128,128,82410,1,0
208,128,82662,1,2
344,192,83166,1,8
384,128,83418,1,0
304,128,83671,1,2
216,264,84175,1,0
296,264,84427,1,8
256,328,84679,1,2
256,192,85183,1,2
136,264,85687,6,0,B|96:184|136:96,1,160,4|8
376,112,86696,2,0,B|416:192|376:280,1,160,2|8
192,192,87704,1,4
256,144,87956,1,0
320,192,88208,1,8
296,264,88460,1,0
216,264,88713,1,2
176,120,89217,1,8
336,120,89721,5,4
384,176,89973,1,0
400,248,90225,2,0,B|416:344|304:368,1,160,8|2
194,364,91234,2,0,B|96:344|112:248,1,160,8|2
181,137,92242,2,0,B|259:84|337:142,1,160,8|2
256,256,93250,1,2
120,200,93755,6,0,B|56:120,1,80,4|0
32,72,94259,2,0,B|120:16,1,80,8|0
168,8,94763,2,0,B|264:24|256:136,1,160,2|8
336,240,95771,1,4
176,240,96276,1,8
256,128,96780,1,2
256,272,97284,1,2
120,320,97788,6,0,B|56:272|56:144|152:80,1,240,4|2
184,144,98797,1,2
256,288,99301,1,2
392,320,99805,6,0,B|456:272|456:144|360:80,1,240,4|2
328,144,100813,1,2
256,288,101318,1,2
168,176,101822,6,0,B|168:72,1,80,4|0
256,72,102326,2,0,B|256:160,1,80,8|0
344,176,102830,1,2
456,360,103587,5,0
392,328,103839,2,0,B|304:328,1,80,4|0
248,368,104343,2,0,B|160:368,1,80,8|0
96,376,104847,2,0,B|24:304|104:216,1,160,2|2
136,96,105855,6,0,B|232:48|296:160|384:88,1,240,4|2
416,48,106864,2,0,B|472:112|432:208,1,160,2|8
376,320,107872,6,0,B|280:368|216:256|128:328,1,240,4|2
96,368,108881,2,2,B|40:304|80:208,1,160
256,200,109889,5,4
256,200,110141,1,0
256,200,110393,1,8
256,200,110645,1,0
256,200,110897,1,2
256,192,111906,12,0,113418
256,192,113923,5,4
192,232,114175,2,0,B|120:272,1,80,2|0
56,296,114679,2,0,B|8:200|80:112,1,160,2|2
96,80,115435,1,0
160,112,115687,1,2
256,224,116192,5,0
304,160,116444,1,8
352,224,116696,1,0
304,288,116948,1,6
208,160,117452,1,8
208,288,117956,6,0,B|136:328|72:248|96:192,1,160,4|8
88,144,118713,2,2,B|104:56|232:24|304:80,1,240,2|8
256,184,119973,5,6
336,320,120477,1,8
256,344,120729,1,0
176,320,120982,1,6
360,248,121486,1,8
152,248,121990,5,4
128,168,122242,2,0,B|128:64|240:40,1,160,2|2
384,168,123250,2,0,B|384:64|272:40,1,160,2|2
192,168,124259,5,0
256,120,124511,1,8
320,168,124763,1,0
328,240,125015,1,6
184,240,125519,1,8
88,112,126024,6,0,B|120:32|224:24,1,160,4|8
301,24,126780,2,2,B|416:40|464:128|432:208|432:224,1,240,2|8
256,192,128040,12,8,129553
80,272,130057,5,4
152,272,130309,2,8,B|256:272,2,80,0|8|0
176,192,131066,2,0,B|360:192,1,160,2|2
360,112,131822,2,8,B|256:112,2,80,0|8|2
432,112,132578,1,0
392,48,132830,1,2
248,40,133334,6,0,B|72:40,1,160
80,112,134091,1,4
152,112,134343,2,8,B|256:112,2,80,0|8|0
176,192,135099,2,0,B|360:192,1,160,2|2
360,272,135855,2,8,B|256:272,2,80,0|8|2
432,272,136612,1,0
392,336,136864,1,2
256,360,137368,5,0
256,360,137620,1,8
256,360,137872,1,0
256,360,138124,1,4
256,192,145704,5,8
104,216,146208,2,0,B|88:176|104:120,1,80,6|0
104,64,146712,2,0,B|151:51|184:64,1,80,8|0
256,64,147216,1,2
408,144,147720,6,0,B|472:208,1,80,8|0
464,280,148224,2,0,B|407:336,1,80,2|0
328,336,148729,6,0,B|264:272,1,80,8|0
272,200,149233,2,0,B|328:143,1,80,6|0
328,72,149737,2,0,B|271:15,1,80,6|0
256,104,150241,1,6
168,272,150745,5,8
128,192,150997,1,0
168,112,151250,1,2
344,272,151754,5,8
384,192,152006,1,0
344,112,152258,1,2
256,24,152762,5,8
200,80,153014,1,0
256,136,153266,1,2
312,192,153518,1,0
256,248,153771,1,2
200,304,154023,1,0
256,360,154275,1,6
400,296,154779,6,0,B|472:232|464:136,1,160,8|2
376,160,155535,1,0
288,176,155787,2,4,B|232:112|264:8,1,160,8|6
352,24,156544,5,0
320,104,156796,2,0,B|224:136|160:104,1,160,8|2
80,72,157552,1,0
8,120,157804,2,0,B|-16:208|88:264,1,160,8|6
160,296,158560,5,0
256,320,158813,1,8
352,296,159065,1,0
384,216,159317,1,6
128,216,159821,1,8
256,192,160325,12,0,161838
256,296,162342,5,4
200,224,162594,2,0,B|224:184|192:136,2,80,2|0|2
312,184,163602,2,0,B|288:144|320:96,2,80,2|0|2
256,40,164611,5,0
256,40,164863,1,8
256,40,165115,1,0
256,40,165367,1,2
256,216,165871,1,8
88,272,166376,6,0,B|120:352|224:360,1,160,4|8
301,360,167132,2,2,B|416:344|464:256|432:176|432:160,1,240,2|8
256,192,168392,12,8,169905
256,192,170389,5,4
176,152,170641,2,0,B|136:88|168:24|232:8,1,160,2|2
336,136,171649,2,0,B|376:200|344:264|280:280,1,160,2|2
128,256,172657,5,0
128,256,172910,1,8
176,376,173414,2,6,B|376:376,1,160,6|8
384,256,174422,6,0,B|456:200|408:80,1,160,4|8
372,45,175178,2,2,B|295:4|198:4|117:61,1,240,2|8
256,192,176439,5,6
136,320,176943,2,0,B|80:288|80:232,1,80,8|0
168,232,177447,1,2
376,320,177952,2,0,B|432:288|432:232,1,80,8|0
344,232,178461,1,6
336,144,178713,6,2,B|168:144,1,160
176,24,179721,2,2,B|344:24,1,160
448,160,180729,1,0
392,224,180982,2,0,B|320:288,1,80,8|0
256,320,181486,2,0,B|160:272|192:168,1,160,6|8
176,16,182494,6,4,B|360:16,1,160,4|8
376,96,183250,2,2,B|112:96,1,240,2|8
24,264,184511,6,0,B|216:264,1,160,4|8
256,312,185267,1,0
336,352,185519,2,0,B|528:352,1,160,2|8
448,192,186528,5,4
392,120,186780,2,0,B|288:120,1,80,2|0
224,120,187284,2,0,B|176:168|176:232|248:288,2,160,2|2|2
336,256,188797,5,0
336,256,189049,1,8
336,256,189301,1,0
336,256,189553,1,6
176,256,190057,1,8
72,144,190561,6,0,B|144:96|232:128,1,160,4|0
232,216,191318,2,2,B|376:280|496:192,1,240,2|8
256,192,192578,12,4,194595
